osu file format v9

[General]
AudioFilename: hatsukoiOP.mp3
AudioLeadIn: 1500
PreviewTime: 56899
Countdown: 0
SampleSet: Soft
StackLeniency: 0.7
Mode: 0
LetterboxInBreaks: 0

[Editor]
DistanceSpacing: 1.1
BeatDivisor: 4
GridSize: 4

[Metadata]
Title:Future Stream (TV Size)
Artist:Sphere
Creator:CXu
Version:Normal
Source:Hatsukoi Limited
Tags:KinomiCandy opening Toyosaki Aki Kotobuki Minako Tomatsu Haruka Takagaki Ayahi

[Difficulty]
HPDrainRate:3
CircleSize:4
OverallDifficulty:3
ApproachRate:5
SliderMultiplier:1.3
SliderTickRate:2

[Events]
//Background and Video events
Video,0,"hatsukoiOP.avi"
0,0,"hatsukoiBG.jpg"
//Break Periods
//Storyboard Layer 0 (Background)
//Storyboard Layer 1 (Fail)
//Storyboard Layer 2 (Pass)
//Storyboard Layer 3 (Foreground)
//Storyboard Sound Samples
//Background Colour Transformations
3,100,163,162,255

[TimingPoints]
509,451.127819548872,4,2,1,80,1,0
43817,-133.333333333333,4,2,1,80,0,0
51035,-100,4,2,1,80,0,0
57125,-100,4,2,1,60,0,0
58253,-100,4,2,1,90,0,1
88704,-100,4,2,1,90,0,0

[Colours]
Combo1 : 255,255,128
Combo2 : 128,255,128
Combo3 : 0,128,255
Combo4 : 255,128,128

[HitObjects]
340,336,509,2,0,B|412:340|460:284,1,130,4|0
476,220,1185,1,2
464,148,1411,2,0,B|392:144|344:200,1,130,2|0
304,252,2087,5,2
304,252,2313,2,0,B|248:204|184:216,1,130,2|0
136,268,2990,1,2
136,268,3215,2,0,B|184:208|160:136,1,130,2|0
116,92,3892,5,2
116,92,4118,2,0,B|160:36|240:32,1,130,8|0
299,32,4794,1,2
370,32,5020,2,0,B|401:92|373:160,1,130,2|0
320,204,5696,5,2
260,240,5922,2,0,B|136:324,1,130,2|0
88,344,6599,1,2
52,280,6824,5,4
8,192,7163,1,4
52,104,7501,1,4
108,60,7727,6,0,B|176:32|232:76,1,130,8|0
268,132,8403,1,2
268,132,8629,2,0,B|336:160|392:116,1,130,2|0
452,80,9305,5,2
452,80,9531,2,0,B|392:121|392:189,1,130,2|0
416,256,10208,1,2
452,316,10433,2,0,B|380:360|284:288|188:328,1,260,2|2
256,192,11448,12,4,14042
136,192,14493,5,4
216,312,14945,6,0,B|268:364|352:352,1,130,2|8
404,332,15621,1,0
476,328,15847,2,0,B|515:269|479:205,1,130,2|8
392,92,16749,2,0,B|352:150|388:214,2,130,2|8|2
260,40,18102,1,8
144,124,18554,6,0,B|36:208,1,130,2|8
68,272,19230,1,0
68,272,19456,2,0,B|176:188,1,130,2|8
288,108,20358,6,0,B|344:88|380:132,2,97.5,2|2|0
320,172,21260,2,0,B|256:220,1,65,2|0
320,260,21712,2,0,B|256:308,1,65,8|0
196,332,22163,6,0,B|129:343|72:299,1,130,0|8
40,236,22839,1,0
32,164,23065,2,0,B|28:80,1,65,2|0
104,120,23516,2,0,B|128:48,1,65,8|0
188,24,23967,5,2
332,24,24418,1,8
256,144,24869,2,0,B|220:204|256:268,1,130,2|8
320,300,25546,1,0
388,324,25772,6,0,B|436:344|484:324,2,97.5,8|2|2
320,300,26674,2,8,B|278:331|272:383,2,97.5,8|2|2
376,252,27576,2,0,B|369:200|327:168,2,97.5,4|4|2
388,324,28478,1,4
388,324,28930,1,4
456,196,29381,6,0,B|464:120|412:72,1,130,2|8
352,48,30057,1,0
300,96,30283,2,0,B|236:128|176:80,1,130,2|8
112,52,30960,1,0
112,52,31185,2,0,B|160:104|128:180,1,130,2|8
76,220,31862,1,0
144,248,32087,2,0,B|192:268|232:228,2,97.5,2|2|0
76,220,32990,6,0,B|52:300|116:340,1,130,2|8
180,335,33666,1,0
244,300,33892,2,8,B|304:264,1,65,2|8
320,336,34343,2,8,B|384:336,1,65,8|4
468,232,35020,5,0
468,232,35245,2,0,B|460:196|428:180,1,65,8|2
360,164,35696,1,4
256,260,36148,1,4
152,164,36599,1,4
36,84,37050,6,0,B|80:28|176:32,1,130,8|2
292,60,37952,1,8
292,60,38178,1,0
292,60,38403,1,2
380,172,38854,1,8
472,280,39305,1,0
472,280,39531,1,8
472,280,39757,1,8
348,352,40208,6,0,B|276:368|224:328,2,130,8|4|8
300,216,41561,1,4
244,172,41787,1,0
188,216,42012,1,2
80,120,42463,1,8
208,56,42915,2,0,B|284:36|344:84,1,130,2|8
416,144,43817,6,0,B|448:168|452:220,2,73.1249978207052,2|0|0
384,184,44719,2,0,B|344:246|247:248,1,146.24999564141,2|0
221,211,45621,2,0,B|184:182|138:205,2,73.1249978207052,2|0|0
205,260,46524,1,2
104,60,47426,6,0,B|60:80|60:136,1,73.1249978207052,2|0
140,136,48102,1,0
140,136,48328,2,0,B|119:179|155:222,1,73.1249978207052,2|0
216,172,49005,1,0
216,172,49231,2,0,B|228:218|283:228,1,73.1249978207052,2|2
300,152,49907,1,0
344,124,50133,2,0,B|384:96|436:124,1,97.4999970942737,2|2
472,264,51035,6,0,B|492:336,1,65,2|0
424,300,51486,2,0,B|396:360,1,65,2|0
364,296,51937,2,0,B|300:308,1,65,2|0
328,244,52388,2,0,B|264:204,1,65,2|0
208,180,52839,5,8
136,168,53065,1,0
84,120,53290,2,0,B|64:48,1,65,2|0
132,84,53741,2,0,B|160:24,1,65,2|0
192,88,54192,2,0,B|256:76,1,65,2|0
228,140,54643,6,0,B|296:160|300:240,2,130,4|8|2
184,196,55772,1,0
140,252,55997,2,0,B|112:288,2,32.5,8|0|4
256,324,56674,1,4
256,324,56899,1,4
380,256,57351,5,0
404,208,57576,1,0
404,156,57801,1,2
380,108,58027,1,0
340,72,58253,6,0,B|262:0|154:36,1,195,4|2
196,96,59155,2,0,B|89:119|59:221,1,195,2|2
44,292,60057,2,0,B|104:324|176:288|244:316,1,195,2|2
300,344,60960,2,0,B|336:332|356:304,2,65,2|8|8
214,229,61862,6,0,B|172:159,1,65,2|0
143,112,62313,1,8
16,48,62764,2,0,B|58:118,1,65,2|0
87,165,63215,1,8
56,228,63441,2,0,B|64:300|144:312,1,130,2|0
212,311,64118,2,0,B|344:311,2,130,2|2|2
144,184,65471,6,0,B|116:112|168:60,1,130,4|8
236,63,66148,1,0
236,63,66373,2,0,B|368:63,1,130,2|8
432,88,67050,1,0
484,140,67275,6,0,B|520:200|488:264,1,130,2|8
448,324,67952,1,0
448,324,68178,2,0,B|412:272|340:256,1,130,2|8
272,228,68854,5,0
272,228,69080,2,0,B|220:204|212:152,2,97.5,4|2|2
332,180,69982,2,0,B|388:176|404:124,2,97.5,4|2|2
332,108,70884,1,4
224,52,71336,6,0,B|152:72|136:148,1,130,8|8
160,208,72012,1,0
92,224,72238,1,8
144,276,72463,1,0
144,276,72689,6,0,B|260:304|324:224,1,195,4|2
368,288,73591,2,0,B|435:189|386:93,1,195,2|2
462,103,74493,2,0,B|262:103,1,195,2|2
196,104,75396,2,0,B|80:188,2,130,2|8|2
300,180,76749,5,8
184,240,77200,2,0,B|220:292,1,65,2|0
352,284,77877,2,0,B|420:256|436:180,1,130,0|0
404,124,78554,1,8
284,44,79005,6,0,B|256:24|224:28,1,65,2|0
164,68,79456,1,8
208,124,79681,1,0
208,124,79907,2,0,B|264:212|208:312,1,195,4|2
152,352,80809,2,0,B|200:308|276:312,1,130,2|8
340,332,81486,1,2
364,264,81712,6,0,B|380:204|428:176,2,97.5,4|2|2
292,280,82614,2,0,B|255:229|200:220,2,97.5,4|2|2
236,328,83516,6,0,B|76:364|36:208,1,260,4|0
37,142,84644,1,2
37,142,84869,1,10
148,52,85321,6,0,B|280:52,1,130,4|8
404,116,86223,2,0,B|403:175|343:180,2,97.5,4|4|2
256,192,87012,12,4,88704
256,256,89155,6,0,B|256:328,1,65,12|4
