osu file format v5

[General]
AudioFilename: Radetzky March.mp3
AudioLeadIn: 0
PreviewTime: -1
Countdown: 1
SampleSet: Normal
StackLeniency: 0.7
Mode: 0
LetterboxInBreaks: 1

[Metadata]
Title:Radetzky March
Artist:Speed Orchestra
Creator:wofanath
Version:Lv2
Source:
Tags:

[Difficulty]
HPDrainRate:5
CircleSize:5
OverallDifficulty:6
SliderMultiplier:1.4
SliderTickRate:1

[Events]
//Background and Video events
0,0,"radetzky-bg.png"
//Break Periods
2,36395,38080
2,49439,51123
//Storyboard Layer 0 (Background)
//Storyboard Layer 1 (Failing)
//Storyboard Layer 2 (Passing)
//Storyboard Layer 3 (Foreground)
//Storyboard Sound Samples
//Background Colour Transformations
3,100,163,162,255

[TimingPoints]
0,326.086956521739,4,1,0,100,1,0

[Colours]
Combo1 : 0,0,0
Combo2 : 128,255,128
Combo3 : 128,128,255
Combo4 : 0,64,0

[HitObjects]
64,64,5217,1,0
128,64,5543,1,0
192,64,5869,1,0
224,64,6032,1,0
256,64,6195,1,4
256,64,6521,5,0
256,128,6847,1,0
256,192,7173,1,0
256,224,7336,1,0
257,256,7499,1,4
160,128,7826,5,0
160,192,7989,1,0
153,263,8152,1,4
153,263,8478,1,0
160,192,8641,1,0
160,128,8804,1,4
256,192,9130,12,4,9782
96,64,10434,6,0,B|160:128,1,70
160,32,10760,2,0,B|192:96,1,70
256,32,11086,2,0,B|224:96,1,70
224,94,11413,1,4
320,352,11739,2,0,B|287:284,1,70
224,352,12065,2,0,B|231:274,1,70
154,345,12391,2,0,B|172:273,1,70
170,277,12717,1,4
96,192,13043,6,0,B|384:192,1,280
376,192,13858,1,0
376,192,14021,6,0,B|64:192,1,303.333333333333
98,277,14999,1,4
96,192,15163,1,4
96,192,15326,1,4
155,55,15489,6,0,B|156:87,3,23.3333333333333
193,56,15815,2,0,B|191:100|190:100|189:100|189:100|189:98,3,23.3333333333333
237,56,16141,2,0,B|232:94,3,23.3333333333333
342,60,16467,1,4
393,143,16630,1,4
288,128,16793,6,0,B|288:160,3,23.3333333333333
256,128,17119,2,0,B|256:160,3,23.3333333333333
224,128,17445,2,0,B|224:160,3,23.3333333333333
224,128,17771,2,4,B|184:210,1,70
192,288,18097,5,0
192,288,18260,2,0,B|320:192,1,140
304,203,18749,5,0
304,203,18913,2,0,B|192:96,1,140
202,106,19402,5,0
202,106,19565,2,0,B|416:96,1,210
411,96,20217,6,0,B|288:288,1,210
297,272,20869,1,4
128,320,21195,1,4
64,160,21521,1,4
224,64,21847,1,4
352,128,22173,6,0,B|256:256,1,140
224,224,22826,2,0,B|320:96,1,140
256,96,23478,2,4,B|164:212,4,140
256,96,24945,6,0,B|224:96,3,23.3333333333333
232,96,25271,2,0,B|256:96,3,23.3333333333333
232,96,25597,2,0,B|256:96,3,23.3333333333333
232,96,26086,5,4
288,160,26413,1,0
352,224,26739,1,0
288,160,26902,1,0
232,96,27065,1,0
232,96,27391,1,4
192,160,27717,1,0
128,224,28043,1,0
192,160,28206,1,0
232,96,28369,1,0
295,94,28695,6,0,B|237:231,1,140
242,219,29347,2,0,B|256:288|320:256|352:224,1,140
349,226,29999,2,0,B|247:129|85:159,1,280
104,154,30978,5,0
104,154,31304,1,4
104,154,31630,1,0
104,154,31956,1,0
104,154,32119,1,0
104,154,32282,2,0,B|256:160,1,140
243,159,32934,1,4
243,159,33260,1,0
243,159,33423,1,0
243,159,33586,1,0
256,192,33913,12,4,34239
256,192,34565,12,4,34891
256,192,35217,12,4,35869
253,191,36032,5,4
253,191,36195,5,4
155,106,39130,6,0,B|301:106,1,140
295,106,39782,2,0,B|296:250,1,140
295,245,40434,2,0,B|213:245,1,70
225,245,40760,2,0,B|140:252,1,70
155,250,41086,2,4,B|260:135,1,140
424,70,41739,6,0,B|449:148,1,70
445,136,42065,2,0,B|425:224,1,70
429,204,42391,2,0,B|375:279,1,70
388,260,42717,2,0,B|313:299,1,70
288,238,43043,5,0
262,190,43206,1,0
222,154,43369,1,0
174,129,43532,1,0
174,129,43695,2,4,B|116:189,3,70
79,283,44347,5,0
144,304,44510,1,0
214,312,44673,1,0
264,241,44999,1,0
337,213,45163,1,0
414,212,45326,1,0
456,144,45652,1,0
475,68,45815,1,0
398,56,45978,1,0
328,53,46141,2,0,B|282:124,1,70
289,111,46630,5,4
289,111,46956,1,0
289,111,47282,1,0
197,65,47608,1,0
101,128,47934,1,0
115,251,48260,1,0
227,311,48586,1,0
328,240,48913,1,4
342,193,49076,1,4
360,146,49239,1,4
254,80,52010,6,0,B|288:103,3,23.3333333333333
256,242,52336,6,0,B|283:269,3,23.3333333333333
201,156,52663,6,0,B|228:176,3,23.3333333333333
135,208,52989,5,4
233,272,53152,1,4
336,248,53315,6,0,B|356:264,3,23.3333333333333
254,157,53641,6,0,B|273:179|274:179,3,23.3333333333333
388,111,53967,6,0,B|404:133,3,23.3333333333333
331,62,54293,5,4
217,68,54456,1,4
140,135,54782,6,0,B|232:260,1,140
452,87,55434,2,0,B|394:237|392:238,1,140
170,63,56086,2,4,B|295:176,3,140
338,224,57391,5,0
286,270,57554,1,0
215,287,57717,1,0
128,271,57880,1,0
80,208,58043,1,0
113,136,58206,1,0
191,94,58369,1,4
258,136,58695,5,0
331,123,58858,1,0
396,164,59021,1,0
396,246,59184,1,0
320,288,59347,1,0
240,315,59510,1,0
155,326,59673,1,4
256,192,59999,12,0,60326
256,192,60652,12,0,60978
256,192,61304,12,0,61956
252,194,62119,5,4
252,194,62282,5,4
174,161,62445,6,0,B|143:165,3,23.3333333333333
63,73,62771,6,0,B|76:100,3,23.3333333333333
254,50,63097,6,0,B|233:67,3,23.3333333333333
334,92,63423,1,4
380,196,63586,1,4
336,272,63749,6,0,B|360:296,3,23.3333333333333
122,340,64076,6,0,B|91:344,3,23.3333333333333
243,328,64402,6,0,B|264:340,3,23.3333333333333
169,248,64728,1,4
135,139,64891,1,4
202,59,65054,5,0
202,59,65217,2,0,B|304:189,1,140
288,169,65706,1,0
288,169,65869,2,0,B|156:269,1,140
176,253,66358,1,0
176,253,66521,2,4,B|328:305,3,140
308,297,67663,1,0
308,297,67826,6,0,B|356:159,1,140
353,164,68315,1,0
353,164,68478,2,0,B|216:96,1,140
163,143,69130,6,4,B|254:143,1,70
238,185,69456,2,4,B|145:186,1,70
162,229,69782,2,4,B|257:229,1,70
236,273,70108,2,4,B|149:273,1,70
167,313,70434,2,4,B|244:314,1,70
308,291,70760,5,4
352,197,70923,1,4
360,107,71086,1,4
283,52,71249,1,4
188,62,71413,1,4
108,116,71576,1,4
108,212,71739,1,4
244,186,71902,6,0,B|279:186,3,23.3333333333333
244,186,72228,6,0,B|216:186|216:186|224:197,3,23.3333333333333
244,186,72554,6,0,B|244:216,3,23.3333333333333
98,304,73043,5,0
167,305,73369,1,0
269,308,73695,1,0
314,308,73858,1,0
363,308,74021,1,4
363,308,74347,5,0
363,216,74673,1,0
294,140,74999,1,0
259,112,75163,1,0
225,79,75326,1,4
136,135,75652,5,0
111,216,75815,1,0
84,296,75978,1,4
84,296,76304,1,0
111,216,76467,1,0
136,135,76630,1,4
256,192,76956,12,0,77608
256,192,77934,5,4
140,107,78260,5,0
188,155,78423,1,0
228,208,78586,1,0
267,261,78749,1,0
267,261,78913,5,0
318,213,79076,1,0
364,161,79239,1,4
324,96,79565,6,4,B|247:127,1,70
259,122,79891,2,4,B|185:92,1,70
194,95,80217,2,4,B|270:128,1,70
257,124,80543,1,4
256,192,80869,12,0,82173
253,193,82826,5,4
253,193,82989,1,4
253,193,83152,1,4
