osu file format v5

[General]
AudioFilename: Radetzky March.mp3
AudioLeadIn: 0
PreviewTime: -1
Countdown: 1
SampleSet: Normal
StackLeniency: 0.7
Mode: 0
LetterboxInBreaks: 1

[Metadata]
Title:Radetzky March
Artist:Speed Orchestra
Creator:wofanath
Version:Lv1
Source:
Tags:

[Difficulty]
HPDrainRate:4
CircleSize:3
OverallDifficulty:6
SliderMultiplier:1.4
SliderTickRate:1

[Events]
//Background and Video events
0,0,"radetzky-bg.png"
//Break Periods
2,36395,38080
2,49439,51123
//Storyboard Layer 0 (Background)
//Storyboard Layer 1 (Failing)
//Storyboard Layer 2 (Passing)
//Storyboard Layer 3 (Foreground)
//Storyboard Sound Samples
//Background Colour Transformations
3,100,163,162,255

[TimingPoints]
0,326.086956521739,4,1,0,100,1,0

[Colours]
Combo1 : 0,0,0
Combo2 : 128,255,128
Combo3 : 255,128,0
Combo4 : 0,64,64

[HitObjects]
96,96,5217,1,0
204,97,5543,1,0
310,103,5869,2,4,B|308:259,1,140
309,242,6521,5,0
207,244,6847,1,0
112,240,7173,2,4,B|112:90|112:90|110:90,1,140
418,107,7826,6,0,B|133:107,2,280
155,275,9782,1,0
399,284,10434,5,0
401,177,10760,1,0
405,72,11086,2,4,B|240:72,1,140
265,72,11739,5,0
153,71,12065,1,0
58,68,12391,2,4,B|58:231,2,140
257,190,13695,5,0
257,190,14347,2,4,B|307:332,1,140
257,190,14999,2,4,B|345:188,2,70
360,64,15652,6,0,B|248:64,1,70
75,298,16304,2,0,B|182:298,1,70
385,296,16956,6,0,B|311:297,1,70
74,76,17608,2,0,B|180:77,1,70
152,182,18260,5,4
249,180,18586,1,4
344,180,18913,1,4
344,180,19565,1,4
247,179,19891,1,4
153,178,20217,1,4
255,303,20869,5,0
255,303,21195,1,0
255,303,21521,1,0
124,199,22173,6,4,B|256:94|374:260,3,280
368,251,24782,1,4
256,192,24945,12,4,25760
253,192,26086,5,0
376,193,26413,1,0
253,192,26739,2,4,B|104:192,1,140
113,191,27391,5,0
112,297,27717,1,0
113,191,28043,2,4,B|113:44,1,140
244,85,28695,6,0,B|350:215,4,140
256,192,30326,12,0,31304
134,184,31630,5,4
248,188,31956,1,4
356,188,32282,1,4
356,188,32608,5,4
248,188,32934,1,4
244,287,33260,1,4
244,287,33586,5,4
139,289,33913,1,4
64,214,34239,1,4
202,75,34565,1,4
322,141,34891,1,4
265,229,35217,2,4,B|35:51,1,280
43,57,36195,1,4
112,92,39130,6,0,B|364:268,1,280
341,252,40108,2,0,B|106:84,1,280
113,89,41086,1,4
437,91,41739,6,0,B|357:91,1,70
77,296,42391,2,0,B|156:297|156:297|163:300,1,70
298,248,43043,6,4,B|245:192,1,70
170,123,43369,2,4,B|231:179,1,70
246,193,43695,1,4
367,87,44347,6,0,B|144:280,1,280
155,270,45326,2,0,B|376:75,1,280
364,84,46304,1,4
436,280,46956,6,4,B|371:322,1,70
411,227,47282,2,4,B|369:301,1,70
356,204,47608,2,4,B|362:283,1,70
263,292,48260,1,4
119,126,48586,1,4
308,74,48913,1,4
92,96,52173,5,0
205,103,52499,1,0
312,120,52826,2,4,B|314:271,1,140
312,260,53478,5,0
184,260,53804,1,0
184,260,54130,2,4,B|327:260|327:260|325:260,1,140
421,267,54782,2,0,B|442:103,1,140
438,128,55434,2,0,B|304:72,1,140
308,74,56086,2,4,B|209:190,3,140
217,180,57391,5,4
112,257,57717,1,0
217,180,58043,2,4,B|363:184,1,140
351,183,58695,5,0
372,302,59021,1,0
351,183,59347,2,4,B|241:64,1,140
109,97,59999,6,0,B|292:326,1,280
283,315,60978,2,0,B|101:84,1,280
109,95,61956,1,4
109,95,62282,1,4
217,100,62608,6,4,B|292:124|292:124|291:123,1,70
283,121,62934,2,4,B|307:201,1,70
303,188,63260,2,4,B|267:261,1,70
272,250,63586,1,4
184,279,63913,6,4,B|130:220,1,70
136,227,64239,2,4,B|136:152,1,70
136,157,64565,2,4,B|208:112,1,70
195,119,64891,1,4
361,61,65217,6,0,B|361:248,1,140
285,202,65869,2,0,B|286:24,1,140
198,56,66521,2,0,B|197:241,3,140
140,313,67826,6,0,B|336:313,1,140
364,315,68478,2,0,B|364:157,1,140
360,83,69130,2,4,B|206:83,3,140
157,145,70434,1,4
116,257,70760,1,4
216,316,71086,1,4
322,321,71413,1,4
256,192,71739,12,0,72717
116,86,73043,5,0
225,88,73369,1,0
335,89,73695,2,4,B|334:243,1,140
334,228,74347,5,0
212,226,74673,1,0
334,228,74999,2,4,B|482:228,1,140
440,113,75652,1,0
259,61,75978,1,0
112,244,76304,1,0
398,317,76630,1,0
363,220,76956,6,4,B|220:142,4,140
363,220,78586,5,0
407,128,78913,1,0
328,68,79239,1,0
220,57,79565,1,4
120,107,79891,1,0
86,214,80217,1,0
179,297,80543,1,0
380,96,80869,6,4,B|304:97,1,70
69,305,81521,2,4,B|142:304,1,70
256,192,82173,12,0,83152
