osu file format v14

[General]
AudioFilename: OSKO.mp3
AudioLeadIn: 0
PreviewTime: 23695
Countdown: 0
SampleSet: Normal
StackLeniency: 0.7
Mode: 0
LetterboxInBreaks: 1
WidescreenStoryboard: 1

[Editor]
DistanceSpacing: 1
BeatDivisor: 4
GridSize: 4
TimelineZoom: 1.7

[Metadata]
Title:LOVE GOOD TIME (TV Size)
TitleUnicode:LOVE GOOD TIME (TV Size)
Artist:SpecialThanks
ArtistUnicode:SpecialThanks
Creator:Momojean
Version:Insane
Source:Ookami shoujo to kuro ouji
Tags:オオカミ少女と黒王子 ookami shoujo to kuro ouji wolf girl black prince shinohara erika sata kyouya kyôya love good time
BeatmapID:554334
BeatmapSetID:239522

[Difficulty]
HPDrainRate:7
CircleSize:4
OverallDifficulty:7
ApproachRate:8
SliderMultiplier:1.99999990463257
SliderTickRate:2

[Events]
//Background and Video events
0,0,"Minitokyo.Ookami.Shoujo.to.Kuro.Ouji.587310.jpg",0,0
Video,0,"OSKO.avi"
//Break Periods
2,943,2704
2,3835,5234
2,49557,57282
2,75762,77342
2,78654,80234
2,81545,83125
2,84437,85204
//Storyboard Layer 0 (Background)
//Storyboard Layer 1 (Fail)
//Storyboard Layer 2 (Pass)
//Storyboard Layer 3 (Foreground)
//Storyboard Sound Samples

[TimingPoints]
23695,361.44578313253,4,1,0,50,1,0
23695,-100,4,1,0,50,0,1
34900,361.44578313253,4,1,0,50,1,0
58393,-100,4,1,0,50,0,1
69960,361.44578313253,4,1,0,50,1,0

[Colours]
Combo1 : 255,255,51
Combo2 : 77,214,221
Combo3 : 138,138,138
Combo4 : 236,83,236
Combo5 : 0,255,64

[HitObjects]
132,100,562,5,0,0:0:0:0:
332,100,743,1,0,0:0:0:0:
384,80,3454,5,0,0:0:0:0:
384,280,3635,1,0,0:0:0:0:
168,168,5984,5,0,0:0:0:0:
193,126,6074,1,0,0:0:0:0:
239,108,6164,1,0,0:0:0:0:
286,121,6255,1,0,0:0:0:0:
316,160,6346,2,0,P|320:228|296:264,1,99.9999952316285
252,308,6707,6,0,P|200:308|168:264,1,99.9999952316285
164,188,7068,2,0,P|200:136|256:120,1,99.9999952316285
392,72,7430,2,0,P|432:168|372:248,1,200
272,264,7972,1,0,0:0:0:0:
272,264,8153,1,0,0:0:0:0:
272,264,8333,1,0,0:0:0:0:
424,92,8876,5,0,0:0:0:0:
424,92,9056,1,0,0:0:0:0:
424,92,9237,2,0,P|368:120|316:96,1,99.9999952316285
256,88,9599,2,0,L|136:88|136:88,1,99.9999952316285
120,184,9960,5,0,0:0:0:0:
200,264,10141,1,0,0:0:0:0:
280,184,10321,1,0,0:0:0:0:
196,112,10502,1,0,0:0:0:0:
120,184,10683,1,0,0:0:0:0:
196,112,10864,1,0,0:0:0:0:
280,184,11044,1,0,0:0:0:0:
200,264,11225,1,0,0:0:0:0:
120,184,11406,1,0,0:0:0:0:
120,244,11767,6,0,P|216:288|296:240,1,200,0|0,0:0|0:0,0:0:0:0:
340,192,12309,1,0,0:0:0:0:
388,132,12490,2,0,B|424:76|424:20|384:-8|280:40,1,199.999990463257
344,92,13032,2,0,P|296:132|256:112,1,99.9999952316285
216,104,13394,5,0,0:0:0:0:
180,32,13574,1,0,0:0:0:0:
216,104,13755,1,0,0:0:0:0:
256,176,13936,2,0,P|272:236|224:248,1,99.9999952316285
104,232,14297,2,0,B|128:312|184:328|264:320,1,200
340,304,14840,1,0,0:0:0:0:
416,272,15020,1,0,0:0:0:0:
416,124,15201,5,0,0:0:0:0:
344,184,15382,2,0,B|300:124|296:124|292:124|236:188|244:188|252:188|192:124,1,199.999990463257
136,68,15924,1,0,0:0:0:0:
64,104,16105,1,0,0:0:0:0:
132,144,16285,1,0,0:0:0:0:
64,104,16466,5,0,0:0:0:0:
36,220,16647,1,0,0:0:0:0:
164,208,16827,2,0,P|228:160|260:184,1,99.9999952316285
296,176,17189,2,0,L|416:124,1,99.9999952316285
412,244,17550,1,0,0:0:0:0:
228,276,17912,6,0,L|120:284|120:284,2,99.9999952316285,0|0|0,0:0|0:0|0:0,0:0:0:0:
244,188,18454,1,0,0:0:0:0:
128,192,18635,1,0,0:0:0:0:
224,88,18815,1,0,0:0:0:0:
120,88,18996,2,0,P|160:28|208:28,1,99.9999952316285
256,80,19358,6,0,P|320:72|356:100,1,99.9999952316285
416,160,19719,1,0,0:0:0:0:
380,260,19900,2,0,B|340:224|336:224|332:224|296:264|292:264|288:264|252:220|248:220|244:220|192:264,1,199.999990463257
72,288,20442,2,0,P|128:264|128:212,1,99.9999952316285
156,140,20803,2,0,P|256:140|248:152,1,199.999990463257
240,256,21887,6,0,L|204:208,5,49.9999976158143
272,60,22429,6,0,L|220:120,5,49.9999976158143
60,128,22972,6,0,L|124:116|124:116,5,49.9999976158143
112,96,23514,1,0,0:0:0:0:
112,76,23604,1,0,0:0:0:0:
112,64,23695,6,0,L|320:64,1,200,0|0,0:0|0:0,0:0:0:0:
420,128,24237,1,0,0:0:0:0:
368,216,24418,2,0,L|296:300|296:300,1,99.9999952316285
224,216,24779,5,0,0:0:0:0:
36,216,24960,1,0,0:0:0:0:
132,60,25141,1,0,0:0:0:0:
132,244,25321,1,0,0:0:0:0:
36,92,25502,1,0,0:0:0:0:
224,84,25683,2,0,P|276:92|304:136,1,99.9999952316285
356,184,26044,1,0,0:0:0:0:
284,80,26406,6,0,B|224:56|192:116,1,99.9999952316285
352,168,26767,1,0,0:0:0:0:
272,240,26948,2,0,L|144:184,1,99.9999952316285
24,108,27309,1,0,0:0:0:0:
36,240,27490,1,0,0:0:0:0:
160,248,27671,6,0,P|192:196|132:172,1,99.9999952316285
152,48,28032,1,0,0:0:0:0:
24,196,28213,1,0,0:0:0:0:
200,176,28394,1,0,0:0:0:0:
332,112,28574,2,0,P|344:188|304:220,1,99.9999952316285
128,256,28935,6,0,L|192:280,1,49.9999976158143
284,212,29116,2,0,L|268:152,1,49.9999976158143
152,104,29297,2,0,L|108:152,1,49.9999976158143
168,224,29478,6,0,B|148:152|196:188|196:116|276:128|232:48,1,199.999990463257
308,140,30020,1,0,0:0:0:0:
408,36,30201,1,0,0:0:0:0:
308,140,30382,1,0,0:0:0:0:
184,220,30562,2,0,P|188:156|236:140,1,99.9999952316285
288,316,30924,1,0,0:0:0:0:
368,224,31105,6,0,B|312:256|316:176|196:220|260:88,1,199.999990463257
192,212,31647,1,0,0:0:0:0:
100,300,31827,2,0,P|128:228|180:208,1,99.9999952316285
252,140,32189,1,0,0:0:0:0:
376,228,32370,6,0,P|340:284|300:256,1,99.9999952316285
248,180,32731,2,0,B|172:196|132:108|36:188,1,199.999990463257
156,256,33273,1,0,0:0:0:0:
220,128,33454,1,0,0:0:0:0:
356,136,33635,6,0,P|412:156|376:200,1,99.9999952316285
256,40,33996,1,0,0:0:0:0:
232,216,34177,1,0,0:0:0:0:
92,176,34358,2,0,L|144:80,1,99.9999952316285
292,160,34719,1,0,0:0:0:0:
256,192,35261,12,0,37068,0:0:0:0:
408,104,37430,5,0,0:0:0:0:
352,236,37610,2,0,L|248:264,1,99.9999952316285
160,268,37972,1,0,0:0:0:0:
144,184,38153,2,0,B|64:124|64:124|91:102|103:96|120:84|144:64,1,199.999990463257
252,52,38695,1,0,0:0:0:0:
376,136,38875,2,0,B|376:196|372:196|372:192|376:192|304:192|304:196|312:196|312:192|312:256|312:252|304:252|304:256|256:256,1,199.999990463257
192,256,39418,5,0,0:0:0:0:
116,192,39598,1,0,0:0:0:0:
188,132,39779,1,0,0:0:0:0:
108,72,39960,1,0,0:0:0:0:
188,132,40140,1,0,0:0:0:0:
364,168,40321,5,0,0:0:0:0:
284,224,40502,2,0,P|248:176|264:120,1,99.9999952316285
328,72,40863,2,0,B|212:96|288:164|148:168|56:276,1,299.999985694885
36,172,41586,1,0,0:0:0:0:
116,116,41767,2,0,P|156:76|208:120,1,99.9999952316285
312,68,42128,1,0,0:0:0:0:
384,148,42309,6,0,P|416:188|376:232,1,99.9999952316285
300,284,42671,2,0,P|260:244|208:272,1,99.9999952316285
148,280,43032,2,0,B|92:204|148:136|220:124,1,199.999990463257
312,108,43574,1,0,0:0:0:0:
192,228,43755,5,0,0:0:0:0:
220,240,43845,1,0,0:0:0:0:
244,248,43936,2,0,P|280:200|272:152,1,99.9999952316285
200,80,44297,2,0,P|148:112|132:172,1,99.9999952316285
112,292,44659,1,0,0:0:0:0:
40,220,44839,6,0,P|12:152|28:104,1,99.9999952316285
112,104,45201,2,0,B|152:168|212:124|212:212|88:244,1,199.999990463257
208,260,45743,1,0,0:0:0:0:
280,304,45924,2,0,B|412:280|340:264|472:208,1,199.999990463257
256,192,46466,12,0,49357,0:0:0:0:
104,204,58032,5,0,0:0:0:0:
80,204,58122,1,0,0:0:0:0:
56,204,58213,1,0,0:0:0:0:
32,204,58303,1,0,0:0:0:0:
16,204,58393,6,0,P|28:96|120:64,1,199.999990463257
160,144,58936,1,0,0:0:0:0:
240,80,59116,6,0,P|304:56|348:100,1,99.9999952316285
368,200,59478,1,0,0:0:0:0:
232,240,59659,2,0,P|192:200|220:144,1,99.9999952316285
224,52,60020,2,2,L|136:128,1,99.9999952316285
240,176,60381,1,0,0:0:0:0:
368,76,60562,1,0,0:0:0:0:
376,216,60743,1,0,0:0:0:0:
228,264,60924,1,0,0:0:0:0:
116,184,61104,5,0,0:0:0:0:
216,256,61285,2,0,P|292:248|320:208,1,99.9999952316285
320,120,61646,2,0,B|240:84|244:160|168:104|128:196,1,199.999990463257
48,120,62189,1,0,0:0:0:0:
52,8,62369,1,0,0:0:0:0:
184,80,62550,6,0,L|260:164,1,99.9999952316285
312,208,62912,1,0,0:0:0:0:
200,312,63092,1,0,0:0:0:0:
104,192,63273,2,0,P|156:136|208:136,1,99.9999952316285
328,72,63634,6,0,L|384:120,1,49.9999976158143,0|0,0:0|0:0,0:0:0:0:
352,212,63815,2,0,L|332:272,1,49.9999976158143
188,316,63996,2,0,L|136:276,1,49.9999976158143
224,220,64177,6,0,P|168:192|176:140,1,99.9999952316285
248,56,64538,2,0,L|324:164,1,99.9999952316285
360,248,64899,1,0,0:0:0:0:
180,308,65080,1,0,0:0:0:0:
100,160,65261,1,0,0:0:0:0:
296,52,65442,6,0,P|348:88|324:144,1,99.9999952316285
304,192,65803,1,0,0:0:0:0:
208,240,65984,2,0,P|112:220|104:196,1,99.9999952316285
188,112,66345,1,0,0:0:0:0:
336,92,66526,2,0,P|376:144|340:204,1,99.9999952316285
256,232,66887,5,0,0:0:0:0:
208,108,67068,1,0,0:0:0:0:
344,40,67249,1,0,0:0:0:0:
408,168,67430,2,0,B|432:244|344:232|260:264,1,199.999990463257
108,264,67972,1,0,0:0:0:0:
260,264,68153,1,0,0:0:0:0:
268,140,68333,6,0,L|156:128,1,99.9999952316285
344,132,68695,1,0,0:0:0:0:
224,280,68875,1,0,0:0:0:0:
60,168,69056,2,0,L|92:292,1,99.9999952316285
228,288,69418,2,0,P|328:192|296:108,1,199.999990463257
256,192,69960,12,4,72128,0:0:0:0:
396,144,72309,5,0,0:0:0:0:
248,132,72490,1,0,0:0:0:0:
88,284,72851,2,0,P|192:252|172:180,1,199.999990463257
376,252,73574,1,0,0:0:0:0:
296,176,73755,1,0,0:0:0:0:
140,136,74116,6,0,L|32:124,1,99.9999952316285
224,144,74478,1,0,0:0:0:0:
392,72,74839,1,0,0:0:0:0:
328,288,75201,1,0,0:0:0:0:
148,148,75562,1,0,0:0:0:0:
336,152,78092,5,0,0:0:0:0:
72,84,78454,1,0,0:0:0:0:
136,172,80984,5,0,0:0:0:0:
376,144,81345,1,0,0:0:0:0:
120,112,83875,5,0,0:0:0:0:
260,304,84237,1,0,0:0:0:0:
180,60,85954,5,4,0:0:0:0:
132,200,86134,1,4,0:0:0:0:
276,148,86315,1,4,0:0:0:0:
228,284,86496,1,4,0:0:0:0:
416,236,87128,5,4,0:0:0:0:
