osu file format v13

[General]
AudioFilename: OSKO.mp3
AudioLeadIn: 0
PreviewTime: 23695
Countdown: 0
SampleSet: Normal
StackLeniency: 0.7
Mode: 0
LetterboxInBreaks: 1
WidescreenStoryboard: 0

[Editor]
DistanceSpacing: 1.4
BeatDivisor: 4
GridSize: 4
TimelineZoom: 1.7

[Metadata]
Title:LOVE GOOD TIME (TV Size)
TitleUnicode:LOVE GOOD TIME (TV Size)
Artist:SpecialThanks
ArtistUnicode:SpecialThanks
Creator:Momojean
Version:Hard
Source:Ookami shoujo to kuro ouji
Tags:オオカミ少女と黒王子 ookami shoujo to kuro ouji wolf girl black prince shinohara erika sata kyouya kyôya love good time
BeatmapID:553730
BeatmapSetID:239522

[Difficulty]
HPDrainRate:6
CircleSize:4
OverallDifficulty:6
ApproachRate:7
SliderMultiplier:1.4
SliderTickRate:1

[Events]
//Background and Video events
0,0,"Minitokyo.Ookami.Shoujo.to.Kuro.Ouji.587310.jpg",0,0
Video,0,"OSKO.avi"
//Break Periods
2,943,2554
2,3834,5084
2,49919,57494
2,76124,77193
2,78654,80084
2,81546,82976
//Storyboard Layer 0 (Background)
//Storyboard Layer 1 (Fail)
//Storyboard Layer 2 (Pass)
//Storyboard Layer 3 (Foreground)
//Storyboard Sound Samples

[TimingPoints]
23695,361.44578313253,4,1,0,50,1,0
23695,-100,4,1,0,50,0,1
34900,361.44578313253,4,1,0,50,1,0
58393,-100,4,1,0,50,0,1
69960,361.44578313253,4,1,0,50,1,0

[Colours]
Combo1 : 0,255,64
Combo2 : 77,214,221
Combo3 : 138,138,138
Combo4 : 236,83,236

[HitObjects]
164,112,563,6,0,L|224:160,1,70,0|0,0:0|0:0,0:0:0:0:
320,132,3454,6,0,L|260:184,1,70
104,96,5984,6,0,P|184:144|176:176,1,140
288,172,6707,1,0,0:0:0:0:
400,188,7069,1,0,0:0:0:0:
416,300,7430,2,0,P|324:332|292:292,1,140
228,264,8153,2,0,L|160:236,1,70
120,96,8876,5,0,0:0:0:0:
232,96,9237,1,0,0:0:0:0:
344,96,9599,2,0,P|384:160|336:200,1,140
256,192,10322,12,0,11768,0:0:0:0:
128,252,12490,5,0,0:0:0:0:
256,252,12852,1,0,0:0:0:0:
352,196,13213,2,0,B|328:160|292:156|292:152,1,70
244,132,13575,1,0,0:0:0:0:
152,68,13936,1,0,0:0:0:0:
52,120,14298,2,0,P|8:180|56:240,1,140
140,272,15021,1,0,0:0:0:0:
252,272,15201,6,0,P|288:280|312:256,1,70
352,164,15744,1,0,0:0:0:0:
260,96,16105,2,0,L|180:88|180:88,1,70
132,80,16466,5,0,0:0:0:0:
84,180,16828,1,0,0:0:0:0:
156,268,17189,1,0,0:0:0:0:
268,272,17551,1,0,0:0:0:0:
356,44,17912,6,0,L|196:44,1,140
140,48,18454,2,0,P|72:116|96:160,1,140
120,204,18996,1,0,0:0:0:0:
164,256,19177,2,0,P|216:272|252:248,1,70
344,232,19719,1,0,0:0:0:0:
408,200,19900,2,0,B|488:136|440:80|440:80,1,140
256,192,20442,12,0,21888,0:0:0:0:
256,192,22069,6,0,P|324:248|300:244,1,350
88,96,23695,5,0,0:0:0:0:
144,176,23876,1,0,0:0:0:0:
212,104,24057,2,0,P|252:84|280:120,1,70
364,128,24418,1,0,0:0:0:0:
404,220,24599,2,0,B|424:256|388:284|388:280,1,70
300,320,24960,5,0,0:0:0:0:
200,320,25141,2,0,B|152:332|128:300|128:304,2,70,0|0|0,0:0|0:0|0:0,0:0:0:0:
188,224,25683,1,0,0:0:0:0:
288,224,25864,1,0,0:0:0:0:
188,224,26045,1,0,0:0:0:0:
320,76,26406,6,0,P|288:72|252:92,1,70
164,124,26767,1,0,0:0:0:0:
208,212,26948,2,0,L|288:176,1,70
360,136,27310,1,0,0:0:0:0:
448,184,27671,5,0,0:0:0:0:
432,280,27851,2,0,P|412:312|380:316,1,70
284,308,28213,2,0,P|204:320|160:276,1,140
104,204,28755,1,0,0:0:0:0:
188,156,28936,1,0,0:0:0:0:
272,44,29478,5,0,0:0:0:0:
332,120,29658,1,0,0:0:0:0:
404,52,29840,2,0,P|444:120|400:168,1,140
404,260,30381,1,0,0:0:0:0:
324,204,30563,1,0,0:0:0:0:
284,296,30744,5,0,0:0:0:0:
220,224,30923,1,0,0:0:0:0:
144,284,31105,2,0,P|92:256|96:228,1,70
108,156,31466,2,0,P|164:136|168:120,1,70
208,44,31828,1,0,0:0:0:0:
384,80,32189,6,0,B|404:112|360:144|352:140,1,70
356,236,32550,1,0,0:0:0:0:
280,176,32731,1,0,0:0:0:0:
208,112,32911,1,0,0:0:0:0:
144,188,33093,2,0,P|100:248|156:304,1,140
212,352,33635,5,0,0:0:0:0:
240,260,33815,1,0,0:0:0:0:
312,328,33997,1,0,0:0:0:0:
328,232,34176,1,0,0:0:0:0:
320,132,34358,2,0,P|336:60|264:44,1,140
200,236,35261,6,0,B|176:132|28:216|-16:48|176:-40|240:72|256:72|280:72|400:-40|492:72|480:208|280:164|272:256|272:260,1,700,0|0,0:0|0:0,0:0:0:0:
416,68,37430,6,0,B|424:112|384:132|388:136,1,70
304,200,37972,1,0,0:0:0:0:
252,176,38153,1,0,0:0:0:0:
156,116,38515,2,0,P|116:96|100:76,2,70,0|0|0,0:0|0:0|0:0,0:0:0:0:
96,300,40322,5,0,0:0:0:0:
116,248,40503,1,0,0:0:0:0:
156,144,40864,2,0,P|192:76|272:76,1,140
304,84,41406,1,0,0:0:0:0:
396,148,41768,1,0,0:0:0:0:
384,260,42129,1,0,0:0:0:0:
332,280,42309,2,0,B|272:316|208:312|172:268|140:240,1,210
256,192,43122,1,0,0:0:0:0:
200,84,43755,5,0,0:0:0:0:
216,84,43845,1,0,0:0:0:0:
232,84,43936,1,0,0:0:0:0:
312,92,44298,1,0,0:0:0:0:
416,128,44659,2,0,P|436:176|416:200,1,70
340,256,45201,5,0,0:0:0:0:
232,256,45563,1,0,0:0:0:0:
120,256,45924,2,0,P|48:276|40:348,1,140
256,192,46647,12,0,49719,0:0:0:0:
96,80,58394,6,0,P|180:72|244:96,1,140,0|0,0:0|0:0,0:0:0:0:
232,188,58936,1,0,0:0:0:0:
240,284,59117,2,0,P|312:296|380:260,1,140
424,184,59659,1,0,0:0:0:0:
420,88,59839,5,0,0:0:0:0:
328,124,60021,1,0,0:0:0:0:
232,108,60201,1,0,0:0:0:0:
144,68,60381,2,0,L|144:140,1,70,0|0,0:0|0:0,0:0:0:0:
144,236,60744,1,0,0:0:0:0:
376,312,61105,6,0,L|300:348|300:348,1,70
216,344,61466,1,0,0:0:0:0:
248,252,61647,2,0,L|360:156,1,140
260,132,62189,1,0,0:0:0:0:
324,56,62369,6,0,L|396:56,1,70
408,252,62912,1,0,0:0:0:0:
220,308,63273,1,0,0:0:0:0:
64,188,63634,1,0,0:0:0:0:
168,80,64177,6,0,B|232:56|300:56|320:76,1,140
360,148,64719,1,0,0:0:0:0:
288,212,64899,2,0,L|208:212|212:212,1,70
160,132,65261,2,0,P|196:116|240:96,1,70
304,84,65622,1,0,0:0:0:0:
304,184,65803,5,0,0:0:0:0:
392,140,65984,1,0,0:0:0:0:
408,236,66165,2,0,P|396:276|356:284,1,70
276,312,66527,1,0,0:0:0:0:
120,308,66888,6,0,L|120:224|120:224,1,70
64,156,67249,1,0,0:0:0:0:
124,76,67430,2,0,P|160:48|212:48,1,70
276,72,67792,1,0,0:0:0:0:
372,76,67972,6,0,L|452:76,1,70
448,172,68333,1,0,0:0:0:0:
324,324,68695,1,0,0:0:0:0:
308,128,69056,1,0,0:0:0:0:
112,144,69418,1,0,0:0:0:0:
168,264,69960,6,0,B|64:200|72:88|96:8|172:4|256:0|372:20|464:28|444:108|404:168|292:124|220:96|208:196|232:224|280:240|328:256|380:272|440:276|392:320,1,840,0|0,0:0|0:0,0:0:0:0:
316,308,72310,5,0,0:0:0:0:
260,304,72490,1,0,0:0:0:0:
164,248,72852,1,0,0:0:0:0:
212,148,73213,1,0,0:0:0:0:
164,248,73575,2,0,L|120:312,2,70,0|0|0,0:0|0:0|0:0,0:0:0:0:
132,128,74117,5,0,0:0:0:0:
244,128,74478,1,0,0:0:0:0:
132,128,74840,1,0,0:0:0:0:
244,128,75201,1,0,0:0:0:0:
356,128,75563,2,0,P|388:200|348:244,1,140
140,172,78093,5,0,0:0:0:0:
344,172,78454,1,0,0:0:0:0:
256,116,80984,5,0,0:0:0:0:
256,252,81346,1,0,0:0:0:0:
352,268,83876,5,0,0:0:0:0:
176,124,84237,1,0,0:0:0:0:
416,192,85953,6,0,L|336:192,3,70,0|0|0|0,0:0|0:0|0:0|0:0,0:0:0:0:
256,192,87129,5,4,0:0:0:0:
