osu file format v5

[General]
AudioFilename: Special D - You.mp3
AudioLeadIn: 1996
PreviewTime: -1
Countdown: 0
SampleSet: Normal
StackLeniency: 0.7
Mode: 1
LetterboxInBreaks: 1
SkinPreference:taiko
EditorDistanceSpacing: 0.800000011920929

[Metadata]
Title:You
Artist:Special D
Creator:Rokodo [RL]
Version:Taiko Oni
Source:
Tags:Special D You trance rokodo rl

[Difficulty]
HPDrainRate:9
CircleSize:5
OverallDifficulty:5
SliderMultiplier:1.4
SliderTickRate:1

[Events]
//Background and Video events
0,0,"special-d_you.jpg"
//Break Periods
//Storyboard Layer 0 (Background)
//Storyboard Layer 1 (Fail)
//Storyboard Layer 2 (Pass)
//Storyboard Layer 3 (Foreground)
//Storyboard Sound Samples
//Background Colour Transformations
3,100,0,0,0

[TimingPoints]
174,416.666666666667,4,1,0,100,1,0
71854,-100,4,1,0,100,0,1
98520,-100,4,1,0,100,0,0
166854,-100,4,1,0,100,0,1
186854,-100,4,1,0,100,0,0

[HitObjects]
32,32,174,1,0
32,96,382,1,8
32,160,590,1,0
32,224,799,1,8
32,288,1007,1,0
32,352,1215,1,8
96,32,1424,1,0
96,96,1632,1,8
32,32,1840,5,0
32,96,2049,1,8
32,160,2257,1,0
32,224,2465,1,8
32,288,2673,1,0
32,352,2882,1,8
160,64,2986,1,8
96,32,3090,1,0
96,96,3298,1,8
32,288,3507,5,0
32,352,3715,1,8
160,64,3819,1,8
96,32,3923,1,0
96,96,4132,1,8
32,288,4340,1,0
32,352,4548,1,8
160,64,4653,1,8
96,32,4757,1,0
96,96,4965,1,8
32,288,5174,5,0
32,352,5382,1,8
160,64,5486,1,8
96,32,5590,1,0
96,96,5799,1,8
256,64,6007,1,0
256,128,6215,1,0
256,192,6319,1,0
256,256,6424,1,8
352,256,6632,1,8
32,160,6840,5,0
32,224,7049,1,8
32,288,7257,1,0
32,352,7465,1,8
96,352,7674,1,0
96,288,7882,1,8
96,224,8090,5,0
96,160,8299,1,8
32,160,8507,1,0
32,224,8715,1,8
32,288,8924,1,0
32,352,9132,1,8
96,352,9340,5,0
96,288,9549,1,8
160,192,9653,1,8
96,224,9757,1,0
96,160,9965,1,8
96,32,10173,1,0
160,64,10382,1,0
224,64,10486,1,0
288,64,10590,1,8
288,128,10798,1,8
160,288,11007,5,0
256,288,11215,1,0
320,288,11319,1,0
416,288,11423,1,8
384,224,11528,1,8
416,160,11632,1,8
64,192,11840,1,0
64,256,11944,1,0
128,224,12048,1,8
96,128,12257,1,0
160,288,12465,1,0
160,128,12673,5,0
192,192,12882,1,0
320,96,13090,1,0
320,160,13160,1,0
320,224,13229,1,0
320,288,13299,1,8
384,288,13403,1,0
384,224,13507,1,0
32,32,13715,1,0
32,96,13923,1,0
32,160,14132,1,0
32,224,14340,5,0
32,288,14548,1,0
64,352,14757,1,0
128,352,14965,1,0
32,224,15173,1,0
32,288,15382,1,0
64,352,15590,1,0
128,352,15798,1,0
32,224,16007,5,0
32,288,16215,1,0
64,352,16423,1,0
128,352,16632,1,0
256,64,16840,1,0
256,128,16944,1,0
256,192,17048,1,0
256,256,17153,1,0
256,320,17257,1,0
352,320,17465,1,0
352,256,17673,5,0
384,192,17882,1,0
352,96,18090,1,0
416,96,18298,1,0
32,64,18507,1,0
64,128,18715,1,8
96,192,18819,1,0
96,256,18923,1,0
224,288,19132,1,0
288,320,19236,5,0
352,320,19340,1,0
256,224,19549,1,0
192,160,19757,1,0
192,96,19965,1,0
320,64,20174,1,8
320,128,20382,1,0
320,64,20590,1,8
320,128,20799,1,0
320,64,21007,5,8
320,128,21215,1,0
320,64,21424,1,8
320,128,21632,1,0
320,64,21840,1,8
320,128,22049,1,0
320,64,22257,1,8
320,128,22465,1,0
320,64,22674,5,8
320,128,22882,1,0
320,64,23090,1,8
320,128,23299,1,0
32,32,23507,1,8
32,96,23715,1,8
32,160,23819,1,8
32,224,23924,1,0
32,320,24132,1,8
128,320,24340,5,0
128,224,24549,1,8
128,160,24757,1,0
192,160,24965,1,8
64,64,25174,2,0,B|448:288,1,420
32,32,30174,5,0
32,96,30486,1,0
32,160,30799,1,0
32,224,31007,1,8
32,288,31319,1,8
32,352,31632,1,8
32,32,31840,5,0
32,96,32153,1,0
32,160,32465,1,0
32,224,32674,1,8
32,288,32986,1,8
32,352,33299,1,8
32,32,33507,5,0
32,96,33819,1,0
32,160,34132,1,0
32,224,34340,1,8
32,288,34653,1,8
32,352,34965,1,0
96,32,35174,5,8
96,96,35486,1,8
96,160,35799,1,8
160,32,36007,1,0
160,96,36319,1,8
160,160,36632,1,8
160,224,36840,5,0
64,288,37257,1,0
160,288,37465,1,8
256,288,37674,1,8
320,288,37986,1,8
384,288,38299,1,8
384,224,38507,5,8
64,128,38819,1,8
128,128,39132,1,8
192,128,39340,1,8
192,192,39653,1,0
160,288,39965,1,8
224,320,40173,5,0
32,64,40590,1,8
128,64,40798,1,8
192,64,41007,1,8
256,160,41319,1,8
256,224,41632,1,8
256,320,41840,5,8
96,160,42153,1,0
96,224,42465,1,0
352,160,42673,1,8
160,288,42986,1,8
224,288,43298,1,8
288,288,43507,5,0
32,32,43923,1,0
96,64,44132,1,8
32,96,44340,1,0
32,160,44653,1,0
160,224,44965,1,0
32,224,45173,5,0
32,288,45278,1,8
96,288,45486,1,0
96,352,45590,1,8
224,128,45798,1,8
288,128,46007,1,8
352,128,46319,1,8
224,224,46528,1,8
288,224,46840,5,8
352,224,46944,1,0
288,288,47153,1,8
352,288,47257,1,0
64,64,47465,1,0
64,160,47673,1,0
64,224,47986,1,0
64,288,48298,1,0
128,288,48507,5,0
192,288,48819,1,0
192,192,49132,1,0
256,192,49340,1,0
256,256,49653,1,0
320,224,49965,1,0
352,288,50173,5,0
32,32,50798,1,0
96,32,50903,1,0
96,96,51007,1,8
128,192,51319,1,8
128,256,51632,1,8
160,320,51840,5,8
256,320,52153,1,8
256,256,52465,1,8
256,192,52569,1,8
256,128,52673,1,8
320,128,52986,1,8
64,128,53298,1,8
160,128,53507,5,8
64,224,54340,1,0
128,256,54653,5,8
192,288,54965,1,0
256,320,55173,1,8
320,256,55486,1,8
352,192,55798,1,0
288,160,56007,5,8
160,192,56319,1,8
96,160,56632,1,0
160,128,56840,1,8
64,64,58507,5,8
96,160,59965,5,8
96,64,60173,1,8
32,32,61840,5,8
32,96,61944,1,8
32,160,62048,1,8
128,192,62257,1,8
192,192,62465,1,8
288,192,62673,1,8
288,288,62882,1,8
224,288,63090,1,0
352,288,63507,5,4
32,32,64548,1,4
32,96,64965,1,4
32,160,65382,5,12
32,256,65590,1,12
32,352,65798,1,12
128,352,66215,1,12
128,288,66632,1,4
32,32,69132,5,0
32,96,69340,1,8
32,160,69548,1,8
32,224,69653,1,8
32,288,69757,1,8
32,352,69861,1,8
96,352,69965,1,8
96,288,70069,1,8
96,224,70173,1,0
160,160,71007,5,8
160,64,71319,1,8
224,64,71632,1,8
32,32,71840,1,0
32,96,72048,1,8
32,160,72153,1,8
32,224,72257,1,0
32,288,72465,1,8
32,32,72673,5,0
32,96,72882,1,8
32,160,72986,1,8
32,224,73090,1,0
32,288,73298,1,8
32,32,73507,1,0
32,96,73715,1,8
32,160,73819,1,8
32,224,73923,1,0
32,288,74132,1,8
32,32,74340,5,0
32,96,74548,1,8
32,160,74653,1,8
32,224,74757,1,0
32,288,74965,1,8
32,32,75173,1,0
32,96,75382,1,8
32,160,75486,1,8
32,224,75590,1,0
32,288,75798,1,8
32,32,76007,5,0
32,96,76215,1,8
32,160,76319,1,8
32,224,76423,1,0
32,288,76632,1,8
96,32,76840,1,0
96,96,77048,1,0
96,160,77153,1,0
96,224,77257,1,8
96,320,77465,1,8
192,320,77673,5,8
256,320,77986,1,8
352,320,78298,1,8
32,32,78507,1,0
32,96,78715,1,8
32,160,78819,1,8
32,224,78924,1,0
32,288,79132,1,8
32,32,79340,5,0
32,96,79549,1,8
32,160,79653,1,8
32,224,79757,1,0
32,288,79965,1,8
32,32,80174,1,0
32,96,80382,1,8
32,160,80486,1,8
32,224,80590,1,0
32,288,80799,1,8
32,32,81007,5,0
32,96,81215,1,8
32,160,81319,1,8
32,224,81424,1,0
32,288,81632,1,8
32,32,81840,1,0
32,96,82049,1,8
32,160,82153,1,8
32,224,82257,1,0
32,288,82465,1,8
32,32,82674,5,0
32,96,82882,1,8
32,160,82986,1,8
32,224,83090,1,0
96,32,83299,1,8
96,96,83507,1,8
96,160,83819,1,8
96,224,84132,1,8
160,224,84340,5,8
160,160,84653,1,8
192,96,84965,1,8
288,64,85174,1,0
288,128,85278,1,0
288,192,85382,1,0
288,256,85590,1,8
288,320,85799,1,8
288,64,86007,5,0
288,128,86111,1,0
288,192,86215,1,0
288,256,86424,1,8
288,320,86632,1,8
288,64,86840,1,0
288,128,86944,1,0
288,192,87049,1,0
288,256,87257,1,8
288,320,87465,1,8
32,32,87674,5,0
32,96,87778,1,0
32,160,87882,1,8
32,256,88090,1,0
32,352,88299,1,8
32,32,88507,1,0
32,96,88611,1,0
32,160,88715,1,8
32,256,88924,1,0
32,352,89132,1,8
32,32,89340,5,0
32,96,89444,1,0
32,160,89549,1,8
32,256,89757,1,0
32,352,89965,1,8
32,32,90174,1,0
32,96,90278,1,0
32,160,90382,1,8
32,256,90590,1,0
32,352,90799,1,8
32,32,91007,5,0
32,96,91111,1,0
32,160,91215,1,8
32,256,91424,1,0
32,352,91632,1,8
96,32,91840,1,8
96,96,92049,1,8
96,96,92153,1,8
160,64,92257,1,8
160,128,92465,1,8
96,32,92674,5,8
96,96,92882,1,8
96,96,92986,1,8
160,64,93090,1,8
160,128,93299,1,8
96,32,93507,1,8
96,96,93715,1,8
96,96,93819,1,8
160,64,93924,1,8
160,128,94132,1,8
96,32,94340,5,8
96,96,94549,1,8
96,96,94653,1,8
160,64,94757,1,8
160,128,94965,1,8
256,64,95174,1,8
320,96,95486,1,8
320,192,95799,1,8
192,256,96007,1,8
256,288,96319,5,8
320,288,96632,1,8
128,192,96840,1,8
64,96,97153,1,8
160,128,97465,1,8
288,128,97674,1,8
352,128,97986,5,8
288,192,98299,1,0
224,256,98507,5,0
32,32,98715,1,0
32,96,98819,1,0
32,160,98924,1,0
32,224,99132,1,0
32,288,99236,1,0
32,352,99340,1,0
32,32,99549,1,0
32,96,99653,1,0
32,160,99757,1,0
32,224,99965,1,0
32,288,100069,1,0
32,352,100174,1,0
32,32,100382,5,0
32,96,100486,1,0
32,160,100590,1,0
32,224,100799,1,0
32,288,100903,1,0
32,352,101007,1,0
32,32,101215,1,0
32,96,101319,1,0
32,160,101424,1,0
96,352,101528,1,8
96,288,101632,1,0
96,224,101840,5,0
96,160,102049,1,0
96,96,102257,1,0
96,32,102465,1,0
160,32,102674,1,0
160,96,102882,1,0
160,160,103090,1,0
160,224,103299,1,0
224,32,103507,5,0
224,96,103715,1,8
224,160,103924,1,0
224,224,104132,1,8
288,32,104340,1,0
288,96,104549,1,8
32,32,104757,1,0
32,96,104861,1,8
32,160,104965,1,0
32,224,105069,1,8
32,288,105174,1,0
352,32,105382,5,0
352,96,105590,1,0
320,160,105799,1,0
320,224,105903,1,8
320,288,106007,1,0
128,64,106215,1,0
128,128,106319,1,8
128,192,106424,1,0
128,256,106632,1,0
128,320,106840,5,0
192,320,107049,1,0
192,256,107257,1,0
192,192,107465,1,0
192,128,107674,1,0
192,64,107882,1,8
288,96,108090,1,0
288,160,108299,1,0
352,96,108507,5,8
352,160,108611,1,8
352,224,108715,1,8
352,288,108819,1,0
352,352,108924,1,8
32,32,109132,1,0
32,96,109340,1,8
32,160,109549,1,8
32,256,109757,1,8
32,320,109965,1,8
96,64,110174,5,0
96,128,110278,1,8
96,192,110486,1,0
96,256,110590,1,8
96,320,110799,1,0
96,384,110903,1,8
160,64,111111,1,0
160,128,111215,1,8
224,64,111424,1,8
224,128,111632,1,8
64,64,111840,2,0,B|384:352,1,420
256,64,113299,5,0
32,64,113507,2,0,B|416:288,1,420
256,64,114965,5,0
32,64,115174,2,0,B|416:288,1,420
256,64,116632,5,0
32,64,116840,2,0,B|416:288,1,420
32,192,118299,5,8
192,32,119132,1,0
192,128,119340,1,0
192,224,119653,1,0
192,320,119965,1,0
288,320,120174,5,0
320,256,120486,1,8
192,32,120799,1,0
192,128,121007,1,0
192,224,121319,1,0
192,320,121632,1,0
288,320,121840,5,0
320,256,122153,1,8
192,32,122465,1,0
192,128,122674,1,0
192,224,122986,1,0
192,320,123299,1,0
288,320,123507,5,0
288,256,123819,1,0
288,160,124132,1,0
288,96,124340,1,0
352,96,124653,1,0
352,192,124965,1,0
352,288,125174,5,0
32,32,125799,1,8
64,128,126007,1,0
64,224,126319,1,8
64,288,126632,1,0
160,288,126840,5,8
160,192,127153,1,0
160,96,127361,1,8
256,96,127674,1,0
256,160,127986,1,8
256,256,128299,1,0
352,288,128507,5,8
64,32,129340,1,8
64,96,129444,1,8
64,160,129549,1,8
64,256,129757,1,8
160,256,129965,1,8
320,256,130174,5,8
160,192,130382,1,8
160,128,130590,1,8
192,64,130799,1,8
224,64,130903,1,8
256,64,131007,1,8
256,160,131215,1,8
256,256,131424,1,8
320,160,131632,1,8
352,256,131840,5,0
32,32,132465,1,8
32,96,132674,1,8
96,160,132882,1,8
32,192,133090,1,8
32,256,133194,1,8
160,96,133403,5,8
160,160,133507,1,0
160,224,133819,1,0
160,288,134132,1,0
256,288,134340,1,8
320,320,134444,1,8
352,256,134653,1,8
320,192,134757,1,8
224,160,134965,1,8
96,96,135174,5,0
160,96,135486,1,0
224,96,135799,1,0
128,224,136007,1,8
160,288,136111,1,8
224,288,136215,1,0
288,224,136424,1,0
384,192,136632,1,8
64,96,136840,5,0
96,192,137153,1,0
160,160,137465,1,0
288,128,137674,1,0
352,96,137986,1,8
352,192,138299,1,8
288,256,138507,5,0
352,32,139340,5,0
256,96,141007,5,4
96,64,142674,5,4
64,160,143507,5,4
64,256,144132,5,4
96,352,144340,1,4
192,352,144653,5,4
192,256,144965,5,4
192,160,145174,1,4
256,192,145799,12,4,156840
32,32,157465,5,0
32,96,157673,1,0
32,160,157986,1,0
32,224,158298,1,0
32,288,158507,1,0
96,128,159132,5,8
96,192,159340,1,8
96,256,159548,1,8
96,320,159757,1,8
160,64,160173,1,0
160,128,160798,5,8
160,192,161007,1,8
160,256,161111,1,8
160,320,161215,1,8
256,320,161423,1,8
320,64,161840,1,0
320,160,162257,5,8
320,224,162465,1,8
320,288,162673,1,0
320,160,163090,1,8
320,224,163298,1,8
320,288,163507,1,0
32,32,166840,5,0
32,96,166910,1,0
32,160,166979,1,0
32,224,167049,1,8
128,32,167257,1,8
128,96,167465,1,8
224,32,167673,1,8
352,224,167743,1,8
352,160,167812,1,8
352,96,167882,1,0
288,224,168090,1,0
288,320,168298,1,0
384,320,168507,5,0
64,192,168715,1,8
64,256,168819,1,8
96,320,168923,1,0
352,32,169132,1,8
352,128,169340,1,0
224,192,169548,1,8
192,256,169653,1,8
256,288,169757,1,0
352,256,169965,1,8
384,320,170173,5,0
64,192,170382,1,8
64,256,170486,1,8
96,320,170590,1,0
352,32,170798,1,8
352,128,171007,1,0
224,192,171215,1,8
192,256,171319,1,8
256,288,171423,1,0
352,256,171632,1,8
384,320,171840,5,0
64,192,172048,1,8
64,256,172153,1,8
96,320,172257,1,0
352,32,172465,1,8
352,128,172673,1,0
224,192,172882,1,8
192,256,172986,1,8
256,288,173090,1,0
352,256,173194,1,8
160,128,173298,1,8
64,32,173507,5,0
128,32,173611,1,0
192,32,173715,1,8
256,96,173923,1,0
352,64,174132,1,8
64,32,174340,1,0
128,32,174444,1,0
192,32,174548,1,8
256,96,174757,1,0
352,64,174965,1,8
64,32,175173,5,0
128,32,175278,1,0
192,32,175382,1,8
256,96,175590,1,0
352,64,175798,1,8
64,32,176007,1,0
128,32,176111,1,0
192,32,176215,1,8
256,96,176423,1,0
352,64,176632,1,8
64,32,176840,5,0
128,32,176944,1,0
192,32,177048,1,8
256,96,177257,1,0
352,64,177465,1,8
64,32,177673,1,0
128,32,177778,1,0
192,32,177882,1,8
256,96,178090,1,0
352,64,178298,1,8
32,128,178507,5,8
32,224,178819,1,8
64,288,179132,1,8
160,320,179340,1,8
192,224,179548,1,8
288,256,179653,1,8
288,192,179757,1,8
384,192,179965,1,8
384,96,180173,5,8
64,96,180382,1,0
128,128,180486,1,8
192,128,180590,1,8
256,96,180798,1,0
288,32,180903,1,8
352,32,181007,1,8
96,224,181215,1,8
96,288,181423,1,8
192,320,181632,1,8
384,192,181840,5,8
384,96,182048,1,8
64,96,182257,1,0
128,128,182361,1,8
192,128,182465,1,8
256,96,182673,1,0
288,32,182778,1,8
352,32,182882,1,8
96,224,183090,1,8
96,288,183298,1,8
192,256,183507,5,0
288,256,183715,1,8
384,256,183819,1,8
448,256,183923,1,0
416,192,184132,1,8
192,256,184340,1,0
288,256,184548,1,8
384,256,184653,1,8
448,256,184757,1,0
416,192,184965,1,8
192,256,185173,5,0
288,256,185382,1,8
384,256,185486,1,8
448,256,185590,1,0
416,192,185798,1,8
192,256,186007,1,0
288,256,186215,1,8
384,256,186319,1,8
448,256,186423,1,0
416,192,186632,5,8
32,64,186840,2,0,B|320:128,1,280
96,160,187882,5,0
96,256,188090,1,0
32,64,188298,2,0,B|320:128,1,280
160,64,189548,5,0
160,128,189757,1,0
160,192,189965,1,0
256,64,190173,1,8
256,160,190278,1,8
256,224,190382,1,0
256,288,190486,1,8
352,320,190590,1,0
384,256,190798,1,0
384,160,191007,1,0
384,96,191215,1,0
64,128,191423,5,0
64,224,191632,1,0
128,224,191840,1,8
160,160,192153,1,8
224,128,192465,1,8
224,224,192673,5,8
352,224,192882,1,8
224,288,192986,1,8
288,288,193090,1,8
352,128,193298,1,8
32,32,193507,1,0
32,96,193715,1,8
32,160,193819,1,8
32,256,193923,1,8
32,352,194132,1,8
32,32,194340,5,0
32,96,194548,1,8
32,160,194653,1,8
32,256,194757,1,8
32,352,194965,1,8
32,32,195173,1,0
32,96,195382,1,8
32,160,195486,1,8
32,256,195590,1,8
32,352,195798,1,8
32,32,196007,5,0
32,96,196215,1,8
32,160,196319,1,8
32,256,196423,1,8
32,352,196632,1,8
32,32,196840,1,0
32,96,197048,1,8
32,160,197153,1,8
32,256,197257,1,8
32,352,197465,1,8
32,32,197673,5,0
32,96,197882,1,8
32,160,197986,1,8
32,256,198090,1,8
32,352,198298,1,8
32,32,198507,1,0
32,96,198715,1,8
32,160,198819,1,8
32,256,198923,1,8
32,352,199132,1,8
32,32,199340,5,0
32,96,199548,1,8
32,160,199653,1,8
32,256,199757,1,8
32,352,199965,1,8
128,32,200173,1,0
160,128,200382,1,8
224,192,200486,1,8
288,224,200590,1,0
352,224,200798,1,8
128,32,201007,5,0
160,128,201215,1,8
224,192,201319,1,8
288,224,201423,1,0
352,224,201632,1,8
128,32,201840,1,0
160,128,202048,1,8
224,192,202153,1,8
288,224,202257,1,0
352,224,202465,1,8
128,32,202673,5,0
160,128,202882,1,8
224,192,202986,1,8
288,224,203090,1,0
352,224,203298,1,8
128,32,203507,1,0
160,128,203715,1,8
224,192,203819,1,8
288,224,203923,1,0
352,224,204132,1,8
128,32,204340,5,0
160,128,204548,1,8
224,192,204653,1,8
288,224,204757,1,0
352,224,204965,5,8
32,96,205173,2,4,B|480:352,1,490
384,96,206840,5,4
