osu file format v5

[General]
AudioFilename: Special D - You.mp3
AudioLeadIn: 1996
PreviewTime: -1
Countdown: 0
SampleSet: Normal
StackLeniency: 0.7
Mode: 1
LetterboxInBreaks: 1
SkinPreference:taiko
EditorDistanceSpacing: 0.800000011920929

[Metadata]
Title:You
Artist:Special D
Creator:Rokodo [RL]
Version:Taiko Easy
Source:
Tags:Special D You trance rokodo rl

[Difficulty]
HPDrainRate:3
CircleSize:5
OverallDifficulty:5
SliderMultiplier:1.4
SliderTickRate:1

[Events]
//Background and Video events
0,0,"special-d_you.jpg"
//Break Periods
//Storyboard Layer 0 (Background)
//Storyboard Layer 1 (Fail)
//Storyboard Layer 2 (Pass)
//Storyboard Layer 3 (Foreground)
//Storyboard Sound Samples
//Background Colour Transformations
3,100,0,0,0

[TimingPoints]
174,416.666666666667,4,1,0,100,1,0
71854,-100,4,1,0,100,0,1
98520,-100,4,1,0,100,0,0
166854,-100,4,1,0,100,0,1
186854,-100,4,1,0,100,0,0

[HitObjects]
32,32,174,1,0
32,96,1007,1,0
32,160,1840,5,0
32,256,2673,1,0
96,32,3507,5,0
96,96,3923,1,0
96,160,4340,5,0
96,224,4757,1,0
96,288,5590,5,0
160,288,6424,1,0
224,288,7257,5,0
224,224,8090,1,0
224,160,8924,5,0
224,96,9757,1,0
160,128,10590,5,0
96,160,11007,1,0
96,224,11423,1,0
160,256,11840,1,0
32,32,12257,2,0,L|384:288,1,420
256,192,17257,5,4
160,192,18090,1,4
224,128,18923,5,4
288,128,19757,1,4
32,32,23924,5,0
32,96,24340,1,0
32,160,24757,5,0
32,224,25174,1,0
96,64,25590,2,0,L|384:352|384:320,1,420
256,128,30174,5,4
256,224,31007,1,4
256,288,31840,5,4
128,64,32674,1,0
128,160,33507,5,0
224,160,34340,5,0
224,96,34757,1,0
288,96,35174,5,0
64,96,35590,2,0,L|416:352,1,420
192,224,37674,5,0
256,224,38090,1,0
320,224,38507,1,0
384,224,38924,1,0
192,224,39340,5,0
256,224,39757,1,0
320,224,40173,1,0
384,224,40590,1,0
32,32,41423,5,0
64,128,42257,1,0
128,192,43090,5,0
192,192,43923,1,0
288,192,44757,5,0
320,128,45590,1,0
128,128,46007,1,0
128,224,46840,5,0
192,256,47673,1,0
256,256,48090,1,0
256,192,48923,5,0
160,160,49340,1,0
96,160,49548,1,0
64,96,49757,5,0
128,96,49965,1,0
192,96,50173,5,0
256,192,51007,12,0,56840
32,32,62465,5,0
64,96,62673,1,0
128,128,62882,5,0
192,160,63090,1,0
256,192,63298,5,0
320,224,63507,1,0
160,320,64548,1,0
224,256,64965,1,0
288,192,65382,5,0
352,96,65798,1,0
192,96,66215,5,0
160,192,66632,1,0
256,128,67048,5,0
352,192,67465,1,0
256,256,67882,5,0
32,96,68298,1,0
128,256,68715,5,0
352,256,69132,1,0
448,96,69548,5,0
32,32,71840,5,0
64,128,72257,1,0
96,256,72673,1,0
192,256,73090,1,0
288,256,73923,1,0
288,192,74757,5,0
32,32,75173,1,0
64,128,75590,1,0
96,256,76007,1,0
192,256,76423,1,0
288,256,77257,1,0
288,192,78090,5,0
32,32,78507,1,0
64,128,78924,1,0
96,256,79340,1,0
192,256,79757,1,0
288,256,80590,5,0
288,192,81424,1,0
32,64,81840,5,0
32,128,82049,1,0
96,128,82257,5,0
96,64,82465,1,0
128,64,82674,5,0
192,64,82882,1,0
192,128,83090,5,0
224,192,83507,1,0
256,256,83924,5,0
320,288,84340,5,0
320,224,84757,1,0
32,32,85174,5,0
64,128,85590,1,0
96,256,86007,5,0
192,256,86424,1,0
288,256,87257,5,0
288,192,88090,5,0
32,32,88507,1,0
64,128,88924,1,0
96,256,89340,5,0
192,256,89757,1,0
288,256,90590,5,0
288,192,91424,5,0
32,32,91840,1,0
64,128,92257,5,0
96,256,92674,1,0
192,256,93090,1,0
288,256,93924,5,0
288,192,94757,1,0
32,64,95174,1,0
32,128,95382,1,0
96,128,95590,5,0
96,64,95799,1,0
128,64,96007,5,0
192,64,96215,1,0
192,128,96424,5,0
224,192,96840,5,0
256,256,97257,1,0
320,288,97674,5,0
320,224,98090,1,0
256,192,98507,12,0,101840
64,32,105174,5,0
128,64,105590,1,0
192,128,106007,1,0
256,160,106424,1,0
320,160,106840,5,0
320,224,107049,1,0
320,288,107257,1,0
256,320,107465,1,0
192,288,107674,1,0
160,192,108090,5,0
224,160,108507,1,0
288,128,108924,5,0
352,128,109340,5,0
352,192,109757,1,0
320,288,110174,5,0
224,288,110382,1,0
160,288,110590,5,0
128,224,110799,1,0
96,160,111007,5,0
96,96,111215,1,0
160,96,111424,5,0
128,32,111840,2,0,L|416:352,1,420
32,32,113924,5,0
64,96,114757,1,0
32,32,115590,5,0
64,96,116424,1,0
32,32,117257,5,0
64,96,118090,1,0
32,32,126007,5,0
32,96,126840,1,0
32,192,127674,5,0
32,256,128507,1,0
96,64,129340,5,0
96,160,130174,1,0
192,192,130799,5,0
256,192,131007,1,0
288,128,131215,5,0
352,160,131424,1,0
352,192,131632,5,0
352,224,131840,1,0
32,64,132674,5,0
64,128,133507,1,0
128,160,134340,5,0
192,160,135174,1,0
256,192,136007,5,0
352,192,136840,1,0
256,192,139340,12,0,145174
96,128,151215,5,0
160,160,151632,1,0
224,160,152049,5,0
320,192,152465,1,0
320,256,152882,5,0
224,288,153299,1,0
32,96,158507,2,0,L|384:352,1,420
96,64,160173,5,0
192,128,161007,5,0
192,224,161840,5,0
288,224,162673,5,0
384,192,163507,5,0
192,128,164340,1,0
32,32,166840,5,0
64,128,167257,1,0
96,256,167673,5,0
192,256,168090,1,0
288,256,168923,5,0
288,192,169757,5,0
32,32,170173,1,0
64,128,170590,5,0
96,256,171007,5,0
192,256,171423,1,0
288,256,172257,5,0
288,192,173090,5,0
32,32,173507,1,0
64,128,173923,1,0
96,256,174340,5,0
192,256,174757,1,0
288,256,175590,5,0
288,192,176423,1,0
32,64,176840,5,0
32,128,177048,1,0
96,128,177257,5,0
96,64,177465,1,0
128,64,177673,5,0
192,64,177882,1,0
192,128,178090,5,0
224,192,178507,5,0
256,256,178923,1,0
320,288,179340,5,0
320,224,179757,1,0
32,32,180173,1,0
64,128,180590,5,0
96,256,181007,1,0
192,256,181423,1,0
288,256,182257,5,0
288,192,183090,1,0
32,32,183507,1,0
64,128,183923,5,0
96,256,184340,1,0
192,256,184757,1,0
288,256,185590,5,0
288,192,186423,5,0
32,32,186840,1,0
64,128,187257,5,0
96,256,187673,1,0
192,256,188090,1,0
288,256,188923,5,0
288,192,189757,5,0
32,64,190173,1,0
32,128,190382,1,0
96,128,190590,5,0
96,64,190798,1,0
128,64,191007,1,0
192,64,191215,5,0
192,128,191423,1,0
224,192,191840,5,0
256,256,192257,1,0
320,288,192673,5,0
320,224,193090,1,0
32,64,193507,5,0
64,128,194340,5,0
32,64,195173,1,0
64,128,196007,5,0
32,64,196840,1,0
64,128,197673,5,0
32,64,198507,1,0
64,128,199340,5,0
128,160,200173,1,0
192,192,200590,1,0
256,192,201007,5,0
352,192,201423,1,0
320,256,202257,1,0
224,256,203090,5,0
96,96,203923,2,0,L|448:352,1,420
256,224,206840,5,4
