osu file format v5

[General]
AudioFilename: Special D - You.mp3
AudioLeadIn: 1996
PreviewTime: -1
Countdown: 0
SampleSet: Normal
StackLeniency: 0.7
Mode: 0
LetterboxInBreaks: 0
EditorBookmarks: 6854,26854,30813,118521,131854
EditorDistanceSpacing: 0.699999988079071

[Metadata]
Title:You
Artist:Special D
Creator:Rokodo [RL]
Version:Metroid Mix | Hard
Source:
Tags:Special D You trance rokodo rl

[Difficulty]
HPDrainRate:6
CircleSize:5
OverallDifficulty:7
SliderMultiplier:1.9
SliderTickRate:2

[Events]
//Background and Video events
0,0,"special-d_you.jpg"
//Break Periods
2,27054,28454
2,57054,68246
2,118721,131579
2,145387,157621
//Storyboard Layer 0 (Background)
//Storyboard Layer 1 (Fail)
//Storyboard Layer 2 (Pass)
//Storyboard Layer 3 (Foreground)
//Storyboard Sound Samples
//Background Colour Transformations
3,100,0,0,0

[TimingPoints]
174,416.666666666667,4,1,0,70,1,0
29354,-100,4,2,0,100,0,0
71674,-100,4,1,0,70,0,0
71854,-100,4,1,0,50,0,1
91792,-100,4,1,0,38,0,0
93312,-100,4,1,0,40,0,0
94146,-100,4,1,0,43,0,0
94979,-100,4,1,0,49,0,0
95813,-100,4,1,0,52,0,0
96646,-100,4,1,0,58,0,0
97479,-100,4,1,0,62,0,0
98625,-100,4,1,0,50,0,0
105083,-100,4,1,0,70,0,0
123833,-100,4,2,0,100,0,0
158149,-100,4,1,0,61,0,0
165083,-100,4,2,0,0,0,0
166620,-100,4,1,0,51,0,0
166854,-100,4,1,0,50,0,1
186750,-100,4,1,0,39,0,0
188208,-100,4,1,0,45,0,0
189875,-100,4,1,0,55,0,0
191542,-100,4,1,0,63,0,0

[Colours]
Combo1 : 185,0,0
Combo2 : 255,0,0
Combo3 : 255,91,91

[HitObjects]
256,64,6840,1,0
256,192,7257,1,8
368,128,7674,1,0
256,192,8090,1,8
144,128,8507,1,0
144,192,8715,1,2
192,240,8924,1,8
256,256,9132,1,2
256,128,9549,1,2
256,192,9757,1,8
256,256,9965,1,6
256,320,10173,6,0,B|304:320|320:272|336:240|304:192|272:192|240:192,1,190,0|8
256,320,11007,1,0
352,224,11423,1,8
256,128,11840,1,0
224,192,12048,1,2
288,192,12257,1,8
256,256,12465,1,2
192,352,12882,1,2
256,320,13090,1,8
320,352,13298,1,6
384,320,13507,6,0,B|448:224|320:224|400:128,3,190,0|8|0|8
464,32,15173,1,0
400,32,15382,1,2
336,48,15590,1,8
288,96,15798,1,2
176,32,16215,1,2
192,96,16423,1,8
232,152,16632,1,6
288,192,16840,6,0,B|400:240|480:128,1,190,0|8
464,80,17465,1,0
400,32,17673,2,0,B|368:160|256:80,1,190,0|8
304,32,18298,1,0
240,16,18507,2,2,B|96:48|176:176,1,190,2|10
192,208,19132,1,2
320,160,19549,1,2
288,224,19757,1,8
256,288,19965,1,6
192,320,20174,5,0
192,320,20278,1,0
192,320,20382,1,0
144,272,20590,1,8
192,224,20799,1,0
192,224,20903,1,0
192,224,21007,1,0
144,176,21215,1,0
192,128,21424,1,8
144,80,21632,1,0
144,80,21840,2,0,B|80:80|80:160,3,95,0|2|8|2
80,272,22882,2,0,B|80:368,2,95,2|8|6
128,224,23507,5,0
176,176,23715,1,0
224,224,23924,1,8
336,304,24340,1,0
384,352,24549,1,0
432,304,24757,1,8
432,176,25174,1,0
384,128,25382,1,2
336,176,25590,1,8
384,128,25799,1,2
288,32,26215,1,2
240,80,26424,1,8
192,32,26632,1,6
144,80,26840,1,4
256,192,29340,12,2,30174
224,48,30799,5,2
288,48,31007,1,2
256,144,31319,1,2
224,240,31632,1,2
288,240,31840,1,2
480,240,32465,6,2,B|480:144,1,95
384,192,32986,1,2
304,144,33299,2,2,B|304:48,1,95
96,48,34132,5,2
48,96,34340,2,2,B|96:208|144:80,2,142.5
96,48,35174,1,2
256,176,35799,5,2
256,240,36007,2,2,B|304:304|192:304|256:368,2,142.5
256,176,36840,1,6
80,64,37465,5,2
64,128,37674,1,2
160,112,37986,2,2,B|256:128|208:240,1,142.5
160,176,38507,1,2
64,176,38819,2,2,B|96:224|144:240|176:240|208:208,1,142.5
160,176,39340,2,2,B|160:32,1,142.5
256,48,39965,1,2
256,48,40173,1,2
224,304,41007,5,2
288,304,41215,1,2
288,176,41632,1,2
224,176,41840,1,2
48,96,42465,1,2
48,160,42673,1,2
80,256,42986,1,2
144,288,43194,1,2
240,256,43507,1,6
432,304,44132,5,2
368,288,44340,1,2
272,256,44653,1,2
288,144,44965,1,2
224,144,45173,1,2
160,144,45382,1,0
160,144,45486,1,0
160,144,45590,1,0
96,144,45798,6,2,B|96:240,1,95
192,208,46319,1,2
288,208,46632,2,2,B|288:304,1,95
320,368,47048,1,0
320,368,47153,1,0
320,368,47257,1,0
368,320,47465,5,2
416,272,47673,2,2,B|368:160|320:288,2,142.5
368,320,48507,1,2
320,272,48715,1,0
320,272,48819,1,0
320,272,48923,1,0
256,240,49132,5,2
256,176,49340,2,2,B|208:112|320:112|256:48,2,142.5
256,240,50173,1,6
192,272,50382,1,0
192,272,50486,1,0
192,272,50590,1,0
128,288,50798,5,2
144,224,51007,1,2
96,128,51319,2,2,B|0:112|48:0,1,142.5
96,64,51840,1,2
191,31,52153,2,2,B|201:16|233:16|281:32|313:80,1,142.5
320,144,52673,2,2,B|320:288,1,142.5
256,208,53298,1,2
256,144,53507,1,2
256,80,53715,1,0
256,80,53819,1,0
256,80,53923,1,0
192,112,54132,1,0
144,64,54340,5,2
128,128,54548,1,2
128,256,54965,1,2
144,320,55173,1,2
208,320,55382,1,0
208,320,55486,1,0
208,320,55590,1,0
272,320,55798,1,2
288,256,56007,1,2
304,160,56319,1,2
304,96,56528,1,2
208,128,56840,1,6
256,48,69132,5,2
208,96,69340,1,2
256,192,69653,1,2
304,288,69965,1,2
256,336,70173,1,6
256,192,70278,12,4,71840
176,224,72048,5,0
176,288,72257,1,8
176,352,72465,2,0,B|240:352|240:272,1,95
240,224,72882,1,0
240,160,73090,1,8
176,160,73298,2,0,B|176:96|256:96,1,95
304,96,73715,1,0
304,96,73923,1,8
304,160,74132,6,0,B|368:160|368:96,1,95
368,32,74548,1,0
368,32,74757,1,8
432,32,74965,2,0,B|432:160,1,95
432,192,75382,1,0
432,256,75590,1,8
432,320,75798,2,0,B|368:320|368:256,1,95
368,192,76215,1,0
304,224,76423,1,8
304,160,76632,6,0,B|208:160,1,95
208,160,77048,1,0
208,160,77257,1,8
208,160,77465,2,0,B|208:64,1,95
208,65,77882,1,0
208,65,78090,1,8
208,65,78298,2,0,B|80:64,1,95
112,64,78715,1,0
112,64,78924,1,8
112,128,79132,6,0,B|112:240,1,95
80,288,79549,1,0
144,288,79757,1,8
112,352,79965,2,0,B|224:352,1,95
272,352,80382,1,0
240,288,80590,1,8
304,304,80799,2,0,B|320:240|224:208,1,95
336,240,81215,1,0
368,304,81424,1,8
352,368,81632,5,0
288,336,81840,2,0,B|160:336|160:192,1,190,0|8
192,160,82465,1,0
224,96,82674,1,0
224,96,82882,2,0,B|272:32|336:96,2,95,0|8|0
288,144,83507,2,0,B|288:224|400:240|400:128,1,190,0|8
352,96,84132,1,0
288,64,84340,2,0,B|288:0|416:-16|416:80,2,190,0|8|0
224,96,85382,1,0
224,96,85590,1,8
224,160,85799,5,0
288,160,86007,2,0,B|288:256|224:256|224:352,1,190,0|8
288,336,86632,1,0
352,336,86840,2,0,B|480:336|480:208,1,190,0|8
480,160,87465,1,0
480,96,87674,2,0,B|352:96|352:224,1,190,0|8
416,208,88299,1,0
480,208,88507,2,0,B|480:288|352:288|352:208,1,190,0|8
416,208,89132,1,0
480,208,89340,2,0,B|480:128|352:128|352:208,1,190,0|8
288,208,89965,5,0
224,208,90174,2,0,B|64:208,2,142.5
272,160,91007,2,0,B|352:112|416:176,2,142.5
208,160,91840,5,8
240,96,92049,1,8
240,96,92153,1,8
240,96,92257,1,8
272,32,92465,1,8
336,64,92674,1,8
400,96,92882,1,8
400,96,92986,1,8
400,96,93090,1,8
384,160,93299,5,8
400,224,93507,1,8
336,208,93715,1,8
336,208,93819,1,8
336,208,93924,1,8
304,144,94132,1,8
240,160,94340,1,8
224,224,94549,1,8
224,224,94653,1,8
224,224,94757,1,8
272,272,94965,5,8
336,272,95174,1,8
384,224,95382,1,8
384,224,95486,1,8
384,224,95590,1,8
400,160,95799,1,8
384,96,96007,1,8
320,112,96215,1,8
320,112,96319,1,8
320,112,96424,1,8
272,64,96632,5,8
224,16,96840,1,8
176,64,97049,1,8
176,64,97153,1,8
176,64,97257,1,8
128,112,97465,1,8
80,64,97674,1,8
32,112,97882,1,8
32,112,97986,1,8
32,112,98090,1,8
80,160,98299,1,8
80,160,98507,1,4
128,208,98715,5,0
160,272,98924,1,8
128,336,99132,1,0
192,336,99340,1,0
256,352,99549,1,0
256,288,99757,1,8
256,288,99965,2,0,B|336:192|176:208|272:80,1,190
256,48,100590,1,8
256,48,100694,1,0
256,48,100799,1,0
320,48,101007,1,0
320,112,101215,1,0
256,144,101424,5,8
256,144,101632,2,0,B|320:240|192:240|272:352,1,190
320,320,102257,1,8
368,272,102465,1,0
368,208,102674,1,0
368,272,102882,1,0
320,320,103090,1,8
320,320,103299,2,0,B|192:320,1,95
160,320,103715,5,0
160,64,104132,1,0
368,192,104549,1,0
368,192,104757,2,0,B|272:192,1,95
208,192,105174,5,0
272,304,105590,1,8
144,272,106007,1,0
256,208,106424,1,8
368,272,106840,1,0
368,208,107049,1,2
320,160,107257,1,8
256,144,107465,1,2
256,272,107882,1,2
256,208,108090,1,8
256,144,108299,1,6
256,80,108507,6,0,B|208:80|192:128|176:160|208:208|240:208|272:208,1,190,0|8
256,80,109340,1,0
160,176,109757,1,8
256,272,110174,1,0
288,208,110382,1,2
224,208,110590,1,8
256,144,110799,1,2
320,48,111215,1,2
256,80,111424,1,8
192,48,111632,1,6
128,80,111840,6,0,B|64:176|192:176|112:272,3,190,0|8|0|8
48,368,113507,1,0
112,368,113715,1,2
176,352,113924,1,8
224,304,114132,1,2
336,368,114549,1,2
320,304,114757,1,8
280,248,114965,1,6
224,208,115174,6,0,B|112:160|32:272,1,190,0|8
48,320,115799,1,0
96,368,116007,2,0,B|144:240|256:320,1,190,0|8
208,368,116632,1,0
272,384,116840,2,2,B|416:352|336:224,1,190,2|10
320,192,117465,1,2
192,240,117882,1,2
224,176,118090,1,8
256,112,118299,1,6
256,112,118507,1,4
432,80,132465,5,2
368,96,132674,1,2
272,128,132986,1,2
288,240,133299,1,2
224,240,133507,1,2
160,240,133715,1,0
160,240,133819,1,0
160,240,133924,1,0
96,240,134132,6,2,B|96:144,1,95
192,176,134653,1,2
288,176,134965,2,2,B|288:80,1,95
320,16,135382,1,0
320,16,135486,1,0
320,16,135590,1,0
368,64,135799,5,2
416,112,136007,2,2,B|368:224|320:96,2,142.5
368,64,136840,1,2
320,112,137049,1,0
320,112,137153,1,0
320,112,137257,1,0
256,144,137465,5,2
256,208,137674,2,2,B|208:272|320:272|256:336,2,142.5
256,144,138507,1,2
192,112,138715,1,0
192,112,138819,1,0
192,112,138924,1,0
128,96,139132,5,2
144,160,139340,1,2
96,256,139653,2,2,B|0:272|48:384,1,142.5
96,320,140174,1,2
191,353,140486,2,2,B|201:368|233:368|281:352|313:304,1,142.5
320,240,141007,2,2,B|320:96,1,142.5
256,176,141632,1,2
256,240,141840,1,2
256,304,142049,1,0
256,304,142153,1,0
256,304,142257,1,0
192,272,142465,1,0
144,320,142674,5,2
128,256,142882,1,2
128,128,143299,1,2
144,64,143507,1,2
208,64,143715,1,0
208,64,143819,1,0
208,64,143924,1,0
272,64,144132,1,2
288,128,144340,1,2
304,224,144653,1,2
304,288,144861,1,2
208,256,145174,1,6
256,48,158507,5,4
256,144,158819,1,0
256,240,159132,1,0
256,304,159340,2,2,B|352:304|352:176,2,142.5
192,304,160173,5,4
128,224,160486,1,0
192,144,160798,1,0
192,80,161007,2,2,B|256:32|256:128|352:64,2,142.5
192,144,161840,5,4
256,224,162153,1,0
320,144,162465,1,0
256,160,162673,2,2,B|256:16,2,142.5
256,224,163507,5,4
256,320,163819,1,0
256,224,164132,1,0
304,176,164340,2,2,B|256:80|192:192,2,142.5
256,192,165173,12,0,166423
176,160,167048,5,0
176,96,167257,1,8
176,32,167465,2,0,B|240:32|240:112,1,95
240,160,167882,1,0
240,224,168090,1,8
176,224,168298,2,0,B|176:288|256:288,1,95
304,288,168715,1,0
304,288,168923,1,8
304,224,169132,6,0,B|368:224|368:288,1,95
368,352,169548,1,0
368,352,169757,1,8
432,352,169965,2,0,B|432:224,1,95
432,192,170382,1,0
432,128,170590,1,8
432,64,170798,2,0,B|368:64|368:128,1,95
368,192,171215,1,0
304,160,171423,1,8
304,224,171632,6,0,B|208:224,1,95
208,224,172048,1,0
208,224,172257,1,8
208,224,172465,2,0,B|208:320,1,95
208,319,172882,1,0
208,319,173090,1,8
208,319,173298,2,0,B|80:320,1,95
112,320,173715,1,0
112,320,173923,1,8
112,256,174132,6,0,B|112:144,1,95
80,96,174548,1,0
144,96,174757,1,8
112,32,174965,2,0,B|224:32,1,95
272,32,175382,1,0
240,96,175590,1,8
304,80,175798,2,0,B|320:144|224:176,1,95
336,144,176215,1,0
368,80,176423,1,8
352,16,176632,5,0
288,48,176840,2,0,B|160:48|160:192,1,190,0|8
192,224,177465,1,0
224,288,177673,1,0
224,288,177882,2,0,B|272:352|336:288,2,95,0|8|0
288,240,178507,2,0,B|288:160|400:144|400:256,1,190,0|8
352,288,179132,1,0
288,320,179340,2,0,B|288:384|416:400|416:304,2,190,0|8|0
224,288,180382,1,0
224,288,180590,1,8
224,224,180798,5,0
288,224,181007,2,0,B|288:128|224:128|224:32,1,190,0|8
288,48,181632,1,0
352,48,181840,2,0,B|480:48|480:176,1,190,0|8
480,224,182465,1,0
480,288,182673,2,0,B|352:288|352:160,1,190,0|8
416,176,183298,1,0
480,176,183507,2,0,B|480:96|352:96|352:176,1,190,0|8
416,176,184132,1,0
480,176,184340,2,0,B|480:256|352:256|352:176,1,190,0|8
288,176,184965,5,0
224,176,185173,2,0,B|64:176,2,142.5
272,224,186007,2,0,B|352:272|416:208,2,142.5
208,224,186840,5,8
240,288,187048,1,8
240,288,187153,1,8
240,288,187257,1,8
272,352,187465,1,8
336,320,187673,1,8
400,288,187882,1,8
400,288,187986,1,8
400,288,188090,1,8
384,224,188298,5,8
400,160,188507,1,8
336,176,188715,1,8
336,176,188819,1,8
336,176,188923,1,8
304,240,189132,1,8
240,224,189340,1,8
224,160,189548,1,8
224,160,189653,1,8
224,160,189757,1,8
272,112,189965,5,8
336,112,190173,1,8
384,160,190382,1,8
384,160,190486,1,8
384,160,190590,1,8
400,224,190798,1,8
384,288,191007,1,8
320,272,191215,1,8
320,272,191319,1,8
320,272,191423,1,8
272,320,191632,5,8
224,368,191840,1,8
176,320,192048,1,8
176,320,192153,1,8
176,320,192257,1,8
128,272,192465,1,8
80,320,192673,1,8
32,272,192882,1,8
32,272,192986,1,8
32,272,193090,1,8
80,224,193298,1,8
80,224,193507,1,4
