osu file format v5

[General]
AudioFilename: Special D - You.mp3
AudioLeadIn: 1996
PreviewTime: -1
Countdown: 0
SampleSet: Normal
StackLeniency: 0.6
Mode: 0
LetterboxInBreaks: 0
EditorBookmarks: 98938
EditorDistanceSpacing: 1.10000002384186

[Metadata]
Title:You
Artist:Special D
Creator:Rokodo [RL]
Version:Hanyuu | Normal
Source:
Tags:Special D You trance rokodo rl

[Difficulty]
HPDrainRate:5
CircleSize:4
OverallDifficulty:5
SliderMultiplier:1.4
SliderTickRate:2

[Events]
//Background and Video events
0,0,"special-d_you.jpg"
//Break Periods
2,13721,16248
2,27054,28748
2,57054,70414
//Storyboard Layer 0 (Background)
//Storyboard Layer 1 (Fail)
//Storyboard Layer 2 (Pass)
//Storyboard Layer 3 (Foreground)
//Storyboard Sound Samples
//Background Colour Transformations
3,100,0,0,0

[TimingPoints]
174,416.666666666667,4,1,0,70,1,0
13313,-100,4,1,0,100,0,0
29771,-100,4,1,0,70,0,0
50604,-100,4,1,0,70,0,0
53103,-100,4,1,0,100,0,0
54978,-100,4,1,0,82,0,0
55813,-100,4,1,0,100,0,0
93521,-100,4,1,0,80,0,0
94354,-100,4,1,0,71,0,0
95187,-100,4,1,0,50,0,0
96020,-100,4,1,0,30,0,0
96853,-100,4,1,0,100,0,0

[Colours]
Combo1 : 167,1,14
Combo2 : 44,44,44

[HitObjects]
56,80,174,2,0,L|168:80|184:112,1,140
248,192,1007,2,0,L|104:192,1,140
56,288,1840,1,0
168,288,2257,1,0
280,288,2673,2,4,L|280:208,2,70
392,288,3507,6,0,L|392:136,1,140
120,96,4340,2,0,L|120:248,1,140
328,320,5174,2,0,L|272:240|200:240,1,140,0|0
120,237,6007,2,4,L|48:237,2,70,4|4|4
224,104,6840,5,0
336,104,7257,1,8
448,104,7674,2,0,L|448:264,1,140,0|8
336,248,8507,1,0
336,360,8924,1,8
448,360,9340,2,0,L|448:216,1,140,0|8
224,176,10173,6,4,B|304:176|368:256,1,140
496,328,11007,6,4,B|472:248|400:200,1,140
240,64,11840,5,0
64,224,12257,1,0
288,352,12673,1,0
464,192,13090,1,0
240,64,13507,5,4
72,312,17673,6,0,L|224:312,1,140,0|0
320,312,18507,2,0,L|216:192,1,140
160,112,19340,2,0,L|312:112,1,140,0|0
488,288,20174,5,0
376,304,20590,1,8
264,304,21007,1,0
208,304,21215,1,0
152,304,21424,1,12
40,304,21840,5,0
40,192,22257,1,8
40,304,22674,1,0
96,304,22882,1,0
152,304,23090,1,12
328,304,23507,6,4,B|296:216|208:184,1,140
168,112,24340,2,4,B|320:112,1,140
408,168,25174,1,0
408,280,25590,1,8
376,168,26007,5,0
376,224,26215,1,0
376,280,26424,1,8
264,280,26840,1,4
392,64,30174,6,0,B|392:216,1,140,0|0
312,280,31007,1,0
200,280,31424,1,0
112,208,31840,2,0,B|112:64,2,140
200,280,33090,1,0
256,280,33299,1,0
312,280,33507,1,0
256,184,33924,5,0
152,136,34340,2,0,B|200:80|288:80,2,140
216,224,35590,1,0
264,200,35799,1,0
312,224,36007,2,0,B|344:296|304:368,1,140
224,280,36840,1,4
408,104,37465,5,0
352,104,37674,2,0,B|184:104,2,140
288,200,38924,1,0
344,200,39132,2,0,B|488:200,2,140
288,200,40173,1,4
176,200,40590,1,0
176,88,41007,6,0,B|32:88,2,140
288,88,42257,1,0
376,160,42673,1,0
288,232,43090,1,0
208,160,43507,1,4
64,320,44132,5,0
64,320,44340,1,0
144,320,44653,1,0
104,240,44965,2,0,B|264:240,1,140
304,144,45798,5,0
304,144,46007,1,0
216,144,46319,1,0
260,73,46632,1,0
260,73,46840,2,0,B|412:73,2,140,4|0|0
136,56,48090,6,0,B|136:296,1,210
232,320,49132,1,0
232,320,49340,2,4,B|328:320,4,70
88,128,50798,5,0
144,128,51007,2,0,L|296:128,1,140
392,128,51840,1,0
392,240,52257,1,0
280,240,52673,2,0,L|128:240,2,140,0|0|4
448,192,53923,6,0,B|416:120|312:104,1,140,4|0
192,104,54757,1,0
72,200,55173,2,0,B|224:200,1,140
375,320,56007,6,0,B|376:250|312:202,1,140
192,104,56840,1,4
400,296,71840,6,0,B|384:216|328:176,1,140,0|8
312,40,72673,6,0,B|232:56|208:136,1,140,0|8
144,248,73507,6,0,B|0:248,2,140,0|8|0
256,248,74757,5,8
368,248,75173,6,0,B|512:248,2,140,0|8|0
256,240,76423,5,8
224,128,76840,2,0,B|152:152|136:232,1,140,0|8
288,336,77673,2,0,B|360:312|376:232,1,140,0|8
320,72,78507,5,0
320,72,78924,1,8
208,72,79340,5,0
208,72,79757,1,8
96,72,80174,5,0
96,72,80590,1,8
8,144,81007,6,0,B|8:288,1,140,0|8
96,344,81840,5,0
96,344,82257,1,8
208,344,82674,1,0
208,344,83090,1,8
320,344,83507,5,0
320,344,83924,1,8
432,328,84340,2,8,B|432:176,1,140
352,40,85174,6,0,B|256:64|248:160,1,140,0|8
208,288,86007,2,0,B|128:240|144:168,1,140,0|8
304,120,86840,2,0,B|256:56|168:48,1,140,0|8
80,208,87674,2,0,B|136:152|224:168,1,140,0|8
392,184,88507,5,0
392,72,88924,1,8
296,128,89340,2,0,B|152:128,1,140,0|8
128,240,90174,1,0
40,312,90590,1,8
128,240,91007,2,0,B|288:240,1,140,0|4
368,192,91840,5,4
280,120,92257,1,0
368,48,92674,1,0
448,120,93090,1,0
368,328,93924,5,0
144,328,94757,1,0
144,104,95590,1,0
368,104,96424,1,0
256,192,97257,12,4,98507
