osu file format v5

[General]
AudioFilename: Special D - You.mp3
AudioLeadIn: 3000
PreviewTime: 30706
Countdown: 0
SampleSet: Normal
StackLeniency: 0.6
Mode: 0
LetterboxInBreaks: 1
EditorBookmarks: 119137,166842
EditorDistanceSpacing: 0.600000023841858

[Metadata]
Title:You
Artist:Special D
Creator:Rokodo [RL]
Version:Aqua92 | YOU <3
Source:
Tags:Special D You trance rokodo rl

[Difficulty]
HPDrainRate:6
CircleSize:4
OverallDifficulty:6
SliderMultiplier:2.2
SliderTickRate:4

[Events]
//Background and Video events
0,0,"special-d_you.jpg"
//Break Periods
2,6638,12321
2,67464,68982
2,70382,70648
2,112046,117937
//Storyboard Layer 0 (Background)
//Storyboard Layer 1 (Fail)
//Storyboard Layer 2 (Pass)
//Storyboard Layer 3 (Foreground)
//Storyboard Sound Samples
//Background Colour Transformations
3,100,0,0,0

[TimingPoints]
174,416.63773349073,4,1,0,70,1,0
26853,1666.57407921782,4,1,0,70,1,0
30186,416.63773349073,4,1,0,70,1,0
56850,1666.57407921782,4,1,0,70,1,0
60183,416.63773349073,4,1,0,70,1,0

[Colours]
Combo1 : 167,1,14
Combo2 : 44,44,44

[HitObjects]
32,208,174,1,4
480,208,590,1,2
256,32,1007,1,4
256,352,1423,1,2
32,208,1840,5,4
256,32,2257,1,2
480,208,2673,1,4
256,352,3090,1,2
256,192,3507,5,12
192,192,3715,1,8
128,192,3923,1,8
256,192,4340,5,8
320,192,4548,1,8
384,192,4757,1,8
256,192,5173,5,8
256,128,5381,1,8
256,64,5590,1,8
256,0,5798,1,8
256,160,6215,5,0
256,192,6319,1,0
256,224,6423,1,2
192,208,13506,5,0
256,208,13714,1,0
320,208,13923,1,0
384,208,14131,2,0,B|400:160|320:96,1,110,2|0
272,112,14548,2,0,B|224:64|320:16,1,110,2|0
368,32,14964,1,2
400,32,15068,1,0
432,32,15172,1,2
432,96,15381,5,0
368,96,15589,1,2
304,96,15797,1,0
272,96,15902,1,0
240,96,16006,1,2
208,96,16110,1,0
176,96,16214,1,2
112,96,16422,5,8
112,160,16631,1,8
112,224,16839,1,0
112,256,16943,1,0
112,288,17047,1,8
176,288,17256,1,8
240,288,17464,1,0
304,288,17672,5,8
336,288,17776,1,0
368,288,17881,1,8
432,288,18089,1,0
432,224,18297,2,0,B|432:112,2,110
368,224,18922,1,0
256,192,19026,12,0,20172
96,208,20589,5,0
96,208,21005,1,0
96,208,21422,1,0
160,208,21630,1,0
224,208,21839,1,0
288,208,22047,1,0
352,208,22255,2,0,B|384:224|384:272|336:336,2,110,8|0|8
352,144,22880,1,0
352,80,23089,5,8
320,80,23193,1,8
288,80,23297,1,8
256,80,23401,1,8
224,80,23505,6,0,B|224:240,1,110,8|0
288,192,23922,2,0,B|400:192,1,110
400,256,24338,2,0,B|272:256,1,110
224,256,24755,2,0,B|224:128,1,110
224,80,25172,1,0
288,80,25380,1,0
352,80,25588,1,0
416,80,25797,1,0
368,144,26213,5,0
352,176,26318,5,0
336,208,26422,1,0
320,240,26526,1,0
304,272,26630,1,0
272,336,26853,6,0,B|320:304|144:256|416:224|192:176|480:128|176:112|160:32|271:49|368:192|464:64,1,440
256,192,30810,5,0
192,192,31019,1,0
160,192,31123,1,0
128,192,31227,1,0
64,192,31435,1,0
64,128,31644,1,0
128,128,31852,2,0,B|160:96|160:144|240:112,1,110,0|0
232,114,32269,2,0,B|272:96|288:144|352:112,1,110
352,176,32685,5,0
352,240,32894,1,0
320,240,32998,1,0
288,240,33102,1,0
224,240,33310,1,0
192,240,33414,1,0
160,240,33519,2,0,B|160:128|160:128,2,110
96,240,34144,5,0
96,304,34352,1,0
160,304,34560,1,0
192,304,34664,1,0
224,304,34769,1,0
288,304,34977,1,0
352,304,35185,1,0
384,304,35289,1,0
416,304,35393,1,0
416,240,35602,6,0,B|416:128,1,110,2|0
416,64,36018,2,0,B|304:64,1,110,2|0
240,64,36435,2,0,B|96:64,1,110,2|0
128,128,36852,1,0
128,160,36956,1,0
128,192,37060,1,0
128,224,37164,1,0
128,256,37268,1,0
192,256,37477,5,0
256,256,37685,2,0,B|304:272|304:192|368:256,1,110
416,240,38102,2,0,B|432:192|384:192|416:128,1,110
416,64,38518,1,0
384,64,38622,1,0
352,64,38727,1,0
288,64,38935,6,0,B|240:32|224:80|160:80,1,110
119,78,39352,2,0,B|71:94|71:30|7:30,2,110
112,144,39976,1,0
112,208,40185,1,0
144,208,40289,1,0
176,208,40393,1,0
208,208,40497,1,0
384,256,41018,5,0
256,256,41435,1,0
128,256,41851,1,4
256,112,42476,5,0
320,112,42685,1,0
320,176,42893,1,0
320,208,42997,1,0
320,240,43101,1,0
320,272,43205,1,0
256,272,43414,1,4
192,272,43622,1,0
128,272,43830,5,0
128,240,43935,1,0
128,208,44039,1,0
128,176,44143,1,0
128,112,44351,1,0
192,112,44560,1,0
256,112,44768,1,0
320,112,44976,2,0,B|448:112,1,110
432,176,45393,2,0,B|304:176,1,110
320,240,45809,6,0,B|432:240,1,110
432,304,46226,1,0
368,304,46434,1,0
304,304,46643,1,0
240,304,46851,1,0
208,304,46955,1,0
176,304,47059,1,0
160,240,47268,1,0
160,176,47476,5,0
224,176,47684,1,0
256,176,47788,1,0
288,176,47893,1,0
352,176,48101,1,0
416,176,48309,1,0
416,208,48413,1,0
416,240,48518,1,0
416,272,48622,1,0
384,272,48726,1,0
320,272,48934,6,0,B|192:272,1,110,2|0
144,272,49351,2,0,B|144:160,1,110,2|0
208,160,49767,2,0,B|336:160,1,110,2|0
320,224,50184,1,4
256,224,50392,1,0
192,224,50601,1,0
128,224,50809,5,0
128,192,50913,1,0
128,160,51017,1,0
128,128,51122,1,0
128,64,51330,1,0
160,64,51434,1,0
224,64,51642,2,0,B|336:64,1,110
336,128,52059,6,0,B|336:240,1,110
272,240,52476,1,0
240,240,52580,1,0
208,240,52684,1,0
176,240,52788,2,0,B|96:240,1,55
48,240,53101,5,0
48,176,53309,1,0
48,112,53517,1,0
80,112,53621,1,0
112,112,53726,1,0
176,112,53934,5,0
208,112,54038,1,0
240,112,54142,1,0
304,112,54350,5,0
368,112,54559,1,0
432,112,54767,1,0
432,176,54975,1,0
432,208,55080,1,0
432,240,55184,2,0,B|432:352,1,110
368,352,55600,5,0
304,352,55809,1,0
240,352,56017,2,0,B|240:240,1,110
240,242,56434,2,0,B|368:240,1,110
352,176,56850,6,0,B|432:128|240:64|384:-16,3,220
192,256,62682,5,0
256,256,62891,1,0
320,256,63099,1,0
320,192,63307,1,0
320,160,63411,1,0
320,128,63516,1,0
320,96,63620,1,0
256,96,63828,1,4
80,96,64557,5,0
144,96,64766,1,0
208,96,64974,1,0
272,96,65182,1,0
336,96,65390,1,0
400,96,65599,1,0
400,160,65807,2,0,B|400:272,1,110
400,270,66224,2,0,B|288:272,1,110
290,271,66640,2,0,B|288:144,3,110
256,208,70182,5,0
128,208,71848,5,0
256,208,72265,1,0
384,208,72682,1,0
384,144,72890,2,0,B|256:144,1,110
272,80,73307,2,0,B|112:80,1,110
160,144,73723,2,0,B|16:144,1,110
48,208,74140,5,0
112,208,74348,1,0
176,208,74557,1,0
240,208,74765,1,0
304,208,74973,2,0,B|448:208,3,110
416,272,75806,5,0
352,272,76015,1,0
288,272,76223,1,0
256,272,76327,1,0
224,272,76431,1,0
192,272,76536,1,0
160,272,76640,1,0
96,272,76848,1,0
96,272,77265,1,0
96,272,77473,5,0
96,208,77681,1,0
96,144,77890,1,0
96,80,78098,1,0
160,80,78306,1,0
224,80,78515,1,0
256,80,78619,1,0
288,80,78723,1,0
320,80,78827,1,0
320,176,79140,5,0
240,176,79348,1,0
176,176,79556,2,0,B|176:304,1,110
240,288,79973,1,0
304,288,80181,1,0
336,288,80285,1,0
368,288,80389,1,0
400,288,80494,1,0
400,192,80806,5,0
400,128,81014,1,0
400,96,81119,1,0
400,64,81223,1,0
336,64,81431,1,0
272,64,81639,1,0
272,96,81744,1,0
272,128,81848,1,0
208,128,82056,1,0
144,128,82264,5,0
80,128,82473,1,0
80,192,82681,1,0
80,256,82889,2,0,B|240:256,1,110
190,256,83306,2,0,B|336:256,1,110
368,256,83723,1,0
368,192,83931,2,0,B|320:176|432:128|352:80,2,110
368,256,84556,5,0
304,256,84764,1,0
272,256,84868,1,0
240,256,84972,1,0
176,256,85181,1,0
176,256,85597,1,0
112,256,85806,5,0
48,256,86014,1,0
48,224,86118,1,0
48,192,86222,1,0
48,160,86327,1,0
48,96,86535,1,0
80,96,86639,1,0
144,96,86847,1,0
208,96,87056,2,0,B|336:96,1,110
320,160,87472,5,0
320,224,87681,1,0
320,288,87889,1,0
256,288,88097,1,0
192,288,88306,2,0,B|112:192|112:192|128:192|128:192,1,110
80,160,88722,1,0
208,144,89139,5,0
240,144,89243,1,0
272,144,89347,1,0
336,144,89555,1,0
400,144,89764,1,0
464,144,89972,1,0
464,176,90076,1,0
464,208,90180,1,0
464,272,90389,1,0
400,272,90597,6,0,B|352:320|352:336|352:336|304:288,1,110
272,272,91014,2,0,B|336:208|336:208|352:224,1,110
400,272,91430,2,0,B|400:144,2,110
400,336,92055,1,0
368,336,92159,1,0
336,336,92264,1,0
272,336,92472,5,0
208,336,92680,1,0
144,336,92889,2,0,B|144:224|144:224|304:224,2,220
80,336,93930,1,0
80,272,94138,1,0
80,208,94347,1,0
80,144,94555,1,0
112,144,94659,1,0
144,144,94763,1,0
176,144,94868,1,0
208,144,94972,1,0
272,144,95180,5,0
304,144,95284,1,0
336,144,95388,1,0
400,144,95597,1,0
400,272,96013,5,0
272,272,96430,1,0
144,272,96847,1,0
16,272,97263,1,0
16,144,97680,1,0
144,144,98097,1,0
256,208,98513,6,0,B|256:80,1,110
256,98,98930,2,0,B|384:96,1,110
365,96,99346,2,0,B|368:240,1,110
367,205,99763,2,0,B|368:336,1,110
367,314,100180,2,0,B|225:314,2,110
368,240,100805,2,0,B|320:240|320:240|384:176,1,110
416,240,101221,2,0,B|464:240|464:240|416:192,1,110
400,128,101638,1,0
400,64,101846,6,0,B|256:64,1,110
224,64,102263,2,0,B|96:64,1,110
112,128,102680,2,0,B|112:240,1,110
176,240,103096,1,0
240,240,103305,1,0
304,240,103513,2,0,B|304:112,2,110
368,240,104138,6,0,B|224:240,1,110
192,240,104554,1,0
160,240,104659,1,0
128,240,104763,1,0
96,240,104867,1,0
96,144,105179,5,0
160,144,105388,1,0
224,144,105596,1,0
288,144,105804,1,0
352,144,106013,2,0,B|352:272,1,110
288,256,106429,1,0
224,256,106638,1,0
192,256,106742,1,0
160,256,106846,1,0
96,256,107054,6,0,B|96:144,1,110
160,144,107471,2,0,B|288:144,1,110
336,144,107888,1,0
400,144,108096,1,0
400,176,108200,1,0
400,208,108304,1,0
336,208,108512,6,0,B|224:208,1,110
160,208,108929,1,0
160,176,109033,1,0
160,144,109137,1,0
160,80,109346,1,0
192,80,109450,1,0
224,80,109554,1,0
288,80,109762,1,0
320,80,109867,1,0
352,80,109971,1,0
384,80,110075,1,4
384,176,110387,5,0
320,176,110596,2,0,B|160:176,1,110
208,304,111221,1,0
272,304,111429,1,0
400,304,111846,5,4
256,208,119137,5,0
288,208,119241,1,0
320,208,119345,1,0
384,208,119553,1,0
384,144,119762,1,0
384,80,119970,1,0
352,80,120074,1,0
320,80,120178,1,0
256,80,120387,5,0
192,80,120595,1,0
128,80,120803,1,0
128,112,120907,1,0
128,144,121012,1,0
128,208,121220,1,0
128,272,121428,1,0
160,272,121532,1,0
192,272,121637,1,0
256,272,121845,1,0
288,272,121949,1,0
320,272,122053,1,0
384,272,122262,5,0
448,272,122470,1,0
448,208,122678,1,0
448,144,122886,1,0
384,144,123095,1,0
320,144,123303,1,0
256,144,123511,1,0
224,144,123616,1,0
192,144,123720,1,0
128,144,123928,1,0
128,208,124136,5,0
128,240,124241,1,0
128,272,124345,1,0
192,272,124553,1,0
224,272,124657,1,0
256,272,124761,1,0
320,272,124970,2,0,B|432:272,3,110
432,208,125803,5,0
432,144,126011,1,0
368,144,126220,1,0
336,144,126324,1,0
304,144,126428,1,0
240,144,126636,2,0,B|128:144,1,110
128,208,127053,6,0,B|128:336,1,110
192,320,127469,1,0
256,320,127678,1,0
320,320,127886,1,0
384,320,128094,1,0
384,288,128199,1,0
384,256,128303,1,0
384,192,128511,1,0
352,192,128615,1,0
320,192,128719,1,0
256,192,128928,1,0
256,160,129032,1,0
256,128,129136,1,0
256,64,129344,5,0
224,64,129449,1,0
192,64,129553,1,0
128,64,129761,5,0
128,128,129969,1,0
128,192,130178,1,4
192,192,130386,5,0
256,192,130594,1,0
288,192,130698,1,0
320,192,130803,1,0
384,192,131011,1,0
448,192,131219,1,0
448,256,131428,1,0
448,320,131636,1,0
416,320,131740,1,0
384,320,131844,1,0
320,320,132053,5,0
256,320,132261,1,0
192,320,132469,1,0
128,320,132677,2,0,B|128:192,1,110
192,208,133094,1,0
256,208,133302,2,0,B|256:336,1,110
320,320,133719,2,0,B|320:192,1,110
384,208,134136,1,0
448,208,134344,5,0
448,176,134448,1,0
448,144,134552,1,0
448,80,134761,1,0
384,80,134969,1,0
320,80,135177,1,0
288,80,135281,1,0
256,80,135386,1,0
192,80,135594,5,0
128,80,135802,1,0
64,80,136011,1,0
64,112,136115,1,0
64,144,136219,1,0
64,208,136427,1,0
128,208,136636,1,0
160,208,136740,1,0
192,208,136844,1,0
192,272,137052,5,0
224,272,137156,1,0
256,272,137260,1,0
256,208,137469,5,0
288,208,137573,1,0
320,208,137677,1,0
384,208,137885,2,0,B|432:192|432:160|368:96,1,110
320,128,138302,2,0,B|384:128|384:128|384:48,1,110
112,64,139344,5,2
368,64,140177,1,2
384,320,141010,1,2
112,320,141843,1,2
112,192,142260,1,0
112,59,142677,1,2
240,64,143093,1,0
368,64,143510,1,2
368,128,143718,1,0
368,192,143927,1,2
368,256,144135,1,0
368,320,144343,1,2
304,320,144552,1,0
240,320,144760,1,2
270,261,144968,5,0
248,235,145072,1,0
224,211,145177,1,0
209,181,145281,1,0
201,148,145385,1,0
211,115,145489,1,0
229,87,145593,1,0
260,78,145697,1,0
286,97,145802,1,0
309,120,145906,5,0
330,95,146010,1,0
362,79,146114,1,0
394,84,146218,1,0
407,114,146322,1,0
414,145,146427,1,0
400,174,146531,1,0
381,200,146635,1,0
352,235,146739,1,0
329,258,146843,1,0
