osu file format v5

[General]
AudioFilename: SpecialAOpening2.mp3
AudioLeadIn: 3000
PreviewTime: -1
Countdown: 1
SampleSet: Soft
StackLeniency: 0.7
Mode: 0
LetterboxInBreaks: 1

[Metadata]
Title:Gorgeous 4U (TV size)
Artist:Special A Cast
Creator:supergarlic
Version:Rank 2
Source:
Tags:

[Difficulty]
HPDrainRate:5
CircleSize:5
OverallDifficulty:5
SliderMultiplier:1.4
SliderTickRate:2

[Events]
//Background and Video events
1,0,"SpecialAOpening2.avi"
//Break Periods
2,17652,18585
2,28781,29286
//Storyboard Layer 0 (Background)
//Storyboard Layer 1 (Failing)
//Storyboard Layer 2 (Passing)
//Storyboard Layer 3 (Foreground)
//Storyboard Sound Samples
//Background Colour Transformations
3,100,163,162,255

[TimingPoints]
786,333.333333333333,4,2,0,100,1

[Colours]
Combo1 : 168,0,168
Combo2 : 255,128,0
Combo3 : 250,2,0
Combo4 : 253,248,0
Combo5 : 15,190,0

[HitObjects]
96,96,786,1,0
256,96,1452,1,0
256,96,1619,1,0
352,96,1952,1,0
288,288,2785,1,0
288,192,3119,1,0
192,192,3452,1,0
96,192,3785,1,0
96,192,3952,1,0
64,96,4285,1,0
160,96,4619,1,0
328,97,5452,6,0,C|232:97,1,70
258,97,5785,1,0
160,96,6119,1,0
160,192,6452,1,0
160,192,6619,1,0
256,192,6952,1,0
352,192,7285,1,0
288,32,8119,6,0,C|288:128,1,70
288,128,8452,1,0
256,224,8785,1,0
160,224,9119,1,0
64,192,9452,1,0
160,96,9952,2,0,C|296:52|448:160,1,326.666666666667
320,256,11285,5,0
320,256,11452,1,0
224,256,11785,1,0
128,256,12119,1,0
128,128,12785,1,0
224,128,13119,1,0
320,128,13452,1,0
320,128,13619,1,0
320,32,13952,1,0
256,192,14285,12,0,17452
160,128,19785,5,0
192,128,19952,1,0
224,128,20119,1,0
384,128,20785,1,0
384,224,21119,1,0
384,224,21285,1,0
288,224,21619,1,0
288,128,21952,2,0,C|96:128,1,186.666666666667
128,224,22952,6,0,C|128:320,2,70
352,96,25119,6,0,C|352:192,1,70
352,192,25452,1,0
160,224,26119,1,0
185,128,26452,1,0
228,128,26619,1,0
256,224,26952,1,0
256,224,27285,2,0,C|255:113|160:91|160:224,1,350
256,256,28452,2,0,C|257:354,1,70
192,96,30452,5,0
224,96,30619,1,0
192,96,30786,1,0
192,192,31452,1,0
288,192,31785,1,0
381,240,32118,1,0
288,288,32452,1,0
224,288,32619,2,0,C|224:192|320:192|320:96,1,280
224,96,33619,2,0,C|128:82,2,70
320,96,35786,5,0
320,96,36119,1,0
320,224,36786,1,0
224,224,37119,1,0
224,224,37286,1,0
128,224,38119,5,0
128,128,38452,1,0
128,32,38785,1,0
224,128,39285,1,0
256,192,39952,12,0,42285
160,128,42785,6,0,C|160:224,1,70
160,288,43285,1,0
288,288,44119,2,0,C|288:192,1,70
288,128,44619,1,0
128,128,45452,5,0
128,128,45619,1,0
128,224,45952,1,0
352,224,46785,1,0
352,224,46952,1,0
352,128,47285,1,0
128,160,48119,5,0
128,160,48285,1,0
128,256,48619,2,0,C|288:256|288:192,1,210
288,128,49452,5,0
288,128,49619,1,0
288,224,49952,2,0,C|288:277|115:280,1,210
160,192,50785,1,0
160,96,51119,1,0
256,96,51452,2,0,C|380:199|224:288,1,280
158,243,52785,5,0
128,224,52952,1,0
224,192,53285,1,0
256,96,53619,2,0,B|127:134|121:279|160:288|203:403|354:403|413:326|417:137|298:104|298:104,1,630
128,64,56785,5,0
288,64,57452,1,0
288,64,57619,1,0
288,160,57952,1,0
160,256,58785,5,0
256,256,59119,1,0
256,160,59452,1,0
160,160,59785,1,0
128,160,59952,1,0
128,256,60285,1,0
224,256,60619,2,0,C|320:192|224:128,1,233.333333333333
160,64,61452,6,0,C|96:128,2,70
256,96,62119,1,0
319,182,62452,1,0
319,246,62619,1,0
224,224,62952,1,0
160,128,63285,1,0
320,64,64119,5,0
320,64,64285,1,0
320,64,64452,1,0
320,160,64785,1,0
320,256,65119,1,0
320,320,65285,1,0
224,320,65619,6,0,C|224:160,5,140
256,192,67452,1,0
384,192,68119,1,0
384,128,68285,1,0
288,128,68619,1,0
128,128,69452,5,0
192,192,69785,1,0
256,128,70119,2,0,C|256:224,2,70
320,128,70619,1,0
320,224,70952,1,0
320,320,71285,1,0
256,224,72119,6,0,C|160:224,2,70
448,128,73119,2,0,C|256:128,1,140
224,128,73785,1,0
256,224,74119,1,0
160,224,74452,1,0
160,224,74619,1,0
160,96,75452,5,0
64,96,75785,1,0
64,192,76118,1,0
64,288,76452,1,0
128,288,76619,2,0,C|192:224|160:224|192:256|256:192|256:224|256:288,1,350
256,192,77785,12,0,80619
