osu file format v14

[General]
AudioFilename: 09 - Apparition.mp3
AudioLeadIn: 0
PreviewTime: 359126
Countdown: 1
SampleSet: None
StackLeniency: 0.7
Mode: 1
LetterboxInBreaks: 1
WidescreenStoryboard: 0

[Editor]
DistanceSpacing: 0.5
BeatDivisor: 4
GridSize: 4
TimelineZoom: 4.599997

[Metadata]
Title:Apparition
TitleUnicode:Apparition
Artist:Spawn Of Possession
ArtistUnicode:Spawn Of Possession
Creator:TimmyAkmed
Version:Supreme Oni
Source:
Tags:marathon progressive incurso technical death metal stream
BeatmapID:893060
BeatmapSetID:411597

[Difficulty]
HPDrainRate:5
CircleSize:5
OverallDifficulty:5
ApproachRate:5
SliderMultiplier:1.4
SliderTickRate:1

[Events]
//Background and Video events
0,0,"ApparitionBG.jpg",0,0
//Break Periods
//Storyboard Layer 0 (Background)
//Storyboard Layer 1 (Fail)
//Storyboard Layer 2 (Pass)
//Storyboard Layer 3 (Foreground)
//Storyboard Sound Samples

[TimingPoints]
569,750,4,1,0,100,1,0
54569,250,4,1,0,80,1,0
70569,-111.111111111111,4,1,0,80,0,1
78569,-100,4,1,0,80,0,1
102569,-100,4,1,0,80,0,0
126569,-100,4,1,0,80,0,1
138819,-100,4,1,0,80,0,0
158569,257.8,4,1,0,80,1,0
158569,-111.111111111111,4,1,0,100,0,0
159084,249.8,4,1,0,30,1,0
159084,-117.647058823529,4,1,0,100,0,0
159583,249.8,4,1,0,20,1,0
159583,-125,4,1,0,100,0,0
160082,-125,4,1,0,100,0,0
161081,240.4,4,1,0,10,1,0
161081,-125,4,1,0,100,0,0
161561,-111.111111111111,4,1,0,100,0,0
162523,257.510729613734,4,1,0,10,1,0
164068,259,4,1,0,30,1,0
164586,250,4,1,0,30,1,0
165586,242,4,1,0,30,1,0
166554,263,4,1,0,30,1,0
166817,255,4,1,0,20,1,0
167583,265.8,4,1,0,20,1,0
167848,262.4,4,1,0,10,1,0
168504,250,4,1,0,30,1,0
168816,265.1,4,1,0,30,1,0
169081,250,4,1,0,30,1,0
169331,265.2,4,1,0,10,1,0
169596,250,4,1,0,30,1,0
169846,232,4,1,0,10,1,0
170078,250,4,1,0,30,1,0
170328,250,4,1,0,10,1,0
173328,234,4,1,0,30,1,0
173562,250,4,1,0,30,1,0
175312,244.7,4,1,0,10,1,0
176046,238.4,4,1,0,30,1,0
176999,250,4,1,0,30,1,0
177311,239.5,4,1,0,10,1,0
178030,250,4,1,0,30,1,0
178092,242.1,4,1,0,30,1,0
178576,246.8,4,1,0,30,1,0
179069,375,4,1,0,60,1,0
179069,-90.9090909090909,4,1,0,60,0,0
203069,495.867768595041,4,1,0,60,1,0
203069,-90.9090909090909,4,1,0,60,0,0
203440,500,3,2,0,70,1,0
203440,-90.9090909090909,4,1,0,70,0,0
215440,-100,4,1,0,70,0,0
227446,500,5,1,0,70,1,0
227446,-90.9090909090909,4,1,0,70,0,0
231446,-33.3333333333333,4,1,0,70,0,0
231946,-66.6666666666667,4,1,0,70,0,0
232696,-90.9090909090909,4,1,0,70,0,0
236446,-33.3333333333333,4,1,0,70,0,0
236946,-66.6666666666667,4,1,0,70,0,0
237446,480,4,1,0,70,1,0
238406,-50,4,1,0,70,0,0
239126,-90.9090909090909,4,1,0,70,0,0
242246,-50,4,1,0,70,0,0
242966,-90.9090909090909,4,1,0,70,0,0
245126,-100,4,1,0,70,0,0
253766,-50,4,1,0,70,0,0
254486,-100,4,1,0,70,0,0
257606,-50,4,1,0,70,0,0
258326,-100,4,1,0,70,0,0
268166,240,4,1,0,70,1,1
293606,-100,4,1,0,70,0,0
294086,-100,4,1,0,70,0,1
296486,-100,4,1,0,70,0,0
297686,-100,4,1,0,70,0,1
300086,-100,4,1,0,70,0,0
301766,-100,4,1,0,70,0,1
303686,-100,4,1,0,70,0,0
305366,-100,4,1,0,70,0,1
309206,240,4,1,0,50,1,0
309206,-125,4,1,0,50,0,0
343766,-111.111111111111,4,1,0,50,0,0
359126,222.222222222222,4,1,0,80,1,1
382237,428.571428571429,4,1,0,40,1,0
382237,-55.5555555555556,4,1,0,40,0,0
382665,-100,4,1,0,40,0,0
397879,-66.6666666666667,4,1,0,40,0,0
399379,300,4,1,0,40,1,0
399454,428.571428571429,4,1,0,40,1,0
399454,-66.6666666666667,4,1,0,40,0,0
400204,461.538461538462,4,1,0,40,1,0
400204,-66.6666666666667,4,1,0,40,0,0
400665,428.571428571429,4,1,0,60,1,0
428522,250,4,1,0,60,1,1
452522,-100,4,1,0,60,0,0
468522,-111.111111111111,4,1,0,60,0,0
468772,-142.857142857143,4,1,0,60,0,0
476522,-117.647058823529,4,1,0,60,0,0
484522,-100,4,1,0,60,0,0
492522,-71.4285714285714,4,1,0,60,0,0

[HitObjects]
256,192,53069,12,0,54381,0:0:0:0:
352,316,54569,5,0,0:0:0:0:
352,312,54694,1,0,0:0:0:0:
352,308,54819,1,2,0:0:0:0:
344,280,54881,1,0,0:0:0:0:
344,280,54944,1,0,0:0:0:0:
344,280,55006,1,0,0:0:0:0:
344,280,55069,1,2,0:0:0:0:
284,240,55194,1,0,0:0:0:0:
296,228,55256,1,0,0:0:0:0:
288,240,55319,1,2,0:0:0:0:
288,240,55444,1,0,0:0:0:0:
296,228,55569,1,6,0:0:0:0:
240,232,55694,1,0,0:0:0:0:
240,232,55756,1,0,0:0:0:0:
240,224,55819,1,2,0:0:0:0:
240,224,55881,1,0,0:0:0:0:
240,224,55944,1,0,0:0:0:0:
352,304,56069,1,2,0:0:0:0:
352,304,56131,1,0,0:0:0:0:
352,304,56194,1,0,0:0:0:0:
352,304,56256,1,0,0:0:0:0:
352,304,56319,1,2,0:0:0:0:
324,296,56444,1,0,0:0:0:0:
360,360,56569,1,6,0:0:0:0:
284,192,56694,1,0,0:0:0:0:
288,208,56756,1,0,0:0:0:0:
288,212,56819,1,0,0:0:0:0:
288,212,56881,1,0,0:0:0:0:
288,212,56944,1,2,0:0:0:0:
288,212,57069,1,2,0:0:0:0:
288,212,57194,1,0,0:0:0:0:
288,208,57256,1,0,0:0:0:0:
288,208,57319,1,2,0:0:0:0:
288,208,57381,1,2,0:0:0:0:
288,208,57444,1,0,0:0:0:0:
360,352,57569,1,6,0:0:0:0:
204,228,57694,1,0,0:0:0:0:
204,228,57756,1,0,0:0:0:0:
208,224,57819,1,2,0:0:0:0:
208,224,57881,1,2,0:0:0:0:
208,224,57944,1,0,0:0:0:0:
212,224,58069,1,2,0:0:0:0:
212,220,58131,1,0,0:0:0:0:
216,220,58194,1,0,0:0:0:0:
216,220,58256,1,0,0:0:0:0:
216,216,58319,1,2,0:0:0:0:
216,216,58444,1,0,0:0:0:0:
356,348,58569,1,6,0:0:0:0:
288,200,58694,1,0,0:0:0:0:
288,200,58756,1,0,0:0:0:0:
288,200,58819,1,2,0:0:0:0:
288,200,58881,1,0,0:0:0:0:
288,200,58944,1,0,0:0:0:0:
288,200,59006,1,0,0:0:0:0:
288,200,59069,1,2,0:0:0:0:
288,200,59131,1,0,0:0:0:0:
288,200,59194,1,0,0:0:0:0:
288,200,59256,1,0,0:0:0:0:
288,200,59319,1,2,0:0:0:0:
288,200,59444,1,0,0:0:0:0:
360,340,59569,1,6,0:0:0:0:
220,232,59694,1,0,0:0:0:0:
220,232,59756,1,0,0:0:0:0:
220,232,59819,1,2,0:0:0:0:
220,232,59944,1,0,0:0:0:0:
220,232,60006,1,0,0:0:0:0:
220,232,60069,1,2,0:0:0:0:
216,228,60131,1,0,0:0:0:0:
216,224,60194,1,2,0:0:0:0:
216,224,60256,1,2,0:0:0:0:
216,224,60319,1,0,0:0:0:0:
216,224,60444,1,0,0:0:0:0:
340,324,60569,1,6,0:0:0:0:
316,296,60694,1,0,0:0:0:0:
316,296,60756,1,0,0:0:0:0:
308,292,60819,1,0,0:0:0:0:
308,292,60881,1,0,0:0:0:0:
304,292,60944,1,2,0:0:0:0:
304,292,61069,1,2,0:0:0:0:
304,292,61131,1,2,0:0:0:0:
304,288,61194,1,0,0:0:0:0:
304,288,61256,1,0,0:0:0:0:
304,288,61319,1,2,0:0:0:0:
304,288,61444,1,0,0:0:0:0:
348,348,61569,1,6,0:0:0:0:
332,292,61694,1,0,0:0:0:0:
332,292,61756,1,0,0:0:0:0:
328,288,61819,1,2,0:0:0:0:
328,288,61944,1,0,0:0:0:0:
328,288,62006,1,0,0:0:0:0:
328,288,62069,1,2,0:0:0:0:
328,288,62194,1,0,0:0:0:0:
324,288,62256,1,0,0:0:0:0:
324,288,62319,1,2,0:0:0:0:
324,288,62444,1,0,0:0:0:0:
352,316,62569,1,6,0:0:0:0:
352,312,62694,1,0,0:0:0:0:
352,308,62819,1,2,0:0:0:0:
344,280,62881,1,0,0:0:0:0:
344,280,62944,1,0,0:0:0:0:
344,280,63006,1,0,0:0:0:0:
344,280,63069,1,2,0:0:0:0:
284,240,63194,1,0,0:0:0:0:
296,228,63256,1,0,0:0:0:0:
288,240,63319,1,2,0:0:0:0:
288,240,63444,1,0,0:0:0:0:
296,228,63569,1,6,0:0:0:0:
240,232,63694,1,0,0:0:0:0:
240,232,63756,1,0,0:0:0:0:
240,224,63819,1,2,0:0:0:0:
240,224,63881,1,0,0:0:0:0:
240,224,63944,1,0,0:0:0:0:
352,304,64069,1,2,0:0:0:0:
352,304,64131,1,2,0:0:0:0:
352,304,64194,1,0,0:0:0:0:
352,304,64256,1,0,0:0:0:0:
352,304,64319,1,2,0:0:0:0:
324,296,64444,1,0,0:0:0:0:
360,360,64569,1,6,0:0:0:0:
284,192,64694,1,0,0:0:0:0:
288,208,64756,1,0,0:0:0:0:
288,212,64819,1,0,0:0:0:0:
288,212,64881,1,0,0:0:0:0:
288,212,64944,1,2,0:0:0:0:
288,212,65069,1,2,0:0:0:0:
288,212,65194,1,0,0:0:0:0:
288,208,65256,1,0,0:0:0:0:
288,208,65319,1,2,0:0:0:0:
288,208,65381,1,2,0:0:0:0:
288,208,65444,1,0,0:0:0:0:
352,352,65569,1,6,0:0:0:0:
204,228,65694,1,0,0:0:0:0:
204,228,65756,1,0,0:0:0:0:
208,224,65819,1,2,0:0:0:0:
208,224,65881,1,2,0:0:0:0:
208,224,65944,1,0,0:0:0:0:
212,224,66069,1,2,0:0:0:0:
212,220,66131,1,0,0:0:0:0:
216,220,66194,1,0,0:0:0:0:
216,220,66256,1,0,0:0:0:0:
216,216,66319,1,2,0:0:0:0:
216,216,66444,1,0,0:0:0:0:
352,356,66569,1,6,0:0:0:0:
288,200,66694,1,0,0:0:0:0:
288,200,66756,1,0,0:0:0:0:
288,200,66819,1,2,0:0:0:0:
288,200,66881,1,0,0:0:0:0:
288,200,66944,1,0,0:0:0:0:
288,200,67006,1,0,0:0:0:0:
288,200,67069,1,2,0:0:0:0:
288,200,67131,1,0,0:0:0:0:
288,200,67194,1,0,0:0:0:0:
288,200,67256,1,0,0:0:0:0:
288,200,67319,1,2,0:0:0:0:
288,200,67444,1,0,0:0:0:0:
360,344,67569,1,6,0:0:0:0:
220,232,67694,1,0,0:0:0:0:
220,232,67756,1,0,0:0:0:0:
220,232,67819,1,2,0:0:0:0:
220,232,67944,1,0,0:0:0:0:
220,232,68006,1,0,0:0:0:0:
220,232,68069,1,2,0:0:0:0:
216,228,68131,1,0,0:0:0:0:
216,224,68194,1,2,0:0:0:0:
216,224,68256,1,2,0:0:0:0:
216,224,68319,1,0,0:0:0:0:
216,224,68444,1,0,0:0:0:0:
336,336,68569,1,6,0:0:0:0:
316,296,68694,1,0,0:0:0:0:
316,296,68756,1,0,0:0:0:0:
308,292,68819,1,0,0:0:0:0:
308,292,68881,1,0,0:0:0:0:
304,292,68944,1,2,0:0:0:0:
304,292,69069,1,2,0:0:0:0:
304,292,69131,1,2,0:0:0:0:
304,288,69194,1,0,0:0:0:0:
304,288,69256,1,0,0:0:0:0:
304,288,69319,1,2,0:0:0:0:
304,288,69444,1,0,0:0:0:0:
360,312,69569,1,6,0:0:0:0:
332,292,69694,1,0,0:0:0:0:
332,292,69756,1,0,0:0:0:0:
328,288,69819,1,2,0:0:0:0:
328,288,69944,1,0,0:0:0:0:
328,288,70006,1,0,0:0:0:0:
328,288,70069,1,2,0:0:0:0:
328,288,70194,1,0,0:0:0:0:
324,288,70256,1,0,0:0:0:0:
324,288,70319,1,2,0:0:0:0:
324,288,70444,1,0,0:0:0:0:
364,372,70569,1,6,0:0:0:0:
272,220,70819,1,0,0:0:0:0:
280,256,70944,1,0,0:0:0:0:
280,256,71069,1,2,0:0:0:0:
280,256,71194,1,0,0:0:0:0:
276,256,71319,1,2,0:0:0:0:
312,268,71444,1,0,0:0:0:0:
312,268,71569,1,2,0:0:0:0:
320,308,71819,1,2,0:0:0:0:
320,308,71881,1,2,0:0:0:0:
320,308,71944,1,2,0:0:0:0:
320,308,72069,1,2,0:0:0:0:
320,308,72194,1,2,0:0:0:0:
320,308,72319,1,2,0:0:0:0:
320,308,72444,1,0,0:0:0:0:
320,308,72569,1,2,0:0:0:0:
336,344,73069,1,2,0:0:0:0:
336,344,73194,1,2,0:0:0:0:
336,344,73319,1,0,0:0:0:0:
336,336,73444,1,0,0:0:0:0:
336,336,73569,1,2,0:0:0:0:
304,224,73819,1,2,0:0:0:0:
304,216,73881,1,2,0:0:0:0:
304,216,73944,1,2,0:0:0:0:
304,216,74006,1,2,0:0:0:0:
304,216,74069,1,2,0:0:0:0:
312,264,74319,1,2,0:0:0:0:
324,260,74569,1,4,0:0:0:0:
256,196,74819,1,2,0:0:0:0:
256,196,74881,1,2,0:0:0:0:
256,196,74944,1,2,0:0:0:0:
256,196,75006,1,2,0:0:0:0:
256,196,75069,1,2,0:0:0:0:
256,196,75194,1,2,0:0:0:0:
256,196,75319,1,2,0:0:0:0:
256,196,75444,1,0,0:0:0:0:
256,196,75569,1,2,0:0:0:0:
336,304,75819,1,2,0:0:0:0:
336,304,75944,1,2,0:0:0:0:
336,304,76069,1,0,0:0:0:0:
316,272,76319,1,2,0:0:0:0:
316,272,76381,1,2,0:0:0:0:
316,272,76444,1,2,0:0:0:0:
316,272,76506,1,2,0:0:0:0:
316,272,76569,1,2,0:0:0:0:
300,292,77069,1,2,0:0:0:0:
304,288,77194,1,2,0:0:0:0:
304,288,77319,1,2,0:0:0:0:
300,292,77444,1,0,0:0:0:0:
300,292,77569,1,2,0:0:0:0:
324,272,77819,1,2,0:0:0:0:
324,272,77881,1,2,0:0:0:0:
324,272,77944,1,2,0:0:0:0:
324,272,78006,1,2,0:0:0:0:
324,272,78069,1,2,0:0:0:0:
396,292,78319,1,2,0:0:0:0:
396,292,78569,1,4,0:0:0:0:
320,240,78694,1,0,0:0:0:0:
320,240,78756,1,0,0:0:0:0:
320,240,78819,1,2,0:0:0:0:
320,240,78881,1,0,0:0:0:0:
320,240,78944,1,2,0:0:0:0:
316,232,79006,1,2,0:0:0:0:
316,232,79069,1,2,0:0:0:0:
316,232,79131,1,2,0:0:0:0:
312,232,79194,1,0,0:0:0:0:
316,296,79256,1,0,0:0:0:0:
316,296,79319,1,2,0:0:0:0:
316,296,79381,1,2,0:0:0:0:
316,296,79444,1,2,0:0:0:0:
316,296,79506,1,2,0:0:0:0:
316,296,79569,1,0,0:0:0:0:
316,296,79631,1,0,0:0:0:0:
316,296,79694,1,2,0:0:0:0:
316,296,79756,1,0,0:0:0:0:
316,296,79819,1,2,0:0:0:0:
316,296,79881,1,2,0:0:0:0:
316,296,79944,1,0,0:0:0:0:
316,296,80006,1,0,0:0:0:0:
320,288,80069,1,2,0:0:0:0:
320,288,80131,1,2,0:0:0:0:
320,288,80194,1,0,0:0:0:0:
320,288,80256,1,0,0:0:0:0:
320,288,80319,1,2,0:0:0:0:
320,288,80381,1,2,0:0:0:0:
320,288,80444,1,2,0:0:0:0:
316,288,80506,1,2,0:0:0:0:
312,288,80569,1,0,0:0:0:0:
312,288,80631,1,0,0:0:0:0:
312,288,80694,1,0,0:0:0:0:
276,184,80756,1,0,0:0:0:0:
276,184,80819,1,2,0:0:0:0:
276,184,80881,1,2,0:0:0:0:
280,180,80944,1,0,0:0:0:0:
280,184,81006,1,0,0:0:0:0:
280,184,81069,1,2,0:0:0:0:
280,184,81131,1,2,0:0:0:0:
280,184,81194,1,2,0:0:0:0:
280,184,81256,1,2,0:0:0:0:
280,184,81319,1,0,0:0:0:0:
288,180,81381,1,0,0:0:0:0:
288,176,81444,1,2,0:0:0:0:
288,176,81506,1,0,0:0:0:0:
288,176,81569,1,2,0:0:0:0:
288,176,81631,1,2,0:0:0:0:
288,176,81694,1,0,0:0:0:0:
288,176,81756,1,0,0:0:0:0:
288,176,81819,1,2,0:0:0:0:
296,172,81881,1,2,0:0:0:0:
292,168,81944,1,2,0:0:0:0:
292,168,82006,1,2,0:0:0:0:
292,168,82069,1,0,0:0:0:0:
292,168,82131,1,0,0:0:0:0:
292,168,82194,1,0,0:0:0:0:
292,168,82256,1,0,0:0:0:0:
292,168,82319,1,2,0:0:0:0:
292,168,82381,1,0,0:0:0:0:
292,168,82444,1,2,0:0:0:0:
296,168,82506,1,2,0:0:0:0:
296,168,82569,1,0,0:0:0:0:
296,168,82631,1,0,0:0:0:0:
296,168,82694,1,0,0:0:0:0:
292,168,82756,1,0,0:0:0:0:
292,168,82819,1,2,0:0:0:0:
292,168,82881,1,2,0:0:0:0:
292,168,82944,1,2,0:0:0:0:
292,168,83006,1,2,0:0:0:0:
316,288,83069,1,0,0:0:0:0:
316,288,83131,1,0,0:0:0:0:
316,288,83194,1,2,0:0:0:0:
292,168,83256,1,0,0:0:0:0:
292,168,83319,1,2,0:0:0:0:
296,168,83381,1,2,0:0:0:0:
296,168,83444,1,0,0:0:0:0:
296,168,83506,1,0,0:0:0:0:
292,168,83569,1,2,0:0:0:0:
312,172,83631,1,2,0:0:0:0:
312,168,83694,1,2,0:0:0:0:
312,168,83756,1,2,0:0:0:0:
312,168,83819,1,0,0:0:0:0:
312,168,83881,1,0,0:0:0:0:
312,168,83944,1,0,0:0:0:0:
312,168,84006,1,0,0:0:0:0:
312,168,84069,1,2,0:0:0:0:
312,168,84131,1,2,0:0:0:0:
312,164,84194,1,2,0:0:0:0:
312,164,84256,1,2,0:0:0:0:
312,164,84319,1,0,0:0:0:0:
312,160,84381,1,0,0:0:0:0:
312,160,84444,1,0,0:0:0:0:
312,160,84506,1,0,0:0:0:0:
312,160,84569,1,2,0:0:0:0:
304,296,84631,1,2,0:0:0:0:
304,296,84694,1,2,0:0:0:0:
304,296,84756,1,2,0:0:0:0:
304,296,84819,1,2,0:0:0:0:
292,220,84881,1,2,0:0:0:0:
292,220,84944,1,2,0:0:0:0:
292,220,85006,1,2,0:0:0:0:
292,220,85069,1,0,0:0:0:0:
292,220,85131,1,0,0:0:0:0:
292,220,85194,1,2,0:0:0:0:
292,220,85256,1,0,0:0:0:0:
292,220,85319,1,2,0:0:0:0:
292,220,85381,1,2,0:0:0:0:
296,248,85444,1,2,0:0:0:0:
296,248,85506,1,2,0:0:0:0:
296,248,85569,1,0,0:0:0:0:
296,244,85631,1,0,0:0:0:0:
300,240,85694,1,2,0:0:0:0:
300,240,85756,1,2,0:0:0:0:
300,240,85819,1,0,0:0:0:0:
300,240,85881,1,0,0:0:0:0:
300,236,85944,1,2,0:0:0:0:
300,236,86006,1,2,0:0:0:0:
300,236,86069,1,0,0:0:0:0:
300,236,86131,1,0,0:0:0:0:
300,236,86194,1,2,0:0:0:0:
304,236,86256,1,0,0:0:0:0:
304,236,86319,1,2,0:0:0:0:
284,276,86381,1,2,0:0:0:0:
284,276,86444,1,0,0:0:0:0:
356,332,86569,1,6,0:0:0:0:
352,308,86694,1,0,0:0:0:0:
264,212,86756,1,0,0:0:0:0:
264,212,86819,1,0,0:0:0:0:
268,212,86881,1,0,0:0:0:0:
268,212,86944,1,0,0:0:0:0:
268,212,87006,1,0,0:0:0:0:
268,212,87069,1,0,0:0:0:0:
268,212,87131,1,0,0:0:0:0:
264,212,87194,1,0,0:0:0:0:
264,212,87256,1,0,0:0:0:0:
264,212,87319,1,2,0:0:0:0:
268,208,87381,1,0,0:0:0:0:
268,208,87444,1,2,0:0:0:0:
264,212,87506,1,2,0:0:0:0:
264,212,87569,1,0,0:0:0:0:
264,212,87631,1,0,0:0:0:0:
268,212,87694,1,0,0:0:0:0:
268,212,87756,1,0,0:0:0:0:
268,212,87819,1,2,0:0:0:0:
268,212,87881,1,2,0:0:0:0:
268,212,87944,1,0,0:0:0:0:
268,208,88006,1,0,0:0:0:0:
268,208,88069,1,2,0:0:0:0:
312,236,88131,1,2,0:0:0:0:
312,236,88194,1,2,0:0:0:0:
312,236,88256,1,2,0:0:0:0:
312,236,88319,1,0,0:0:0:0:
312,236,88381,1,0,0:0:0:0:
312,232,88444,1,0,0:0:0:0:
320,232,88506,1,0,0:0:0:0:
320,232,88569,1,2,0:0:0:0:
320,232,88631,1,2,0:0:0:0:
320,228,88694,1,2,0:0:0:0:
320,228,88756,1,2,0:0:0:0:
320,228,88819,1,0,0:0:0:0:
308,284,88881,1,0,0:0:0:0:
308,284,88944,1,2,0:0:0:0:
344,324,89006,1,0,0:0:0:0:
344,324,89069,1,2,0:0:0:0:
340,320,89131,1,2,0:0:0:0:
340,316,89194,1,0,0:0:0:0:
340,312,89256,1,0,0:0:0:0:
336,308,89319,1,2,0:0:0:0:
336,304,89381,1,2,0:0:0:0:
336,304,89444,1,0,0:0:0:0:
336,304,89506,1,0,0:0:0:0:
336,300,89569,1,2,0:0:0:0:
336,300,89631,1,0,0:0:0:0:
336,296,89694,1,2,0:0:0:0:
336,296,89756,1,2,0:0:0:0:
272,260,89819,1,0,0:0:0:0:
272,260,89881,1,0,0:0:0:0:
280,256,89944,1,2,0:0:0:0:
280,256,90006,1,0,0:0:0:0:
284,252,90069,1,2,0:0:0:0:
284,252,90131,1,2,0:0:0:0:
288,248,90194,1,0,0:0:0:0:
288,248,90256,1,0,0:0:0:0:
288,248,90319,1,2,0:0:0:0:
288,248,90381,1,2,0:0:0:0:
320,288,90444,1,0,0:0:0:0:
240,176,90506,1,0,0:0:0:0:
344,272,90569,1,2,0:0:0:0:
344,272,90631,1,2,0:0:0:0:
300,296,90694,1,2,0:0:0:0:
304,304,90756,1,2,0:0:0:0:
304,304,90819,1,2,0:0:0:0:
304,304,90881,1,2,0:0:0:0:
304,304,90944,1,2,0:0:0:0:
304,304,91006,1,2,0:0:0:0:
304,304,91069,1,2,0:0:0:0:
304,304,91131,1,2,0:0:0:0:
304,300,91194,1,2,0:0:0:0:
304,300,91256,1,2,0:0:0:0:
328,300,91319,1,0,0:0:0:0:
300,296,91381,1,0,0:0:0:0:
300,296,91444,1,2,0:0:0:0:
292,280,91506,1,2,0:0:0:0:
256,188,91569,1,0,0:0:0:0:
256,188,91631,1,0,0:0:0:0:
256,188,91694,1,2,0:0:0:0:
256,188,91756,1,0,0:0:0:0:
256,188,91819,1,2,0:0:0:0:
256,188,91881,1,2,0:0:0:0:
256,184,91944,1,0,0:0:0:0:
260,184,92006,1,0,0:0:0:0:
272,248,92069,1,2,0:0:0:0:
272,248,92131,1,2,0:0:0:0:
272,248,92194,1,2,0:0:0:0:
276,244,92256,1,2,0:0:0:0:
276,244,92319,1,2,0:0:0:0:
276,244,92381,1,2,0:0:0:0:
272,248,92444,1,2,0:0:0:0:
272,248,92506,1,2,0:0:0:0:
272,248,92569,1,0,0:0:0:0:
284,256,92631,1,0,0:0:0:0:
284,252,92694,1,0,0:0:0:0:
284,252,92756,1,0,0:0:0:0:
336,312,92819,1,0,0:0:0:0:
336,312,92881,1,0,0:0:0:0:
336,312,92944,1,0,0:0:0:0:
336,312,93006,1,0,0:0:0:0:
336,312,93069,1,0,0:0:0:0:
336,312,93131,1,0,0:0:0:0:
336,304,93194,1,0,0:0:0:0:
336,304,93256,1,0,0:0:0:0:
344,316,93319,1,2,0:0:0:0:
336,304,93381,1,0,0:0:0:0:
336,300,93444,1,2,0:0:0:0:
336,300,93506,1,2,0:0:0:0:
288,256,93569,1,0,0:0:0:0:
288,256,93631,1,0,0:0:0:0:
288,256,93694,1,2,0:0:0:0:
288,256,93756,1,2,0:0:0:0:
308,272,93819,1,0,0:0:0:0:
304,272,93881,1,0,0:0:0:0:
304,264,93944,1,0,0:0:0:0:
304,264,94006,1,0,0:0:0:0:
328,300,94069,1,2,0:0:0:0:
328,300,94131,1,0,0:0:0:0:
328,296,94194,1,2,0:0:0:0:
328,296,94256,1,2,0:0:0:0:
272,212,94319,1,0,0:0:0:0:
272,212,94381,1,2,0:0:0:0:
272,212,94444,1,0,0:0:0:0:
408,196,94569,1,6,0:0:0:0:
408,192,94694,1,0,0:0:0:0:
340,272,94756,1,0,0:0:0:0:
336,256,94819,1,2,0:0:0:0:
336,252,94881,1,0,0:0:0:0:
336,252,94944,1,2,0:0:0:0:
336,252,95006,1,2,0:0:0:0:
336,252,95069,1,2,0:0:0:0:
180,184,95131,1,2,0:0:0:0:
180,184,95194,1,2,0:0:0:0:
184,180,95256,1,2,0:0:0:0:
184,180,95319,1,0,0:0:0:0:
184,180,95381,1,0,0:0:0:0:
184,180,95444,1,0,0:0:0:0:
184,180,95506,1,0,0:0:0:0:
336,264,95569,1,2,0:0:0:0:
336,260,95631,1,2,0:0:0:0:
340,256,95694,1,0,0:0:0:0:
340,256,95756,1,0,0:0:0:0:
224,164,95819,1,2,0:0:0:0:
224,164,95881,1,2,0:0:0:0:
228,164,95944,1,0,0:0:0:0:
232,164,96006,1,0,0:0:0:0:
232,164,96069,1,2,0:0:0:0:
316,256,96131,1,0,0:0:0:0:
316,256,96194,1,2,0:0:0:0:
316,256,96256,1,2,0:0:0:0:
328,252,96319,1,0,0:0:0:0:
328,252,96381,1,0,0:0:0:0:
328,248,96444,1,0,0:0:0:0:
332,248,96506,1,0,0:0:0:0:
332,248,96569,1,2,0:0:0:0:
332,248,96631,1,2,0:0:0:0:
328,248,96694,1,2,0:0:0:0:
328,248,96756,1,2,0:0:0:0:
320,244,96819,1,2,0:0:0:0:
320,244,96881,1,2,0:0:0:0:
320,244,96944,1,2,0:0:0:0:
320,244,97006,1,2,0:0:0:0:
316,248,97069,1,0,0:0:0:0:
320,244,97131,1,2,0:0:0:0:
316,240,97194,1,0,0:0:0:0:
316,240,97256,1,0,0:0:0:0:
316,240,97319,1,2,0:0:0:0:
320,240,97381,1,2,0:0:0:0:
320,240,97444,1,2,0:0:0:0:
320,240,97506,1,2,0:0:0:0:
332,260,97569,1,0,0:0:0:0:
304,272,97631,1,0,0:0:0:0:
304,268,97694,1,2,0:0:0:0:
308,268,97756,1,2,0:0:0:0:
304,268,97819,1,0,0:0:0:0:
304,264,97881,1,0,0:0:0:0:
304,264,97944,1,0,0:0:0:0:
308,264,98006,1,0,0:0:0:0:
312,268,98069,1,2,0:0:0:0:
312,268,98131,1,2,0:0:0:0:
312,268,98194,1,2,0:0:0:0:
312,268,98256,1,2,0:0:0:0:
312,268,98319,1,0,0:0:0:0:
304,280,98381,1,0,0:0:0:0:
304,280,98444,1,2,0:0:0:0:
304,276,98506,1,2,0:0:0:0:
304,276,98569,1,0,0:0:0:0:
272,276,98631,1,0,0:0:0:0:
272,276,98694,1,0,0:0:0:0:
276,272,98756,1,0,0:0:0:0:
280,272,98819,1,0,0:0:0:0:
280,272,98881,1,0,0:0:0:0:
280,272,98944,1,0,0:0:0:0:
280,272,99006,1,0,0:0:0:0:
280,268,99069,1,0,0:0:0:0:
280,268,99131,1,0,0:0:0:0:
280,268,99194,1,0,0:0:0:0:
280,268,99256,1,0,0:0:0:0:
280,264,99319,1,2,0:0:0:0:
280,264,99381,1,2,0:0:0:0:
280,264,99444,1,2,0:0:0:0:
280,264,99506,1,2,0:0:0:0:
280,264,99569,1,0,0:0:0:0:
280,264,99631,1,0,0:0:0:0:
280,264,99694,1,2,0:0:0:0:
280,264,99756,1,0,0:0:0:0:
280,264,99819,1,2,0:0:0:0:
280,268,99881,1,2,0:0:0:0:
180,172,99944,1,2,0:0:0:0:
180,172,100006,1,2,0:0:0:0:
180,172,100069,1,0,0:0:0:0:
184,168,100131,1,2,0:0:0:0:
236,192,100194,1,0,0:0:0:0:
236,192,100256,1,0,0:0:0:0:
236,192,100319,1,2,0:0:0:0:
240,188,100381,1,0,0:0:0:0:
240,184,100444,1,2,0:0:0:0:
240,184,100506,1,2,0:0:0:0:
240,184,100569,1,0,0:0:0:0:
244,184,100631,1,0,0:0:0:0:
248,176,100694,1,0,0:0:0:0:
248,176,100756,1,0,0:0:0:0:
248,176,100819,1,2,0:0:0:0:
332,264,100881,1,2,0:0:0:0:
328,256,100944,1,0,0:0:0:0:
328,256,101006,1,0,0:0:0:0:
328,252,101069,1,2,0:0:0:0:
328,252,101131,1,2,0:0:0:0:
324,252,101194,1,0,0:0:0:0:
324,248,101256,1,2,0:0:0:0:
320,248,101319,1,0,0:0:0:0:
320,248,101381,1,0,0:0:0:0:
324,248,101444,1,2,0:0:0:0:
324,248,101506,1,2,0:0:0:0:
324,248,101569,1,0,0:0:0:0:
300,252,101631,1,0,0:0:0:0:
300,252,101694,1,0,0:0:0:0:
300,252,101756,1,0,0:0:0:0:
300,248,101819,1,2,0:0:0:0:
296,248,101881,1,0,0:0:0:0:
296,248,101944,1,2,0:0:0:0:
300,244,102006,1,0,0:0:0:0:
300,244,102069,1,2,0:0:0:0:
300,240,102131,1,0,0:0:0:0:
300,240,102194,1,2,0:0:0:0:
304,240,102256,1,0,0:0:0:0:
304,240,102319,1,2,0:0:0:0:
304,240,102381,1,0,0:0:0:0:
304,240,102444,1,2,0:0:0:0:
304,240,102506,1,0,0:0:0:0:
304,240,102569,1,2,0:0:0:0:
224,232,102694,1,0,0:0:0:0:
224,224,102819,1,2,0:0:0:0:
256,268,102944,1,0,0:0:0:0:
256,268,103006,1,0,0:0:0:0:
256,268,103069,1,2,0:0:0:0:
256,268,103131,1,0,0:0:0:0:
256,268,103194,1,0,0:0:0:0:
256,268,103319,1,2,0:0:0:0:
256,268,103444,1,0,0:0:0:0:
256,268,103569,1,2,0:0:0:0:
256,268,103631,1,0,0:0:0:0:
256,268,103694,1,0,0:0:0:0:
256,268,103819,1,2,0:0:0:0:
280,192,103944,1,0,0:0:0:0:
284,188,104006,1,0,0:0:0:0:
284,188,104069,1,0,0:0:0:0:
284,188,104194,1,0,0:0:0:0:
284,188,104256,1,0,0:0:0:0:
288,184,104319,1,2,0:0:0:0:
328,316,104444,1,0,0:0:0:0:
328,316,104569,1,2,0:0:0:0:
288,320,104631,1,0,0:0:0:0:
288,320,104694,1,0,0:0:0:0:
288,312,104756,1,0,0:0:0:0:
288,312,104819,1,2,0:0:0:0:
284,312,104944,1,0,0:0:0:0:
284,308,105069,1,2,0:0:0:0:
284,308,105194,1,0,0:0:0:0:
284,308,105319,1,0,0:0:0:0:
284,308,105444,1,0,0:0:0:0:
288,308,105506,1,0,0:0:0:0:
292,300,105569,1,2,0:0:0:0:
296,308,105631,1,0,0:0:0:0:
296,308,105694,1,0,0:0:0:0:
296,308,105819,1,2,0:0:0:0:
292,308,105944,1,0,0:0:0:0:
292,308,106006,1,0,0:0:0:0:
292,304,106069,1,2,0:0:0:0:
292,304,106131,1,0,0:0:0:0:
292,304,106194,1,2,0:0:0:0:
296,300,106319,1,2,0:0:0:0:
296,300,106444,1,0,0:0:0:0:
296,300,106569,1,2,0:0:0:0:
296,300,106631,1,2,0:0:0:0:
300,296,106694,1,0,0:0:0:0:
300,296,106756,1,0,0:0:0:0:
300,296,106819,1,2,0:0:0:0:
264,268,106944,1,0,0:0:0:0:
264,268,107006,1,0,0:0:0:0:
264,268,107069,1,2,0:0:0:0:
268,264,107131,1,2,0:0:0:0:
268,260,107194,1,0,0:0:0:0:
272,264,107319,1,2,0:0:0:0:
272,264,107381,1,2,0:0:0:0:
272,264,107444,1,0,0:0:0:0:
272,264,107506,1,0,0:0:0:0:
272,264,107569,1,2,0:0:0:0:
356,200,107694,1,0,0:0:0:0:
344,196,107819,1,2,0:0:0:0:
344,192,107944,1,0,0:0:0:0:
344,192,108069,1,2,0:0:0:0:
344,192,108194,1,0,0:0:0:0:
344,192,108319,1,2,0:0:0:0:
284,216,108444,1,0,0:0:0:0:
284,228,108569,1,2,0:0:0:0:
284,228,108631,1,0,0:0:0:0:
292,224,108694,1,0,0:0:0:0:
292,216,108756,1,0,0:0:0:0:
288,216,108819,1,2,0:0:0:0:
228,244,108944,1,0,0:0:0:0:
236,240,109069,1,2,0:0:0:0:
232,240,109194,1,0,0:0:0:0:
232,240,109256,1,0,0:0:0:0:
232,240,109319,1,2,0:0:0:0:
232,240,109381,1,0,0:0:0:0:
228,244,109444,1,0,0:0:0:0:
228,244,109569,1,2,0:0:0:0:
228,244,109631,1,2,0:0:0:0:
300,248,109694,1,0,0:0:0:0:
300,248,109756,1,0,0:0:0:0:
300,248,109819,1,2,0:0:0:0:
312,252,109944,1,0,0:0:0:0:
320,252,110069,1,2,0:0:0:0:
320,248,110131,1,0,0:0:0:0:
320,248,110194,1,0,0:0:0:0:
320,248,110256,1,0,0:0:0:0:
320,248,110319,1,2,0:0:0:0:
320,248,110381,1,2,0:0:0:0:
320,248,110444,1,0,0:0:0:0:
320,244,110506,1,0,0:0:0:0:
324,248,110569,1,2,0:0:0:0:
340,328,110694,1,0,0:0:0:0:
340,328,110756,1,0,0:0:0:0:
340,328,110819,1,2,0:0:0:0:
332,312,110944,1,0,0:0:0:0:
224,176,111006,1,0,0:0:0:0:
224,176,111069,1,2,0:0:0:0:
320,292,111194,1,0,0:0:0:0:
324,288,111256,1,0,0:0:0:0:
324,288,111319,1,0,0:0:0:0:
328,336,111444,1,0,0:0:0:0:
328,312,111506,1,0,0:0:0:0:
324,308,111569,1,2,0:0:0:0:
320,300,111631,1,0,0:0:0:0:
320,300,111694,1,0,0:0:0:0:
264,256,111819,1,2,0:0:0:0:
268,260,111944,1,0,0:0:0:0:
312,304,112069,1,2,0:0:0:0:
312,296,112131,1,0,0:0:0:0:
304,284,112194,1,2,0:0:0:0:
304,280,112256,1,2,0:0:0:0:
308,280,112319,1,0,0:0:0:0:
308,280,112381,1,2,0:0:0:0:
308,276,112444,1,0,0:0:0:0:
308,276,112506,1,0,0:0:0:0:
308,272,112569,1,2,0:0:0:0:
272,228,112694,1,0,0:0:0:0:
288,240,112819,1,2,0:0:0:0:
320,280,112944,1,0,0:0:0:0:
304,272,113069,1,2,0:0:0:0:
304,272,113131,1,0,0:0:0:0:
304,268,113194,1,0,0:0:0:0:
304,264,113256,1,0,0:0:0:0:
304,264,113319,1,2,0:0:0:0:
232,208,113381,1,0,0:0:0:0:
228,200,113444,1,0,0:0:0:0:
224,200,113506,1,0,0:0:0:0:
228,196,113569,1,2,0:0:0:0:
292,280,113694,1,0,0:0:0:0:
292,280,113819,1,2,0:0:0:0:
296,276,113944,1,0,0:0:0:0:
296,272,114069,1,2,0:0:0:0:
336,308,114131,1,0,0:0:0:0:
296,268,114194,1,0,0:0:0:0:
344,312,114319,1,0,0:0:0:0:
336,308,114381,1,0,0:0:0:0:
332,300,114444,1,0,0:0:0:0:
332,296,114506,1,0,0:0:0:0:
336,296,114569,1,2,0:0:0:0:
308,252,114631,1,2,0:0:0:0:
308,220,114694,1,2,0:0:0:0:
304,224,114756,1,2,0:0:0:0:
304,240,114819,1,0,0:0:0:0:
224,232,114944,1,0,0:0:0:0:
224,224,115069,1,2,0:0:0:0:
256,268,115194,1,0,0:0:0:0:
256,268,115256,1,0,0:0:0:0:
256,268,115319,1,2,0:0:0:0:
256,268,115381,1,0,0:0:0:0:
256,268,115444,1,0,0:0:0:0:
256,268,115569,1,6,0:0:0:0:
256,268,115694,1,0,0:0:0:0:
256,268,115819,1,2,0:0:0:0:
256,268,115881,1,0,0:0:0:0:
256,268,115944,1,0,0:0:0:0:
256,268,116069,1,2,0:0:0:0:
280,192,116194,1,0,0:0:0:0:
284,188,116256,1,0,0:0:0:0:
284,188,116319,1,0,0:0:0:0:
284,188,116444,1,0,0:0:0:0:
288,184,116569,1,2,0:0:0:0:
328,316,116694,1,0,0:0:0:0:
128,200,116756,1,0,0:0:0:0:
328,316,116819,1,2,0:0:0:0:
288,320,116881,1,0,0:0:0:0:
288,320,116944,1,0,0:0:0:0:
288,312,117069,1,2,0:0:0:0:
284,312,117194,1,0,0:0:0:0:
284,308,117319,1,2,0:0:0:0:
284,308,117444,1,0,0:0:0:0:
284,308,117569,1,0,0:0:0:0:
284,308,117694,1,0,0:0:0:0:
288,308,117756,1,0,0:0:0:0:
292,300,117819,1,2,0:0:0:0:
296,308,117881,1,0,0:0:0:0:
296,308,117944,1,0,0:0:0:0:
296,308,118069,1,2,0:0:0:0:
292,308,118194,1,0,0:0:0:0:
292,308,118256,1,0,0:0:0:0:
292,304,118319,1,2,0:0:0:0:
292,304,118381,1,0,0:0:0:0:
292,304,118444,1,2,0:0:0:0:
296,300,118569,1,2,0:0:0:0:
296,300,118694,1,0,0:0:0:0:
296,300,118819,1,2,0:0:0:0:
296,300,118881,1,2,0:0:0:0:
300,296,118944,1,0,0:0:0:0:
300,296,119006,1,0,0:0:0:0:
300,296,119069,1,2,0:0:0:0:
264,268,119194,1,0,0:0:0:0:
264,268,119256,1,0,0:0:0:0:
264,268,119319,1,2,0:0:0:0:
268,260,119444,1,0,0:0:0:0:
272,264,119569,1,2,0:0:0:0:
272,264,119631,1,2,0:0:0:0:
272,264,119694,1,0,0:0:0:0:
272,264,119756,1,0,0:0:0:0:
272,264,119819,1,2,0:0:0:0:
356,200,119944,1,0,0:0:0:0:
228,204,120006,1,0,0:0:0:0:
344,196,120069,1,2,0:0:0:0:
228,204,120131,1,0,0:0:0:0:
344,192,120194,1,2,0:0:0:0:
344,192,120319,1,2,0:0:0:0:
344,192,120444,1,0,0:0:0:0:
344,192,120569,1,2,0:0:0:0:
236,180,120631,1,2,0:0:0:0:
284,216,120694,1,0,0:0:0:0:
284,228,120819,1,2,0:0:0:0:
292,224,120944,1,0,0:0:0:0:
288,216,121069,1,2,0:0:0:0:
352,172,121131,1,0,0:0:0:0:
228,244,121194,1,0,0:0:0:0:
344,172,121256,1,2,0:0:0:0:
236,240,121319,1,0,0:0:0:0:
232,184,121381,1,0,0:0:0:0:
232,240,121444,1,2,0:0:0:0:
232,240,121506,1,0,0:0:0:0:
232,240,121569,1,2,0:0:0:0:
228,244,121694,1,0,0:0:0:0:
228,244,121819,1,2,0:0:0:0:
228,244,121881,1,2,0:0:0:0:
300,248,121944,1,0,0:0:0:0:
300,248,122006,1,0,0:0:0:0:
300,248,122069,1,2,0:0:0:0:
312,252,122194,1,0,0:0:0:0:
320,252,122319,1,2,0:0:0:0:
320,248,122444,1,0,0:0:0:0:
320,248,122569,1,2,0:0:0:0:
320,248,122631,1,2,0:0:0:0:
320,248,122694,1,2,0:0:0:0:
320,244,122756,1,2,0:0:0:0:
324,248,122819,1,2,0:0:0:0:
340,328,122944,1,0,0:0:0:0:
340,328,123069,1,2,0:0:0:0:
332,312,123194,1,0,0:0:0:0:
224,176,123319,1,2,0:0:0:0:
320,292,123444,1,0,0:0:0:0:
324,288,123506,1,0,0:0:0:0:
324,288,123569,1,0,0:0:0:0:
328,336,123694,1,0,0:0:0:0:
328,312,123756,1,0,0:0:0:0:
324,308,123819,1,2,0:0:0:0:
320,300,123881,1,0,0:0:0:0:
320,300,123944,1,0,0:0:0:0:
264,256,124069,1,2,0:0:0:0:
268,260,124194,1,0,0:0:0:0:
312,304,124319,1,2,0:0:0:0:
312,296,124381,1,0,0:0:0:0:
304,284,124444,1,2,0:0:0:0:
308,280,124569,1,0,0:0:0:0:
308,280,124631,1,2,0:0:0:0:
308,276,124694,1,0,0:0:0:0:
308,276,124756,1,0,0:0:0:0:
308,272,124819,1,2,0:0:0:0:
216,152,124881,1,2,0:0:0:0:
272,228,124944,1,0,0:0:0:0:
236,140,125006,1,2,0:0:0:0:
288,240,125069,1,0,0:0:0:0:
320,280,125194,1,0,0:0:0:0:
304,272,125319,1,2,0:0:0:0:
304,272,125381,1,0,0:0:0:0:
304,268,125444,1,0,0:0:0:0:
304,264,125506,1,0,0:0:0:0:
304,264,125569,1,2,0:0:0:0:
232,208,125631,1,0,0:0:0:0:
228,200,125694,1,0,0:0:0:0:
224,200,125756,1,0,0:0:0:0:
228,196,125819,1,2,0:0:0:0:
292,280,125944,1,0,0:0:0:0:
292,280,126069,1,2,0:0:0:0:
296,276,126194,1,0,0:0:0:0:
296,272,126319,1,2,0:0:0:0:
296,268,126444,1,0,0:0:0:0:
344,312,126569,1,0,0:0:0:0:
336,308,126631,1,0,0:0:0:0:
332,300,126694,1,0,0:0:0:0:
332,296,126756,1,0,0:0:0:0:
336,296,126819,1,2,0:0:0:0:
308,220,126944,1,2,0:0:0:0:
304,224,127069,1,0,0:0:0:0:
220,184,127194,1,0,0:0:0:0:
212,176,127319,1,2,0:0:0:0:
220,168,127381,1,2,0:0:0:0:
220,168,127444,1,0,0:0:0:0:
220,168,127506,1,0,0:0:0:0:
220,168,127569,1,2,0:0:0:0:
296,276,127694,1,0,0:0:0:0:
296,276,127819,1,2,0:0:0:0:
296,276,127944,1,0,0:0:0:0:
296,276,128069,1,0,0:0:0:0:
296,276,128131,1,0,0:0:0:0:
296,276,128194,1,2,0:0:0:0:
296,276,128319,1,0,0:0:0:0:
256,184,128444,1,0,0:0:0:0:
256,184,128506,1,0,0:0:0:0:
256,184,128569,1,2,0:0:0:0:
304,272,128694,1,2,0:0:0:0:
192,184,128819,1,0,0:0:0:0:
192,184,128881,1,0,0:0:0:0:
196,180,128944,1,0,0:0:0:0:
196,180,129006,1,0,0:0:0:0:
196,180,129069,1,2,0:0:0:0:
196,180,129194,1,0,0:0:0:0:
204,220,129256,1,0,0:0:0:0:
196,184,129319,1,0,0:0:0:0:
200,208,129444,1,0,0:0:0:0:
324,312,129569,1,2,0:0:0:0:
324,312,129631,1,2,0:0:0:0:
324,312,129694,1,2,0:0:0:0:
324,312,129756,1,2,0:0:0:0:
324,312,129819,1,0,0:0:0:0:
324,312,129881,1,0,0:0:0:0:
324,312,129944,1,2,0:0:0:0:
324,312,130006,1,0,0:0:0:0:
324,312,130069,1,2,0:0:0:0:
324,312,130131,1,2,0:0:0:0:
324,312,130194,1,2,0:0:0:0:
324,312,130256,1,2,0:0:0:0:
324,312,130319,1,0,0:0:0:0:
324,312,130381,1,0,0:0:0:0:
324,312,130444,1,2,0:0:0:0:
324,312,130506,1,0,0:0:0:0:
324,312,130569,1,2,0:0:0:0:
184,180,130694,1,0,0:0:0:0:
304,240,130819,1,2,0:0:0:0:
224,232,130944,1,0,0:0:0:0:
224,224,131069,1,2,0:0:0:0:
256,268,131194,1,0,0:0:0:0:
256,268,131256,1,0,0:0:0:0:
256,268,131319,1,2,0:0:0:0:
256,268,131381,1,0,0:0:0:0:
256,268,131444,1,0,0:0:0:0:
256,268,131569,1,2,0:0:0:0:
160,156,131631,1,2,0:0:0:0:
256,268,131694,1,0,0:0:0:0:
432,260,131756,1,0,0:0:0:0:
256,268,131819,1,2,0:0:0:0:
256,268,131944,1,0,0:0:0:0:
256,268,132069,1,2,0:0:0:0:
416,208,132131,1,2,0:0:0:0:
280,192,132194,1,0,0:0:0:0:
284,188,132319,1,0,0:0:0:0:
284,188,132444,1,0,0:0:0:0:
284,188,132506,1,0,0:0:0:0:
288,184,132569,1,2,0:0:0:0:
328,316,132694,1,0,0:0:0:0:
328,316,132819,1,2,0:0:0:0:
288,320,132881,1,0,0:0:0:0:
288,320,132944,1,0,0:0:0:0:
288,312,133006,1,0,0:0:0:0:
288,312,133069,1,2,0:0:0:0:
284,312,133194,1,0,0:0:0:0:
284,308,133319,1,2,0:0:0:0:
284,308,133444,1,0,0:0:0:0:
284,308,133569,1,0,0:0:0:0:
284,308,133694,1,0,0:0:0:0:
292,300,133819,1,2,0:0:0:0:
296,308,133944,1,0,0:0:0:0:
296,308,134069,1,2,0:0:0:0:
292,308,134194,1,0,0:0:0:0:
292,304,134319,1,2,0:0:0:0:
292,304,134444,1,0,0:0:0:0:
184,200,134506,1,0,0:0:0:0:
296,300,134569,1,2,0:0:0:0:
296,300,134694,1,0,0:0:0:0:
296,300,134819,1,2,0:0:0:0:
296,300,134881,1,2,0:0:0:0:
300,296,134944,1,0,0:0:0:0:
300,296,135006,1,0,0:0:0:0:
300,296,135069,1,2,0:0:0:0:
264,268,135194,1,0,0:0:0:0:
264,268,135256,1,0,0:0:0:0:
264,268,135319,1,2,0:0:0:0:
268,264,135381,1,2,0:0:0:0:
268,260,135444,1,0,0:0:0:0:
272,264,135569,1,2,0:0:0:0:
272,264,135631,1,2,0:0:0:0:
272,264,135694,1,0,0:0:0:0:
272,264,135756,1,0,0:0:0:0:
272,264,135819,1,2,0:0:0:0:
356,200,135944,1,0,0:0:0:0:
344,196,136069,1,2,0:0:0:0:
344,192,136194,1,0,0:0:0:0:
344,192,136319,1,2,0:0:0:0:
344,192,136444,1,0,0:0:0:0:
344,192,136569,1,2,0:0:0:0:
256,176,136631,1,2,0:0:0:0:
284,216,136694,1,0,0:0:0:0:
256,176,136756,1,2,0:0:0:0:
284,228,136819,1,2,0:0:0:0:
284,228,136881,1,2,0:0:0:0:
292,224,136944,1,0,0:0:0:0:
292,216,137006,1,0,0:0:0:0:
288,216,137069,1,2,0:0:0:0:
228,244,137194,1,0,0:0:0:0:
180,176,137256,1,0,0:0:0:0:
236,240,137319,1,2,0:0:0:0:
176,164,137381,1,0,0:0:0:0:
232,240,137444,1,2,0:0:0:0:
232,240,137506,1,2,0:0:0:0:
232,240,137569,1,2,0:0:0:0:
232,240,137631,1,2,0:0:0:0:
228,244,137694,1,0,0:0:0:0:
316,192,137756,1,0,0:0:0:0:
228,244,137819,1,2,0:0:0:0:
316,192,137881,1,2,0:0:0:0:
300,248,137944,1,0,0:0:0:0:
300,248,138069,1,2,0:0:0:0:
284,164,138131,1,2,0:0:0:0:
312,252,138194,1,0,0:0:0:0:
284,164,138256,1,0,0:0:0:0:
320,252,138319,1,2,0:0:0:0:
320,248,138381,1,0,0:0:0:0:
320,248,138444,1,0,0:0:0:0:
320,248,138506,1,0,0:0:0:0:
320,248,138569,1,2,0:0:0:0:
320,248,138631,1,2,0:0:0:0:
320,248,138694,1,0,0:0:0:0:
320,244,138756,1,0,0:0:0:0:
324,248,138819,1,2,0:0:0:0:
340,328,138944,1,0,0:0:0:0:
340,328,139069,1,2,0:0:0:0:
332,312,139194,1,0,0:0:0:0:
224,176,139319,1,2,0:0:0:0:
320,292,139444,1,0,0:0:0:0:
324,288,139506,1,0,0:0:0:0:
324,288,139569,1,0,0:0:0:0:
328,336,139694,1,0,0:0:0:0:
328,312,139756,1,0,0:0:0:0:
324,308,139819,1,2,0:0:0:0:
320,300,139944,1,0,0:0:0:0:
264,256,140069,1,2,0:0:0:0:
248,164,140131,1,2,0:0:0:0:
268,260,140194,1,0,0:0:0:0:
312,304,140319,1,2,0:0:0:0:
312,296,140381,1,0,0:0:0:0:
304,284,140444,1,2,0:0:0:0:
308,280,140569,1,0,0:0:0:0:
308,280,140631,1,2,0:0:0:0:
308,276,140694,1,0,0:0:0:0:
308,276,140756,1,0,0:0:0:0:
308,272,140819,1,2,0:0:0:0:
272,228,140944,1,0,0:0:0:0:
288,240,141069,1,2,0:0:0:0:
320,280,141194,1,0,0:0:0:0:
304,272,141319,1,2,0:0:0:0:
304,272,141381,1,0,0:0:0:0:
304,268,141444,1,0,0:0:0:0:
304,264,141569,1,2,0:0:0:0:
232,208,141631,1,0,0:0:0:0:
228,200,141694,1,0,0:0:0:0:
228,196,141819,1,2,0:0:0:0:
292,280,141944,1,0,0:0:0:0:
292,280,142069,1,2,0:0:0:0:
296,276,142194,1,0,0:0:0:0:
296,272,142319,1,2,0:0:0:0:
296,268,142444,1,0,0:0:0:0:
352,316,142569,1,6,0:0:0:0:
352,312,142694,1,0,0:0:0:0:
352,308,142819,1,2,0:0:0:0:
344,280,142881,1,0,0:0:0:0:
344,280,142944,1,0,0:0:0:0:
344,280,143006,1,0,0:0:0:0:
344,280,143069,1,2,0:0:0:0:
284,240,143194,1,0,0:0:0:0:
296,228,143256,1,0,0:0:0:0:
288,240,143319,1,2,0:0:0:0:
288,240,143444,1,0,0:0:0:0:
296,228,143569,1,6,0:0:0:0:
240,232,143694,1,0,0:0:0:0:
240,232,143756,1,0,0:0:0:0:
240,224,143819,1,2,0:0:0:0:
240,224,143881,1,0,0:0:0:0:
240,224,143944,1,0,0:0:0:0:
352,304,144069,1,2,0:0:0:0:
352,304,144131,1,0,0:0:0:0:
352,304,144194,1,0,0:0:0:0:
352,304,144319,1,6,0:0:0:0:
324,296,144444,1,0,0:0:0:0:
360,360,144569,1,6,0:0:0:0:
284,192,144694,1,0,0:0:0:0:
288,208,144756,1,0,0:0:0:0:
288,212,144819,1,0,0:0:0:0:
288,212,144881,1,0,0:0:0:0:
288,212,144944,1,2,0:0:0:0:
288,212,145069,1,2,0:0:0:0:
288,212,145194,1,0,0:0:0:0:
288,208,145256,1,0,0:0:0:0:
288,208,145319,1,2,0:0:0:0:
288,208,145381,1,2,0:0:0:0:
288,208,145444,1,0,0:0:0:0:
360,352,145569,1,6,0:0:0:0:
204,228,145694,1,0,0:0:0:0:
204,228,145756,1,0,0:0:0:0:
208,224,145819,1,2,0:0:0:0:
208,224,145881,1,2,0:0:0:0:
208,224,145944,1,0,0:0:0:0:
212,224,146069,1,2,0:0:0:0:
212,220,146131,1,0,0:0:0:0:
216,220,146194,1,0,0:0:0:0:
216,216,146319,1,0,0:0:0:0:
144,184,146381,1,0,0:0:0:0:
216,216,146444,1,0,0:0:0:0:
356,348,146569,1,6,0:0:0:0:
288,200,146694,1,0,0:0:0:0:
288,200,146756,1,0,0:0:0:0:
288,200,146819,1,2,0:0:0:0:
288,200,146881,1,0,0:0:0:0:
288,200,146944,1,0,0:0:0:0:
288,200,147006,1,0,0:0:0:0:
288,200,147069,1,2,0:0:0:0:
288,200,147131,1,0,0:0:0:0:
288,200,147194,1,0,0:0:0:0:
288,200,147256,1,0,0:0:0:0:
288,200,147319,1,2,0:0:0:0:
288,200,147444,1,0,0:0:0:0:
360,340,147569,1,6,0:0:0:0:
220,232,147694,1,0,0:0:0:0:
220,232,147756,1,0,0:0:0:0:
220,232,147819,1,2,0:0:0:0:
220,232,147944,1,0,0:0:0:0:
220,232,148006,1,0,0:0:0:0:
220,232,148069,1,2,0:0:0:0:
216,228,148131,1,0,0:0:0:0:
216,224,148194,1,2,0:0:0:0:
216,224,148256,1,2,0:0:0:0:
216,224,148319,1,0,0:0:0:0:
216,224,148444,1,0,0:0:0:0:
340,324,148569,1,6,0:0:0:0:
316,296,148694,1,0,0:0:0:0:
316,296,148756,1,0,0:0:0:0:
308,292,148819,1,0,0:0:0:0:
308,292,148881,1,0,0:0:0:0:
304,292,148944,1,2,0:0:0:0:
304,292,149069,1,2,0:0:0:0:
304,292,149131,1,2,0:0:0:0:
304,288,149194,1,0,0:0:0:0:
304,288,149256,1,0,0:0:0:0:
304,288,149319,1,2,0:0:0:0:
304,288,149444,1,0,0:0:0:0:
348,348,149569,1,6,0:0:0:0:
332,292,149694,1,0,0:0:0:0:
332,292,149756,1,0,0:0:0:0:
328,288,149819,1,2,0:0:0:0:
328,288,149944,1,0,0:0:0:0:
328,288,150006,1,0,0:0:0:0:
328,288,150069,1,2,0:0:0:0:
328,288,150194,1,0,0:0:0:0:
324,288,150256,1,0,0:0:0:0:
324,288,150319,1,2,0:0:0:0:
324,288,150444,1,0,0:0:0:0:
352,316,150569,1,6,0:0:0:0:
352,312,150694,1,0,0:0:0:0:
352,308,150819,1,2,0:0:0:0:
344,280,150881,1,0,0:0:0:0:
344,280,150944,1,0,0:0:0:0:
344,280,151006,1,0,0:0:0:0:
344,280,151069,1,2,0:0:0:0:
284,240,151194,1,0,0:0:0:0:
296,228,151256,1,0,0:0:0:0:
288,240,151319,1,2,0:0:0:0:
288,240,151444,1,0,0:0:0:0:
296,228,151569,1,6,0:0:0:0:
240,232,151694,1,0,0:0:0:0:
240,232,151756,1,0,0:0:0:0:
240,224,151819,1,2,0:0:0:0:
240,224,151881,1,0,0:0:0:0:
240,224,151944,1,0,0:0:0:0:
352,304,152069,1,2,0:0:0:0:
352,304,152131,1,2,0:0:0:0:
352,304,152194,1,0,0:0:0:0:
352,304,152319,1,6,0:0:0:0:
324,296,152444,1,0,0:0:0:0:
360,360,152569,1,6,0:0:0:0:
284,192,152694,1,0,0:0:0:0:
288,208,152756,1,0,0:0:0:0:
288,212,152819,1,0,0:0:0:0:
288,212,152881,1,0,0:0:0:0:
288,212,152944,1,2,0:0:0:0:
288,212,153069,1,2,0:0:0:0:
288,212,153194,1,0,0:0:0:0:
288,208,153256,1,0,0:0:0:0:
288,208,153319,1,2,0:0:0:0:
288,208,153381,1,2,0:0:0:0:
288,208,153444,1,0,0:0:0:0:
352,352,153569,1,6,0:0:0:0:
204,228,153694,1,0,0:0:0:0:
204,228,153756,1,0,0:0:0:0:
208,224,153819,1,2,0:0:0:0:
208,224,153881,1,2,0:0:0:0:
208,224,153944,1,0,0:0:0:0:
212,224,154069,1,2,0:0:0:0:
212,220,154131,1,0,0:0:0:0:
216,220,154194,1,0,0:0:0:0:
216,220,154256,1,0,0:0:0:0:
216,216,154319,1,2,0:0:0:0:
216,216,154444,1,0,0:0:0:0:
352,356,154569,1,6,0:0:0:0:
288,200,154694,1,0,0:0:0:0:
288,200,154756,1,0,0:0:0:0:
288,200,154819,1,2,0:0:0:0:
288,200,154881,1,0,0:0:0:0:
288,200,154944,1,0,0:0:0:0:
288,200,155006,1,0,0:0:0:0:
288,200,155069,1,2,0:0:0:0:
288,200,155131,1,0,0:0:0:0:
288,200,155194,1,0,0:0:0:0:
288,200,155256,1,0,0:0:0:0:
288,200,155319,1,2,0:0:0:0:
288,200,155444,1,0,0:0:0:0:
360,344,155569,1,6,0:0:0:0:
220,232,155694,1,0,0:0:0:0:
220,232,155756,1,0,0:0:0:0:
220,232,155819,1,2,0:0:0:0:
220,232,155944,1,0,0:0:0:0:
220,232,156006,1,0,0:0:0:0:
220,232,156069,1,2,0:0:0:0:
216,228,156131,1,0,0:0:0:0:
216,224,156194,1,2,0:0:0:0:
216,224,156256,1,2,0:0:0:0:
216,224,156319,1,0,0:0:0:0:
216,224,156444,1,0,0:0:0:0:
336,336,156569,1,6,0:0:0:0:
316,296,156694,1,0,0:0:0:0:
316,296,156756,1,0,0:0:0:0:
308,292,156819,1,0,0:0:0:0:
308,292,156881,1,0,0:0:0:0:
304,292,156944,1,2,0:0:0:0:
304,292,157069,1,2,0:0:0:0:
304,292,157131,1,2,0:0:0:0:
304,288,157194,1,0,0:0:0:0:
304,288,157256,1,0,0:0:0:0:
304,288,157319,1,2,0:0:0:0:
304,288,157444,1,0,0:0:0:0:
360,312,157569,1,6,0:0:0:0:
332,292,157694,1,0,0:0:0:0:
332,292,157756,1,0,0:0:0:0:
328,288,157819,1,2,0:0:0:0:
328,288,157944,1,0,0:0:0:0:
328,288,158006,1,0,0:0:0:0:
328,288,158069,1,2,0:0:0:0:
328,288,158194,1,0,0:0:0:0:
324,288,158256,1,0,0:0:0:0:
324,288,158319,1,2,0:0:0:0:
324,288,158444,1,0,0:0:0:0:
364,372,158569,1,6,0:0:0:0:
304,244,159084,1,0,0:0:0:0:
352,236,159583,1,2,0:0:0:0:
328,292,160082,1,0,0:0:0:0:
328,292,160582,1,2,0:0:0:0:
344,336,161081,1,0,0:0:0:0:
356,360,161561,1,6,0:0:0:0:
300,220,164068,1,0,0:0:0:0:
336,312,164586,1,0,0:0:0:0:
336,312,164836,1,0,0:0:0:0:
336,312,165086,1,2,0:0:0:0:
368,276,165523,1,2,0:0:0:0:
356,336,165586,1,0,0:0:0:0:
352,364,166070,1,0,0:0:0:0:
356,360,166312,1,0,0:0:0:0:
356,356,166554,1,2,0:0:0:0:
340,328,168504,1,2,0:0:0:0:
340,328,168816,1,2,0:0:0:0:
340,328,169081,1,0,0:0:0:0:
292,208,169596,1,2,0:0:0:0:
340,336,170078,1,6,0:0:0:0:
320,216,172578,1,0,0:0:0:0:
336,276,173078,1,2,0:0:0:0:
244,200,173328,1,2,0:0:0:0:
248,208,173562,1,0,0:0:0:0:
328,312,174062,1,0,0:0:0:0:
340,328,174562,1,2,0:0:0:0:
304,224,175062,1,0,0:0:0:0:
284,240,175984,1,0,0:0:0:0:
344,324,176046,1,2,0:0:0:0:
324,332,176940,1,2,0:0:0:0:
324,332,176999,1,0,0:0:0:0:
368,288,178030,1,0,0:0:0:0:
360,280,178092,1,2,0:0:0:0:
328,192,179069,1,6,0:0:0:0:
232,228,179819,1,0,0:0:0:0:
260,236,180006,1,0,0:0:0:0:
368,240,180100,1,0,0:0:0:0:
260,236,180194,1,2,0:0:0:0:
260,236,180381,1,0,0:0:0:0:
256,244,180569,1,6,0:0:0:0:
296,192,180944,1,2,0:0:0:0:
304,200,181131,1,2,0:0:0:0:
308,196,181225,1,2,0:0:0:0:
312,196,181319,1,2,0:0:0:0:
304,192,181506,1,0,0:0:0:0:
312,188,181694,1,2,0:0:0:0:
328,308,181787,1,2,0:0:0:0:
316,188,181881,1,0,0:0:0:0:
316,188,182069,1,6,0:0:0:0:
332,336,182631,1,0,0:0:0:0:
332,336,182819,1,2,0:0:0:0:
332,324,182912,1,0,0:0:0:0:
332,324,183006,1,2,0:0:0:0:
340,320,183194,1,2,0:0:0:0:
232,192,183287,1,2,0:0:0:0:
340,320,183381,1,2,0:0:0:0:
340,320,183569,1,6,0:0:0:0:
244,216,183944,1,0,0:0:0:0:
244,216,184037,1,2,0:0:0:0:
244,216,184131,1,2,0:0:0:0:
244,216,184225,1,2,0:0:0:0:
244,216,184319,1,0,0:0:0:0:
272,264,184412,1,2,0:0:0:0:
272,264,184506,1,2,0:0:0:0:
272,264,184600,1,2,0:0:0:0:
272,264,184694,1,0,0:0:0:0:
272,264,184787,1,2,0:0:0:0:
272,264,184881,1,2,0:0:0:0:
272,256,184975,1,2,0:0:0:0:
272,256,185069,1,4,0:0:0:0:
364,296,185444,1,0,0:0:0:0:
364,296,185631,1,2,0:0:0:0:
364,288,185819,1,0,0:0:0:0:
364,288,186006,1,2,0:0:0:0:
364,288,186194,1,0,0:0:0:0:
360,284,186287,1,0,0:0:0:0:
360,284,186381,1,0,0:0:0:0:
368,272,186569,1,6,0:0:0:0:
216,236,186756,1,0,0:0:0:0:
216,236,186944,1,6,0:0:0:0:
272,284,187131,1,2,0:0:0:0:
272,284,187225,1,2,0:0:0:0:
272,284,187319,1,0,0:0:0:0:
272,280,187412,1,2,0:0:0:0:
276,280,187506,1,2,0:0:0:0:
276,280,187600,1,2,0:0:0:0:
276,280,187694,1,0,0:0:0:0:
300,288,187881,1,2,0:0:0:0:
300,288,187975,1,2,0:0:0:0:
300,284,188069,1,0,0:0:0:0:
300,284,188256,1,2,0:0:0:0:
300,280,188350,1,2,0:0:0:0:
300,280,188444,1,2,0:0:0:0:
300,280,188537,1,2,0:0:0:0:
300,280,188631,1,2,0:0:0:0:
300,280,188725,1,2,0:0:0:0:
304,276,188819,1,0,0:0:0:0:
284,280,188912,1,2,0:0:0:0:
284,280,189006,1,2,0:0:0:0:
284,280,189100,1,2,0:0:0:0:
284,276,189194,1,0,0:0:0:0:
332,324,189381,1,0,0:0:0:0:
332,324,189569,1,6,0:0:0:0:
332,324,189756,1,0,0:0:0:0:
332,324,189944,1,6,0:0:0:0:
328,320,190319,1,2,0:0:0:0:
320,312,190412,1,0,0:0:0:0:
320,312,190506,1,2,0:0:0:0:
316,312,190600,1,2,0:0:0:0:
304,304,190694,1,0,0:0:0:0:
324,296,190881,1,0,0:0:0:0:
324,296,191069,1,6,0:0:0:0:
324,296,191819,1,2,0:0:0:0:
324,296,192006,1,0,0:0:0:0:
332,296,192100,1,2,0:0:0:0:
328,288,192194,1,2,0:0:0:0:
328,288,192381,1,2,0:0:0:0:
328,288,192569,1,4,0:0:0:0:
360,184,192944,1,2,0:0:0:0:
364,180,193037,1,2,0:0:0:0:
360,176,193131,1,2,0:0:0:0:
364,176,193225,1,2,0:0:0:0:
364,172,193319,1,0,0:0:0:0:
344,240,193506,1,0,0:0:0:0:
288,188,193694,1,6,0:0:0:0:
328,292,194069,1,4,0:0:0:0:
288,268,194444,1,6,0:0:0:0:
176,180,194819,1,4,0:0:0:0:
336,176,195194,1,2,0:0:0:0:
336,176,195287,1,2,0:0:0:0:
336,176,195381,1,2,0:0:0:0:
328,168,195569,1,0,0:0:0:0:
296,280,195756,1,2,0:0:0:0:
292,272,195850,1,2,0:0:0:0:
288,264,195944,1,2,0:0:0:0:
288,264,196131,1,0,0:0:0:0:
284,260,196319,1,2,0:0:0:0:
284,260,196506,1,0,0:0:0:0:
280,248,196694,1,0,0:0:0:0:
280,248,196881,1,0,0:0:0:0:
280,248,196975,1,0,0:0:0:0:
280,248,197069,1,2,0:0:0:0:
264,204,197256,1,2,0:0:0:0:
264,204,197444,1,2,0:0:0:0:
264,204,197537,1,0,0:0:0:0:
264,204,197631,1,2,0:0:0:0:
264,204,197819,1,0,0:0:0:0:
264,200,198006,1,0,0:0:0:0:
264,200,198100,1,0,0:0:0:0:
264,192,198194,1,2,0:0:0:0:
300,252,198381,1,2,0:0:0:0:
300,252,198569,1,4,0:0:0:0:
256,172,198944,1,2,0:0:0:0:
256,172,199037,1,0,0:0:0:0:
268,172,199131,1,2,0:0:0:0:
256,172,199225,1,2,0:0:0:0:
256,172,199319,1,0,0:0:0:0:
296,272,199694,1,2,0:0:0:0:
296,272,199787,1,2,0:0:0:0:
296,264,199881,1,2,0:0:0:0:
296,260,199975,1,2,0:0:0:0:
296,260,200069,1,0,0:0:0:0:
312,280,200256,1,2,0:0:0:0:
324,268,200350,1,2,0:0:0:0:
320,264,200444,1,2,0:0:0:0:
320,264,200631,1,0,0:0:0:0:
320,260,200819,1,2,0:0:0:0:
316,256,200912,1,0,0:0:0:0:
316,256,201006,1,0,0:0:0:0:
316,256,201100,1,0,0:0:0:0:
320,252,201194,1,2,0:0:0:0:
344,316,201381,1,0,0:0:0:0:
344,316,201569,1,2,0:0:0:0:
304,288,201662,1,2,0:0:0:0:
304,288,201756,1,0,0:0:0:0:
300,280,201850,1,2,0:0:0:0:
300,276,201944,1,2,0:0:0:0:
300,272,202037,1,2,0:0:0:0:
296,272,202131,1,0,0:0:0:0:
296,268,202319,1,2,0:0:0:0:
296,268,202506,1,0,0:0:0:0:
324,184,202694,1,2,0:0:0:0:
324,184,202787,1,2,0:0:0:0:
328,176,202881,1,2,0:0:0:0:
304,292,203069,1,6,0:0:0:0:
276,184,203440,1,4,0:0:0:0:
316,268,203940,1,0,0:0:0:0:
316,268,204190,1,0,0:0:0:0:
316,268,204440,1,2,0:0:0:0:
308,180,204940,1,6,0:0:0:0:
272,184,205940,1,0,0:0:0:0:
272,184,206190,1,0,0:0:0:0:
276,192,206440,1,6,0:0:0:0:
236,172,207190,1,0,0:0:0:0:
260,160,207440,1,2,0:0:0:0:
260,160,207690,1,0,0:0:0:0:
260,160,207940,1,2,0:0:0:0:
336,320,208690,1,2,0:0:0:0:
344,308,208940,1,0,0:0:0:0:
340,304,209190,1,0,0:0:0:0:
336,308,209440,1,2,0:0:0:0:
320,280,209690,1,2,0:0:0:0:
320,280,209815,1,2,0:0:0:0:
320,280,209940,1,2,0:0:0:0:
344,224,210065,1,2,0:0:0:0:
344,224,210190,1,0,0:0:0:0:
336,292,210440,1,0,0:0:0:0:
352,168,210940,1,2,0:0:0:0:
340,272,211440,1,2,0:0:0:0:
340,272,211940,1,0,0:0:0:0:
340,272,212440,1,0,0:0:0:0:
336,308,213190,1,0,0:0:0:0:
332,304,213440,1,0,0:0:0:0:
328,296,213690,1,2,0:0:0:0:
336,276,213940,1,0,0:0:0:0:
304,292,214065,1,0,0:0:0:0:
336,276,214190,1,2,0:0:0:0:
336,276,214440,1,2,0:0:0:0:
336,276,214690,1,0,0:0:0:0:
348,296,214940,1,2,0:0:0:0:
328,316,215065,1,2,0:0:0:0:
328,316,215190,1,0,0:0:0:0:
328,308,215440,1,6,0:0:0:0:
316,276,215940,1,0,0:0:0:0:
320,268,216106,1,2,0:0:0:0:
320,268,216273,1,0,0:0:0:0:
320,268,216440,1,2,0:0:0:0:
320,264,216606,1,0,0:0:0:0:
320,264,216773,1,0,0:0:0:0:
320,264,216940,1,6,0:0:0:0:
248,208,217440,1,0,0:0:0:0:
336,304,217940,1,2,0:0:0:0:
368,220,218440,1,0,0:0:0:0:
376,208,218940,1,2,0:0:0:0:
376,208,219190,1,2,0:0:0:0:
376,208,219440,1,0,0:0:0:0:
372,200,219690,1,0,0:0:0:0:
372,200,219940,1,6,0:0:0:0:
236,160,220690,1,2,0:0:0:0:
236,160,220940,1,0,0:0:0:0:
244,164,221190,1,0,0:0:0:0:
244,164,221440,1,6,0:0:0:0:
240,152,221606,1,0,0:0:0:0:
240,152,221773,1,0,0:0:0:0:
236,152,221940,1,2,0:0:0:0:
244,152,222106,1,0,0:0:0:0:
244,148,222273,1,0,0:0:0:0:
248,148,222440,1,2,0:0:0:0:
328,264,222606,1,0,0:0:0:0:
328,264,222773,1,0,0:0:0:0:
328,264,222940,1,6,0:0:0:0:
308,168,223440,1,0,0:0:0:0:
280,136,223940,1,2,0:0:0:0:
284,136,224440,1,0,0:0:0:0:
164,156,224690,1,0,0:0:0:0:
172,152,224940,1,2,0:0:0:0:
344,268,225190,1,0,0:0:0:0:
344,268,225440,1,0,0:0:0:0:
352,260,225690,1,0,0:0:0:0:
352,256,225940,1,2,0:0:0:0:
312,292,226190,1,0,0:0:0:0:
312,292,226440,1,2,0:0:0:0:
312,292,226690,1,0,0:0:0:0:
296,284,226940,1,2,0:0:0:0:
296,284,227065,1,2,0:0:0:0:
296,276,227190,1,2,0:0:0:0:
296,276,227446,1,0,0:0:0:0:
264,164,227696,1,2,0:0:0:0:
232,176,227946,1,2,0:0:0:0:
232,176,228196,1,0,0:0:0:0:
232,172,228446,1,2,0:0:0:0:
272,240,228696,1,0,0:0:0:0:
272,240,228946,1,2,0:0:0:0:
304,252,229196,1,0,0:0:0:0:
180,184,229321,1,0,0:0:0:0:
304,252,229446,1,2,0:0:0:0:
304,244,229696,1,0,0:0:0:0:
304,240,229946,1,2,0:0:0:0:
240,136,230071,1,2,0:0:0:0:
244,136,230196,1,0,0:0:0:0:
244,132,230321,1,0,0:0:0:0:
244,132,230446,1,2,0:0:0:0:
292,228,230696,1,0,0:0:0:0:
292,228,230821,1,2,0:0:0:0:
288,196,230946,1,0,0:0:0:0:
308,240,231196,1,2,0:0:0:0:
312,240,231446,1,4,0:0:0:0:
200,212,231946,1,2,0:0:0:0:
204,200,232029,1,2,0:0:0:0:
204,200,232112,1,2,0:0:0:0:
200,200,232196,1,2,0:0:0:0:
204,200,232279,1,2,0:0:0:0:
204,196,232362,1,2,0:0:0:0:
204,196,232446,1,0,0:0:0:0:
260,172,232696,1,2,0:0:0:0:
260,172,232821,1,2,0:0:0:0:
264,168,232946,1,0,0:0:0:0:
240,160,233196,1,2,0:0:0:0:
240,160,233446,1,0,0:0:0:0:
288,184,233696,1,0,0:0:0:0:
288,184,233946,1,2,0:0:0:0:
288,184,234071,1,2,0:0:0:0:
288,184,234196,1,0,0:0:0:0:
296,296,234446,1,2,0:0:0:0:
296,296,234696,1,0,0:0:0:0:
296,296,234821,1,0,0:0:0:0:
280,228,234946,1,2,0:0:0:0:
336,308,235196,1,2,0:0:0:0:
328,304,235446,1,0,0:0:0:0:
328,300,235696,1,2,0:0:0:0:
200,284,235821,1,2,0:0:0:0:
200,284,235946,1,0,0:0:0:0:
200,284,236071,1,0,0:0:0:0:
204,284,236196,1,2,0:0:0:0:
304,312,236446,1,4,0:0:0:0:
264,168,236946,1,2,0:0:0:0:
264,168,237029,1,2,0:0:0:0:
264,168,237112,1,2,0:0:0:0:
264,168,237196,1,2,0:0:0:0:
264,168,237279,1,2,0:0:0:0:
264,168,237362,1,2,0:0:0:0:
264,168,237446,1,0,0:0:0:0:
176,176,237686,1,2,0:0:0:0:
176,176,237926,1,0,0:0:0:0:
312,248,238046,1,0,0:0:0:0:
312,248,238166,1,0,0:0:0:0:
304,232,238406,1,2,0:0:0:0:
304,232,238486,1,2,0:0:0:0:
304,232,238566,1,2,0:0:0:0:
304,232,238646,1,2,0:0:0:0:
308,228,238726,1,2,0:0:0:0:
308,228,238806,1,2,0:0:0:0:
308,228,238886,1,0,0:0:0:0:
328,248,239126,1,2,0:0:0:0:
324,244,239366,1,0,0:0:0:0:
308,288,239606,1,2,0:0:0:0:
308,288,239846,1,0,0:0:0:0:
336,260,239966,1,0,0:0:0:0:
336,260,240086,1,2,0:0:0:0:
336,260,240206,1,2,0:0:0:0:
336,260,240326,1,0,0:0:0:0:
336,320,240566,1,2,0:0:0:0:
340,304,240806,1,0,0:0:0:0:
340,300,240926,1,0,0:0:0:0:
340,296,241046,1,0,0:0:0:0:
340,296,241166,1,0,0:0:0:0:
340,296,241286,1,2,0:0:0:0:
300,272,241526,1,0,0:0:0:0:
296,264,241766,1,2,0:0:0:0:
300,264,242246,1,2,0:0:0:0:
360,384,242326,1,2,0:0:0:0:
152,152,242406,1,2,0:0:0:0:
156,148,242486,1,2,0:0:0:0:
156,148,242566,1,2,0:0:0:0:
160,148,242646,1,2,0:0:0:0:
160,144,242726,1,0,0:0:0:0:
328,276,242966,1,2,0:0:0:0:
324,272,243206,1,0,0:0:0:0:
328,264,243446,1,2,0:0:0:0:
328,256,243686,1,0,0:0:0:0:
320,292,243806,1,0,0:0:0:0:
320,296,243926,1,2,0:0:0:0:
336,300,244406,1,0,0:0:0:0:
328,304,244646,1,2,0:0:0:0:
328,304,244766,1,2,0:0:0:0:
328,304,244886,1,2,0:0:0:0:
336,300,245006,1,2,0:0:0:0:
328,288,245126,1,0,0:0:0:0:
328,304,245366,1,0,0:0:0:0:
328,304,245486,1,0,0:0:0:0:
328,304,245606,1,2,0:0:0:0:
324,308,245846,1,0,0:0:0:0:
324,300,246086,1,2,0:0:0:0:
312,308,246206,1,0,0:0:0:0:
308,304,246326,1,0,0:0:0:0:
308,300,246446,1,0,0:0:0:0:
312,296,246566,1,2,0:0:0:0:
312,296,246806,1,0,0:0:0:0:
312,292,247046,1,2,0:0:0:0:
328,276,247286,1,0,0:0:0:0:
324,268,247406,1,0,0:0:0:0:
320,260,247526,1,0,0:0:0:0:
320,256,247766,1,0,0:0:0:0:
320,252,248006,1,2,0:0:0:0:
320,248,248246,1,0,0:0:0:0:
320,244,248366,1,0,0:0:0:0:
320,244,248486,1,2,0:0:0:0:
316,296,248726,1,0,0:0:0:0:
312,288,248966,1,2,0:0:0:0:
316,308,249086,1,0,0:0:0:0:
316,308,249206,1,0,0:0:0:0:
312,304,249326,1,0,0:0:0:0:
312,304,249446,1,2,0:0:0:0:
304,288,249686,1,0,0:0:0:0:
304,280,249926,1,2,0:0:0:0:
308,268,250166,1,0,0:0:0:0:
308,268,250406,1,2,0:0:0:0:
308,264,250526,1,2,0:0:0:0:
308,264,250646,1,0,0:0:0:0:
308,260,250766,1,0,0:0:0:0:
232,160,250826,1,0,0:0:0:0:
312,260,250886,1,2,0:0:0:0:
352,248,251126,1,0,0:0:0:0:
352,248,251366,1,2,0:0:0:0:
336,308,251486,1,2,0:0:0:0:
336,308,251606,1,0,0:0:0:0:
336,308,251726,1,0,0:0:0:0:
336,304,251846,1,2,0:0:0:0:
328,316,251966,1,0,0:0:0:0:
328,316,252086,1,2,0:0:0:0:
328,304,252206,1,2,0:0:0:0:
328,304,252326,1,0,0:0:0:0:
328,304,252446,1,0,0:0:0:0:
328,304,252566,1,2,0:0:0:0:
332,300,252686,1,0,0:0:0:0:
332,300,252806,1,6,0:0:0:0:
200,192,253046,1,0,0:0:0:0:
272,196,253286,1,2,0:0:0:0:
336,260,253406,1,2,0:0:0:0:
336,260,253526,1,2,0:0:0:0:
336,260,253646,1,2,0:0:0:0:
336,260,253766,1,0,0:0:0:0:
288,196,253846,1,0,0:0:0:0:
288,196,253926,1,0,0:0:0:0:
288,188,254006,1,0,0:0:0:0:
296,180,254086,1,0,0:0:0:0:
296,180,254166,1,0,0:0:0:0:
296,176,254246,1,2,0:0:0:0:
144,172,254486,1,0,0:0:0:0:
144,172,254726,1,2,0:0:0:0:
228,232,254846,1,0,0:0:0:0:
228,224,254966,1,0,0:0:0:0:
228,224,255206,1,6,0:0:0:0:
316,292,255446,1,4,0:0:0:0:
236,180,255926,1,2,0:0:0:0:
248,188,256166,1,0,0:0:0:0:
312,280,256286,1,0,0:0:0:0:
312,280,256406,1,0,0:0:0:0:
312,280,256526,1,0,0:0:0:0:
304,272,256646,1,2,0:0:0:0:
324,196,256886,1,0,0:0:0:0:
340,184,257126,1,2,0:0:0:0:
288,136,257206,1,2,0:0:0:0:
288,136,257286,1,2,0:0:0:0:
288,128,257366,1,2,0:0:0:0:
288,124,257446,1,2,0:0:0:0:
288,120,257526,1,2,0:0:0:0:
288,124,257606,1,0,0:0:0:0:
264,176,257666,1,2,0:0:0:0:
168,120,257726,1,2,0:0:0:0:
168,120,257786,1,2,0:0:0:0:
168,120,257846,1,2,0:0:0:0:
168,120,257906,1,2,0:0:0:0:
168,120,257966,1,2,0:0:0:0:
168,120,258026,1,2,0:0:0:0:
168,120,258086,1,0,0:0:0:0:
328,288,258326,1,2,0:0:0:0:
328,288,258566,1,0,0:0:0:0:
328,296,258806,1,2,0:0:0:0:
336,308,259046,1,0,0:0:0:0:
336,340,259286,1,0,0:0:0:0:
336,340,259406,1,0,0:0:0:0:
328,332,259526,1,0,0:0:0:0:
296,296,259646,1,2,0:0:0:0:
296,296,259766,1,2,0:0:0:0:
296,288,259886,1,2,0:0:0:0:
296,284,260006,1,0,0:0:0:0:
292,168,260086,1,0,0:0:0:0:
292,168,260166,1,0,0:0:0:0:
292,168,260246,1,0,0:0:0:0:
292,168,260326,1,0,0:0:0:0:
292,156,260406,1,0,0:0:0:0:
292,156,260486,1,2,0:0:0:0:
192,152,260606,1,0,0:0:0:0:
200,152,260726,1,0,0:0:0:0:
200,152,260846,1,0,0:0:0:0:
200,152,260966,1,2,0:0:0:0:
276,264,261086,1,0,0:0:0:0:
276,264,261206,1,0,0:0:0:0:
276,264,261326,1,0,0:0:0:0:
276,264,261446,1,2,0:0:0:0:
272,260,261566,1,0,0:0:0:0:
272,256,261686,1,0,0:0:0:0:
264,252,261806,1,0,0:0:0:0:
264,252,261926,1,2,0:0:0:0:
260,252,262046,1,0,0:0:0:0:
260,248,262166,1,0,0:0:0:0:
260,248,262286,1,0,0:0:0:0:
260,248,262406,1,2,0:0:0:0:
256,248,262526,1,0,0:0:0:0:
256,248,262646,1,2,0:0:0:0:
256,248,262766,1,0,0:0:0:0:
256,248,262886,1,2,0:0:0:0:
320,200,263006,1,0,0:0:0:0:
320,200,263126,1,0,0:0:0:0:
320,200,263246,1,0,0:0:0:0:
316,196,263366,1,2,0:0:0:0:
316,196,263486,1,2,0:0:0:0:
312,192,263606,1,2,0:0:0:0:
312,192,263726,1,2,0:0:0:0:
312,192,263846,1,0,0:0:0:0:
284,272,263966,1,2,0:0:0:0:
284,272,264086,1,2,0:0:0:0:
276,268,264206,1,2,0:0:0:0:
276,268,264326,1,0,0:0:0:0:
156,232,264446,1,0,0:0:0:0:
156,232,264566,1,2,0:0:0:0:
156,232,264686,1,0,0:0:0:0:
156,224,264806,1,2,0:0:0:0:
156,224,264926,1,2,0:0:0:0:
152,216,265046,1,0,0:0:0:0:
152,220,265166,1,0,0:0:0:0:
152,220,265286,1,2,0:0:0:0:
152,216,265406,1,0,0:0:0:0:
152,216,265526,1,2,0:0:0:0:
152,216,265646,1,0,0:0:0:0:
152,216,265766,1,2,0:0:0:0:
244,188,265846,1,0,0:0:0:0:
244,188,265926,1,0,0:0:0:0:
144,216,266006,1,2,0:0:0:0:
144,216,266126,1,0,0:0:0:0:
340,152,266246,1,2,0:0:0:0:
344,144,266366,1,0,0:0:0:0:
344,144,266486,1,0,0:0:0:0:
344,136,266606,1,0,0:0:0:0:
344,136,266726,1,2,0:0:0:0:
300,304,266846,1,0,0:0:0:0:
300,304,266966,1,2,0:0:0:0:
300,304,267086,1,0,0:0:0:0:
296,300,267206,1,2,0:0:0:0:
224,248,267286,1,0,0:0:0:0:
224,248,267366,1,0,0:0:0:0:
224,248,267446,1,0,0:0:0:0:
224,248,267526,1,0,0:0:0:0:
224,248,267606,1,0,0:0:0:0:
224,248,267686,1,2,0:0:0:0:
360,284,267926,1,0,0:0:0:0:
360,284,268166,1,2,0:0:0:0:
264,264,268286,1,0,0:0:0:0:
264,264,268406,1,2,0:0:0:0:
260,260,268526,1,2,0:0:0:0:
260,256,268646,1,0,0:0:0:0:
312,316,268706,1,0,0:0:0:0:
312,316,268766,1,0,0:0:0:0:
304,304,268886,1,2,0:0:0:0:
304,300,269006,1,0,0:0:0:0:
300,296,269126,1,2,0:0:0:0:
300,288,269186,1,2,0:0:0:0:
292,288,269246,1,0,0:0:0:0:
344,360,269306,1,0,0:0:0:0:
336,352,269366,1,2,0:0:0:0:
336,352,269486,1,0,0:0:0:0:
336,348,269606,1,2,0:0:0:0:
300,304,269726,1,0,0:0:0:0:
300,304,269846,1,2,0:0:0:0:
300,304,269906,1,2,0:0:0:0:
296,304,269966,1,2,0:0:0:0:
296,304,270026,1,2,0:0:0:0:
300,304,270086,1,0,0:0:0:0:
292,288,270206,1,0,0:0:0:0:
288,288,270326,1,0,0:0:0:0:
304,308,270446,1,2,0:0:0:0:
340,352,270506,1,2,0:0:0:0:
300,304,270566,1,0,0:0:0:0:
268,260,270626,1,0,0:0:0:0:
340,352,270686,1,2,0:0:0:0:
324,328,270806,1,2,0:0:0:0:
204,192,270866,1,2,0:0:0:0:
320,328,270926,1,0,0:0:0:0:
352,376,271046,1,2,0:0:0:0:
220,192,271166,1,0,0:0:0:0:
224,196,271286,1,2,0:0:0:0:
272,184,271406,1,0,0:0:0:0:
300,184,271526,1,2,0:0:0:0:
300,184,271646,1,0,0:0:0:0:
324,216,271706,1,0,0:0:0:0:
252,232,271766,1,2,0:0:0:0:
332,344,271826,1,2,0:0:0:0:
256,224,271886,1,0,0:0:0:0:
336,340,271946,1,0,0:0:0:0:
244,208,272006,1,2,0:0:0:0:
348,328,272126,1,0,0:0:0:0:
348,320,272246,1,2,0:0:0:0:
336,308,272366,1,0,0:0:0:0:
232,224,272426,1,0,0:0:0:0:
336,304,272486,1,0,0:0:0:0:
336,304,272606,1,0,0:0:0:0:
284,228,272666,1,0,0:0:0:0:
336,300,272726,1,2,0:0:0:0:
336,300,272846,1,0,0:0:0:0:
348,336,272966,1,2,0:0:0:0:
336,320,273026,1,2,0:0:0:0:
336,320,273086,1,0,0:0:0:0:
328,304,273206,1,2,0:0:0:0:
328,296,273326,1,0,0:0:0:0:
328,296,273386,1,0,0:0:0:0:
324,288,273446,1,2,0:0:0:0:
324,288,273506,1,0,0:0:0:0:
324,284,273566,1,2,0:0:0:0:
328,272,273686,1,2,0:0:0:0:
340,320,273746,1,2,0:0:0:0:
328,272,273806,1,0,0:0:0:0:
328,272,273926,1,2,0:0:0:0:
352,340,273986,1,0,0:0:0:0:
332,288,274046,1,2,0:0:0:0:
328,280,274166,1,2,0:0:0:0:
328,280,274286,1,0,0:0:0:0:
328,272,274406,1,2,0:0:0:0:
288,176,274466,1,2,0:0:0:0:
328,272,274526,1,0,0:0:0:0:
288,176,274586,1,0,0:0:0:0:
328,264,274646,1,2,0:0:0:0:
324,284,274766,1,0,0:0:0:0:
328,280,274886,1,4,0:0:0:0:
356,344,275126,1,4,0:0:0:0:
260,200,275366,1,2,0:0:0:0:
260,200,275406,1,2,0:0:0:0:
260,200,275446,1,2,0:0:0:0:
264,192,275486,1,2,0:0:0:0:
264,192,275526,1,2,0:0:0:0:
264,184,275566,1,2,0:0:0:0:
264,184,275606,1,0,0:0:0:0:
344,296,275846,1,4,0:0:0:0:
348,256,276086,1,6,0:0:0:0:
264,248,276326,1,0,0:0:0:0:
264,248,276366,1,0,0:0:0:0:
268,248,276406,1,0,0:0:0:0:
272,248,276446,1,0,0:0:0:0:
272,248,276486,1,0,0:0:0:0:
276,244,276526,1,0,0:0:0:0:
280,244,276566,1,2,0:0:0:0:
336,300,276686,1,0,0:0:0:0:
336,300,276806,1,2,0:0:0:0:
336,288,276926,1,0,0:0:0:0:
336,288,277046,1,0,0:0:0:0:
336,288,277166,1,0,0:0:0:0:
336,284,277286,1,2,0:0:0:0:
320,276,277406,1,0,0:0:0:0:
324,272,277526,1,2,0:0:0:0:
324,256,277586,1,2,0:0:0:0:
320,268,277646,1,0,0:0:0:0:
316,272,277706,1,0,0:0:0:0:
316,264,277766,1,2,0:0:0:0:
316,256,277886,1,0,0:0:0:0:
316,248,278006,1,2,0:0:0:0:
304,260,278066,1,2,0:0:0:0:
360,228,278126,1,0,0:0:0:0:
360,228,278246,1,0,0:0:0:0:
360,228,278366,1,0,0:0:0:0:
304,256,278426,1,0,0:0:0:0:
352,224,278486,1,2,0:0:0:0:
304,256,278546,1,0,0:0:0:0:
304,256,278606,1,2,0:0:0:0:
304,256,278726,1,2,0:0:0:0:
320,280,278786,1,2,0:0:0:0:
320,276,278846,1,2,0:0:0:0:
320,276,278906,1,2,0:0:0:0:
316,272,278966,1,0,0:0:0:0:
312,296,279086,1,0,0:0:0:0:
316,288,279206,1,6,0:0:0:0:
212,212,279326,1,0,0:0:0:0:
212,212,279446,1,0,0:0:0:0:
212,196,279506,1,0,0:0:0:0:
212,212,279566,1,0,0:0:0:0:
216,200,279686,1,6,0:0:0:0:
352,308,279926,1,2,0:0:0:0:
356,284,280046,1,0,0:0:0:0:
356,280,280166,1,2,0:0:0:0:
224,224,280226,1,2,0:0:0:0:
356,272,280286,1,0,0:0:0:0:
356,264,280406,1,2,0:0:0:0:
356,264,280526,1,0,0:0:0:0:
356,264,280586,1,0,0:0:0:0:
356,264,280646,1,2,0:0:0:0:
296,280,280766,1,0,0:0:0:0:
300,268,280886,1,2,0:0:0:0:
312,232,280946,1,2,0:0:0:0:
312,232,281006,1,0,0:0:0:0:
312,232,281066,1,0,0:0:0:0:
312,232,281126,1,2,0:0:0:0:
312,224,281246,1,0,0:0:0:0:
312,224,281366,1,2,0:0:0:0:
312,224,281426,1,0,0:0:0:0:
308,228,281486,1,0,0:0:0:0:
308,224,281546,1,0,0:0:0:0:
308,224,281606,1,2,0:0:0:0:
316,296,281726,1,0,0:0:0:0:
316,288,281846,1,2,0:0:0:0:
316,276,281966,1,0,0:0:0:0:
320,280,282026,1,0,0:0:0:0:
316,276,282086,1,2,0:0:0:0:
316,268,282206,1,0,0:0:0:0:
320,264,282326,1,2,0:0:0:0:
320,276,282386,1,2,0:0:0:0:
320,264,282446,1,0,0:0:0:0:
320,264,282506,1,0,0:0:0:0:
320,264,282566,1,2,0:0:0:0:
320,220,282686,1,0,0:0:0:0:
320,208,282806,1,2,0:0:0:0:
320,208,282926,1,0,0:0:0:0:
316,200,283046,1,0,0:0:0:0:
316,196,283166,1,0,0:0:0:0:
312,192,283286,1,2,0:0:0:0:
312,188,283406,1,0,0:0:0:0:
312,188,283526,1,2,0:0:0:0:
352,324,283646,1,2,0:0:0:0:
352,320,283766,1,0,0:0:0:0:
352,312,283886,1,2,0:0:0:0:
352,308,284006,1,0,0:0:0:0:
352,300,284126,1,0,0:0:0:0:
348,292,284246,1,2,0:0:0:0:
348,292,284366,1,0,0:0:0:0:
348,292,284486,1,2,0:0:0:0:
292,232,284546,1,2,0:0:0:0:
308,216,284606,1,0,0:0:0:0:
308,216,284666,1,0,0:0:0:0:
308,216,284726,1,2,0:0:0:0:
308,216,284846,1,0,0:0:0:0:
308,216,284966,1,2,0:0:0:0:
308,216,285086,1,0,0:0:0:0:
308,216,285146,1,0,0:0:0:0:
308,216,285206,1,0,0:0:0:0:
308,216,285326,1,0,0:0:0:0:
308,216,285446,1,2,0:0:0:0:
312,212,285506,1,0,0:0:0:0:
312,212,285566,1,0,0:0:0:0:
312,212,285626,1,0,0:0:0:0:
312,212,285686,1,2,0:0:0:0:
312,212,285806,1,0,0:0:0:0:
312,208,285926,1,2,0:0:0:0:
312,208,286046,1,0,0:0:0:0:
312,208,286106,1,0,0:0:0:0:
312,208,286166,1,2,0:0:0:0:
312,212,286286,1,0,0:0:0:0:
312,212,286406,1,2,0:0:0:0:
312,212,286526,1,0,0:0:0:0:
312,212,286586,1,0,0:0:0:0:
312,208,286646,1,2,0:0:0:0:
312,208,286706,1,0,0:0:0:0:
312,208,286766,1,0,0:0:0:0:
312,208,286886,1,2,0:0:0:0:
312,212,287006,1,0,0:0:0:0:
312,212,287126,1,2,0:0:0:0:
312,212,287186,1,2,0:0:0:0:
312,212,287246,1,0,0:0:0:0:
312,212,287306,1,0,0:0:0:0:
312,212,287366,1,2,0:0:0:0:
312,208,287486,1,0,0:0:0:0:
312,208,287546,1,0,0:0:0:0:
312,208,287606,1,2,0:0:0:0:
312,208,287666,1,0,0:0:0:0:
312,212,287726,1,2,0:0:0:0:
312,212,287846,1,2,0:0:0:0:
312,212,287966,1,0,0:0:0:0:
312,212,288026,1,0,0:0:0:0:
312,212,288086,1,0,0:0:0:0:
312,208,288206,1,0,0:0:0:0:
312,208,288326,1,2,0:0:0:0:
312,208,288446,1,0,0:0:0:0:
312,212,288566,1,2,0:0:0:0:
312,212,288626,1,2,0:0:0:0:
312,212,288686,1,0,0:0:0:0:
312,212,288746,1,0,0:0:0:0:
312,212,288806,1,2,0:0:0:0:
312,208,288926,1,0,0:0:0:0:
312,208,288986,1,0,0:0:0:0:
312,208,289046,1,2,0:0:0:0:
312,208,289106,1,0,0:0:0:0:
312,208,289166,1,0,0:0:0:0:
312,212,289286,1,2,0:0:0:0:
312,212,289406,1,0,0:0:0:0:
312,212,289526,1,2,0:0:0:0:
312,212,289586,1,2,0:0:0:0:
312,208,289646,1,0,0:0:0:0:
312,208,289766,1,2,0:0:0:0:
312,208,289886,1,0,0:0:0:0:
312,208,289946,1,0,0:0:0:0:
312,212,290006,1,2,0:0:0:0:
340,272,290066,1,2,0:0:0:0:
384,192,290126,1,0,0:0:0:0:
288,172,290246,1,2,0:0:0:0:
320,292,290306,1,2,0:0:0:0:
320,292,290366,1,0,0:0:0:0:
320,292,290426,1,0,0:0:0:0:
320,292,290486,1,2,0:0:0:0:
316,284,290606,1,0,0:0:0:0:
316,280,290726,1,2,0:0:0:0:
336,332,290846,1,0,0:0:0:0:
336,332,290966,1,0,0:0:0:0:
336,332,291086,1,0,0:0:0:0:
336,332,291206,1,2,0:0:0:0:
304,264,291266,1,2,0:0:0:0:
304,264,291326,1,2,0:0:0:0:
304,264,291386,1,2,0:0:0:0:
304,260,291446,1,0,0:0:0:0:
304,256,291506,1,0,0:0:0:0:
308,248,291566,1,0,0:0:0:0:
308,248,291626,1,0,0:0:0:0:
308,248,291686,1,2,0:0:0:0:
308,244,291746,1,2,0:0:0:0:
296,244,291806,1,2,0:0:0:0:
296,244,291866,1,2,0:0:0:0:
300,244,291926,1,0,0:0:0:0:
300,240,291986,1,0,0:0:0:0:
300,240,292046,1,0,0:0:0:0:
300,240,292106,1,0,0:0:0:0:
300,240,292166,1,2,0:0:0:0:
280,252,292246,1,2,0:0:0:0:
280,252,292326,1,2,0:0:0:0:
284,248,292406,1,2,0:0:0:0:
284,248,292486,1,2,0:0:0:0:
280,244,292566,1,2,0:0:0:0:
280,240,292646,1,0,0:0:0:0:
280,240,292726,1,2,0:0:0:0:
280,240,292806,1,2,0:0:0:0:
280,236,292886,1,2,0:0:0:0:
280,236,292966,1,2,0:0:0:0:
280,236,293046,1,2,0:0:0:0:
280,236,293126,1,0,0:0:0:0:
296,292,293206,1,2,0:0:0:0:
296,292,293286,1,2,0:0:0:0:
296,292,293366,1,0,0:0:0:0:
296,292,293446,1,2,0:0:0:0:
296,292,293526,1,2,0:0:0:0:
296,288,293606,1,4,0:0:0:0:
188,224,293846,1,6,0:0:0:0:
192,232,294086,1,4,0:0:0:0:
260,200,294206,1,0,0:0:0:0:
252,204,294266,1,0,0:0:0:0:
248,200,294326,1,2,0:0:0:0:
288,272,294446,1,0,0:0:0:0:
288,272,294566,1,2,0:0:0:0:
284,260,294626,1,0,0:0:0:0:
288,256,294686,1,0,0:0:0:0:
288,256,294746,1,0,0:0:0:0:
284,252,294806,1,2,0:0:0:0:
284,252,294926,1,0,0:0:0:0:
284,248,294986,1,0,0:0:0:0:
284,244,295046,1,2,0:0:0:0:
296,284,295166,1,0,0:0:0:0:
288,272,295286,1,2,0:0:0:0:
308,344,295406,1,0,0:0:0:0:
308,344,295526,1,2,0:0:0:0:
304,336,295586,1,0,0:0:0:0:
296,328,295646,1,0,0:0:0:0:
296,328,295706,1,0,0:0:0:0:
288,320,295766,1,2,0:0:0:0:
288,316,295886,1,0,0:0:0:0:
288,312,296006,1,2,0:0:0:0:
276,312,296066,1,2,0:0:0:0:
272,300,296126,1,0,0:0:0:0:
272,296,296186,1,0,0:0:0:0:
268,288,296246,1,2,0:0:0:0:
268,284,296306,1,2,0:0:0:0:
264,280,296366,1,0,0:0:0:0:
260,272,296486,1,6,0:0:0:0:
260,268,296606,1,0,0:0:0:0:
256,264,296726,1,6,0:0:0:0:
228,236,297086,1,4,0:0:0:0:
256,184,297386,1,2,0:0:0:0:
260,184,297446,1,2,0:0:0:0:
192,232,297686,1,4,0:0:0:0:
260,200,297806,1,0,0:0:0:0:
252,204,297866,1,0,0:0:0:0:
248,200,297926,1,2,0:0:0:0:
288,272,298046,1,0,0:0:0:0:
288,272,298166,1,2,0:0:0:0:
284,260,298226,1,0,0:0:0:0:
288,256,298286,1,0,0:0:0:0:
288,256,298346,1,0,0:0:0:0:
284,252,298406,1,2,0:0:0:0:
284,252,298526,1,0,0:0:0:0:
284,248,298586,1,0,0:0:0:0:
284,244,298646,1,2,0:0:0:0:
296,284,298766,1,0,0:0:0:0:
288,272,298886,1,2,0:0:0:0:
308,344,299006,1,0,0:0:0:0:
308,344,299126,1,2,0:0:0:0:
304,336,299186,1,0,0:0:0:0:
296,328,299246,1,0,0:0:0:0:
296,328,299306,1,0,0:0:0:0:
288,320,299366,1,2,0:0:0:0:
288,316,299486,1,0,0:0:0:0:
288,312,299606,1,2,0:0:0:0:
276,312,299666,1,2,0:0:0:0:
272,300,299726,1,0,0:0:0:0:
272,296,299786,1,0,0:0:0:0:
268,288,299846,1,2,0:0:0:0:
268,284,299906,1,2,0:0:0:0:
264,280,299966,1,0,0:0:0:0:
260,272,300086,1,6,0:0:0:0:
260,268,300206,1,0,0:0:0:0:
176,236,300266,1,0,0:0:0:0:
192,240,300326,1,2,0:0:0:0:
180,240,300386,1,0,0:0:0:0:
176,236,300446,1,0,0:0:0:0:
176,236,300506,1,0,0:0:0:0:
316,328,300566,1,2,0:0:0:0:
316,328,300626,1,0,0:0:0:0:
316,328,300686,1,2,0:0:0:0:
320,320,300746,1,0,0:0:0:0:
320,324,300806,1,2,0:0:0:0:
332,296,300926,1,2,0:0:0:0:
332,296,300986,1,2,0:0:0:0:
332,296,301046,1,0,0:0:0:0:
332,288,301106,1,0,0:0:0:0:
336,280,301166,1,0,0:0:0:0:
336,280,301226,1,0,0:0:0:0:
340,272,301286,1,2,0:0:0:0:
340,272,301346,1,2,0:0:0:0:
340,272,301406,1,0,0:0:0:0:
344,268,301466,1,0,0:0:0:0:
344,268,301526,1,2,0:0:0:0:
344,268,301586,1,0,0:0:0:0:
344,268,301646,1,2,0:0:0:0:
344,268,301706,1,2,0:0:0:0:
344,268,301766,1,0,0:0:0:0:
292,240,301886,1,2,0:0:0:0:
304,272,302006,1,2,0:0:0:0:
284,172,302066,1,2,0:0:0:0:
284,172,302126,1,0,0:0:0:0:
284,172,302246,1,2,0:0:0:0:
336,344,302366,1,0,0:0:0:0:
336,344,302426,1,0,0:0:0:0:
336,344,302486,1,2,0:0:0:0:
328,332,302546,1,0,0:0:0:0:
328,332,302606,1,0,0:0:0:0:
328,328,302666,1,0,0:0:0:0:
328,324,302726,1,2,0:0:0:0:
308,292,302846,1,0,0:0:0:0:
304,288,302966,1,2,0:0:0:0:
308,292,303086,1,0,0:0:0:0:
344,200,303146,1,0,0:0:0:0:
372,200,303206,1,2,0:0:0:0:
316,268,303326,1,0,0:0:0:0:
320,244,303386,1,0,0:0:0:0:
332,244,303446,1,0,0:0:0:0:
372,332,303566,1,0,0:0:0:0:
360,216,303686,1,2,0:0:0:0:
364,212,303746,1,2,0:0:0:0:
364,212,303806,1,2,0:0:0:0:
360,212,303866,1,2,0:0:0:0:
360,212,303926,1,0,0:0:0:0:
360,212,303986,1,0,0:0:0:0:
360,208,304046,1,0,0:0:0:0:
360,208,304106,1,0,0:0:0:0:
320,296,304166,1,2,0:0:0:0:
324,288,304226,1,2,0:0:0:0:
324,284,304286,1,0,0:0:0:0:
336,280,304346,1,0,0:0:0:0:
304,180,304406,1,2,0:0:0:0:
256,208,304466,1,2,0:0:0:0:
256,208,304526,1,2,0:0:0:0:
256,208,304586,1,2,0:0:0:0:
264,208,304646,1,2,0:0:0:0:
264,208,304706,1,2,0:0:0:0:
264,208,304766,1,0,0:0:0:0:
264,208,304826,1,0,0:0:0:0:
296,280,304886,1,0,0:0:0:0:
276,212,304946,1,0,0:0:0:0:
280,212,305006,1,0,0:0:0:0:
280,212,305066,1,0,0:0:0:0:
280,192,305126,1,2,0:0:0:0:
280,192,305166,1,2,0:0:0:0:
280,192,305206,1,2,0:0:0:0:
288,184,305246,1,2,0:0:0:0:
288,184,305286,1,2,0:0:0:0:
288,184,305326,1,2,0:0:0:0:
288,180,305366,1,0,0:0:0:0:
284,296,305606,1,2,0:0:0:0:
284,296,305726,1,0,0:0:0:0:
284,296,305846,1,2,0:0:0:0:
284,304,305906,1,2,0:0:0:0:
284,296,305966,1,0,0:0:0:0:
284,296,306026,1,0,0:0:0:0:
292,300,306086,1,2,0:0:0:0:
340,288,306206,1,0,0:0:0:0:
340,288,306326,1,2,0:0:0:0:
340,288,306386,1,0,0:0:0:0:
340,288,306446,1,0,0:0:0:0:
340,288,306506,1,0,0:0:0:0:
340,288,306566,1,2,0:0:0:0:
212,216,306686,1,0,0:0:0:0:
280,244,306806,1,2,0:0:0:0:
284,240,306866,1,2,0:0:0:0:
284,236,306926,1,0,0:0:0:0:
284,236,306986,1,0,0:0:0:0:
284,232,307046,1,2,0:0:0:0:
284,232,307166,1,0,0:0:0:0:
288,232,307286,1,2,0:0:0:0:
204,172,307346,1,2,0:0:0:0:
288,236,307406,1,2,0:0:0:0:
288,236,307466,1,2,0:0:0:0:
288,236,307526,1,0,0:0:0:0:
244,200,307586,1,0,0:0:0:0:
280,208,307646,1,2,0:0:0:0:
280,208,307706,1,2,0:0:0:0:
280,208,307766,1,0,0:0:0:0:
312,248,307886,1,0,0:0:0:0:
320,232,308006,1,2,0:0:0:0:
320,232,308066,1,2,0:0:0:0:
320,232,308126,1,2,0:0:0:0:
320,232,308186,1,2,0:0:0:0:
320,232,308246,1,2,0:0:0:0:
320,232,308306,1,2,0:0:0:0:
320,232,308366,1,2,0:0:0:0:
320,232,308426,1,2,0:0:0:0:
316,224,308486,1,0,0:0:0:0:
240,240,308726,1,2,0:0:0:0:
240,228,308806,1,0,0:0:0:0:
244,228,308886,1,2,0:0:0:0:
244,224,308966,1,0,0:0:0:0:
244,224,309046,1,0,0:0:0:0:
248,224,309126,1,0,0:0:0:0:
248,224,309206,1,2,0:0:0:0:
332,320,309446,1,0,0:0:0:0:
332,320,309566,1,0,0:0:0:0:
236,224,309686,1,2,0:0:0:0:
336,312,309926,1,0,0:0:0:0:
336,312,310046,1,0,0:0:0:0:
336,312,310166,1,2,0:0:0:0:
340,336,310406,1,0,0:0:0:0:
344,328,310526,1,0,0:0:0:0:
344,320,310646,1,2,0:0:0:0:
272,272,310886,1,2,0:0:0:0:
272,272,311006,1,0,0:0:0:0:
280,268,311126,1,2,0:0:0:0:
332,344,311186,1,0,0:0:0:0:
340,332,311246,1,0,0:0:0:0:
340,332,311306,1,0,0:0:0:0:
340,332,311366,1,0,0:0:0:0:
340,328,311426,1,0,0:0:0:0:
340,328,311486,1,0,0:0:0:0:
340,324,311546,1,0,0:0:0:0:
340,320,311606,1,0,0:0:0:0:
200,184,311666,1,0,0:0:0:0:
228,184,311726,1,0,0:0:0:0:
224,180,311786,1,0,0:0:0:0:
224,184,311846,1,0,0:0:0:0:
220,184,311906,1,0,0:0:0:0:
224,184,311966,1,0,0:0:0:0:
224,184,312026,1,0,0:0:0:0:
316,308,312086,1,0,0:0:0:0:
320,300,312146,1,0,0:0:0:0:
320,296,312206,1,0,0:0:0:0:
336,292,312266,1,0,0:0:0:0:
336,288,312326,1,0,0:0:0:0:
340,288,312386,1,0,0:0:0:0:
340,288,312446,1,0,0:0:0:0:
340,288,312506,1,0,0:0:0:0:
340,288,312566,1,0,0:0:0:0:
340,280,312626,1,0,0:0:0:0:
340,280,312686,1,0,0:0:0:0:
340,280,312746,1,0,0:0:0:0:
348,332,312806,1,2,0:0:0:0:
332,200,312926,1,2,0:0:0:0:
364,256,313046,1,4,0:0:0:0:
272,240,313286,1,0,0:0:0:0:
272,252,313406,1,0,0:0:0:0:
264,248,313526,1,2,0:0:0:0:
276,248,313766,1,0,0:0:0:0:
272,240,313886,1,0,0:0:0:0:
272,240,314006,1,2,0:0:0:0:
368,192,314246,1,0,0:0:0:0:
364,196,314366,1,0,0:0:0:0:
364,188,314486,1,2,0:0:0:0:
364,188,314726,1,0,0:0:0:0:
360,184,314846,1,0,0:0:0:0:
360,184,314966,1,6,0:0:0:0:
256,192,315206,12,0,316406,0:0:0:0:
248,228,316886,5,4,0:0:0:0:
340,280,317126,1,0,0:0:0:0:
340,280,317246,1,0,0:0:0:0:
336,272,317366,1,2,0:0:0:0:
300,248,317606,1,0,0:0:0:0:
300,248,317726,1,0,0:0:0:0:
304,244,317846,1,2,0:0:0:0:
316,228,318086,1,0,0:0:0:0:
312,232,318206,1,0,0:0:0:0:
312,228,318326,1,2,0:0:0:0:
312,240,318566,1,2,0:0:0:0:
312,232,318806,1,6,0:0:0:0:
284,192,319046,1,0,0:0:0:0:
292,196,319166,1,0,0:0:0:0:
288,204,319286,1,2,0:0:0:0:
408,184,319526,1,0,0:0:0:0:
408,184,319646,1,0,0:0:0:0:
408,184,319766,1,2,0:0:0:0:
304,280,320006,1,0,0:0:0:0:
304,280,320126,1,0,0:0:0:0:
324,292,320246,1,2,0:0:0:0:
320,288,320366,1,0,0:0:0:0:
320,276,320486,1,2,0:0:0:0:
316,272,320606,1,2,0:0:0:0:
320,272,320726,1,0,0:0:0:0:
252,248,320966,1,0,0:0:0:0:
252,248,321086,1,0,0:0:0:0:
252,248,321206,1,2,0:0:0:0:
252,248,321326,1,0,0:0:0:0:
244,252,321446,1,0,0:0:0:0:
240,256,321566,1,0,0:0:0:0:
240,252,321686,1,2,0:0:0:0:
312,292,321926,1,0,0:0:0:0:
296,220,322046,1,0,0:0:0:0:
296,220,322166,1,2,0:0:0:0:
296,220,322286,1,0,0:0:0:0:
296,212,322406,1,2,0:0:0:0:
296,212,322526,1,2,0:0:0:0:
296,212,322646,1,0,0:0:0:0:
304,288,322886,1,0,0:0:0:0:
304,288,323006,1,0,0:0:0:0:
304,288,323126,1,2,0:0:0:0:
304,288,323246,1,0,0:0:0:0:
304,288,323366,1,0,0:0:0:0:
304,288,323486,1,0,0:0:0:0:
172,220,323546,1,0,0:0:0:0:
304,280,323606,1,2,0:0:0:0:
304,300,323726,1,0,0:0:0:0:
304,296,323846,1,2,0:0:0:0:
304,292,323966,1,0,0:0:0:0:
304,228,324026,1,0,0:0:0:0:
304,288,324086,1,2,0:0:0:0:
304,288,324206,1,0,0:0:0:0:
308,288,324326,1,2,0:0:0:0:
320,248,324446,1,0,0:0:0:0:
320,244,324566,1,2,0:0:0:0:
336,300,324686,1,0,0:0:0:0:
336,300,324806,1,0,0:0:0:0:
328,296,324926,1,0,0:0:0:0:
324,296,325046,1,2,0:0:0:0:
336,320,325286,1,0,0:0:0:0:
336,316,325406,1,0,0:0:0:0:
336,312,325526,1,2,0:0:0:0:
336,316,325646,1,0,0:0:0:0:
336,316,325766,1,0,0:0:0:0:
336,316,325886,1,0,0:0:0:0:
336,312,326006,1,2,0:0:0:0:
320,320,326066,1,2,0:0:0:0:
320,308,326126,1,2,0:0:0:0:
340,196,326246,1,0,0:0:0:0:
328,188,326306,1,0,0:0:0:0:
336,184,326366,1,0,0:0:0:0:
324,188,326486,1,2,0:0:0:0:
348,296,326726,1,0,0:0:0:0:
356,280,326846,1,0,0:0:0:0:
356,272,326966,1,2,0:0:0:0:
356,272,327086,1,0,0:0:0:0:
356,272,327206,1,0,0:0:0:0:
360,268,327326,1,0,0:0:0:0:
372,272,327386,1,0,0:0:0:0:
360,268,327446,1,2,0:0:0:0:
324,288,327686,1,0,0:0:0:0:
324,288,327806,1,0,0:0:0:0:
328,280,327926,1,2,0:0:0:0:
344,320,327986,1,2,0:0:0:0:
328,276,328046,1,0,0:0:0:0:
324,272,328166,1,0,0:0:0:0:
324,264,328286,1,0,0:0:0:0:
324,268,328406,1,6,0:0:0:0:
272,216,328646,1,0,0:0:0:0:
288,208,328766,1,0,0:0:0:0:
284,204,328886,1,2,0:0:0:0:
304,268,329006,1,0,0:0:0:0:
304,260,329066,1,0,0:0:0:0:
304,232,329126,1,0,0:0:0:0:
304,252,329246,1,0,0:0:0:0:
304,248,329366,1,2,0:0:0:0:
332,292,329606,1,0,0:0:0:0:
336,272,329726,1,0,0:0:0:0:
340,268,329786,1,0,0:0:0:0:
340,264,329846,1,2,0:0:0:0:
340,264,329966,1,0,0:0:0:0:
340,260,330086,1,0,0:0:0:0:
340,264,330206,1,0,0:0:0:0:
296,248,330266,1,0,0:0:0:0:
340,268,330326,1,2,0:0:0:0:
264,224,330566,1,2,0:0:0:0:
332,268,330686,1,0,0:0:0:0:
332,272,330806,1,2,0:0:0:0:
332,272,330926,1,0,0:0:0:0:
332,272,331046,1,0,0:0:0:0:
332,268,331166,1,0,0:0:0:0:
332,268,331226,1,0,0:0:0:0:
328,272,331286,1,2,0:0:0:0:
352,344,331766,1,6,0:0:0:0:
252,212,332126,1,0,0:0:0:0:
260,212,332186,1,0,0:0:0:0:
244,180,332246,1,2,0:0:0:0:
244,180,332366,1,0,0:0:0:0:
348,296,332486,1,0,0:0:0:0:
356,280,332606,1,0,0:0:0:0:
356,272,332726,1,2,0:0:0:0:
356,272,332846,1,0,0:0:0:0:
356,272,332966,1,0,0:0:0:0:
360,268,333086,1,0,0:0:0:0:
372,272,333146,1,0,0:0:0:0:
360,268,333206,1,2,0:0:0:0:
324,288,333446,1,0,0:0:0:0:
324,288,333566,1,0,0:0:0:0:
328,280,333686,1,2,0:0:0:0:
344,320,333746,1,2,0:0:0:0:
328,276,333806,1,0,0:0:0:0:
324,272,333926,1,0,0:0:0:0:
324,264,334046,1,0,0:0:0:0:
392,168,334106,1,0,0:0:0:0:
352,368,334166,1,2,0:0:0:0:
272,216,334406,1,0,0:0:0:0:
288,208,334526,1,0,0:0:0:0:
272,208,334586,1,0,0:0:0:0:
284,204,334646,1,2,0:0:0:0:
304,268,334766,1,0,0:0:0:0:
304,232,334886,1,0,0:0:0:0:
284,236,334946,1,0,0:0:0:0:
304,252,335006,1,0,0:0:0:0:
216,208,335066,1,0,0:0:0:0:
304,248,335126,1,2,0:0:0:0:
316,304,335366,1,0,0:0:0:0:
316,304,335486,1,0,0:0:0:0:
368,188,335546,1,0,0:0:0:0:
316,296,335606,1,2,0:0:0:0:
320,272,335726,1,0,0:0:0:0:
320,272,335846,1,2,0:0:0:0:
316,268,335906,1,0,0:0:0:0:
320,272,335966,1,0,0:0:0:0:
316,268,336026,1,0,0:0:0:0:
320,272,336086,1,2,0:0:0:0:
340,316,336326,1,0,0:0:0:0:
340,316,336446,1,0,0:0:0:0:
340,316,336566,1,2,0:0:0:0:
328,320,336686,1,0,0:0:0:0:
332,228,336746,1,0,0:0:0:0:
332,228,336806,1,0,0:0:0:0:
332,228,336926,1,0,0:0:0:0:
340,240,337046,1,2,0:0:0:0:
344,336,337166,1,0,0:0:0:0:
344,336,337286,1,2,0:0:0:0:
232,224,337406,1,0,0:0:0:0:
264,228,337466,1,0,0:0:0:0:
228,132,337526,1,2,0:0:0:0:
292,204,337646,1,0,0:0:0:0:
356,228,337766,1,0,0:0:0:0:
356,228,337886,1,0,0:0:0:0:
356,224,337946,1,0,0:0:0:0:
352,224,338006,1,2,0:0:0:0:
284,224,338246,1,0,0:0:0:0:
328,192,338366,1,0,0:0:0:0:
328,192,338486,1,2,0:0:0:0:
336,248,338606,1,0,0:0:0:0:
160,204,338666,1,0,0:0:0:0:
336,248,338726,1,0,0:0:0:0:
336,240,338846,1,0,0:0:0:0:
328,232,338906,1,0,0:0:0:0:
328,232,338966,1,2,0:0:0:0:
364,256,339086,1,0,0:0:0:0:
364,256,339206,1,2,0:0:0:0:
244,184,339266,1,2,0:0:0:0:
244,184,339326,1,2,0:0:0:0:
248,180,339386,1,2,0:0:0:0:
248,180,339446,1,2,0:0:0:0:
328,308,339686,1,0,0:0:0:0:
328,316,339926,1,6,0:0:0:0:
348,240,340166,1,0,0:0:0:0:
352,248,340226,1,0,0:0:0:0:
352,248,340286,1,0,0:0:0:0:
352,256,340406,1,2,0:0:0:0:
348,248,340526,1,0,0:0:0:0:
348,240,340646,1,0,0:0:0:0:
348,240,340766,1,0,0:0:0:0:
348,232,340826,1,0,0:0:0:0:
348,232,340886,1,2,0:0:0:0:
320,284,341126,1,0,0:0:0:0:
320,284,341246,1,0,0:0:0:0:
320,284,341366,1,2,0:0:0:0:
336,308,341486,1,0,0:0:0:0:
328,304,341546,1,0,0:0:0:0:
328,300,341606,1,0,0:0:0:0:
332,296,341726,1,0,0:0:0:0:
328,300,341846,1,2,0:0:0:0:
332,292,342086,1,2,0:0:0:0:
336,288,342206,1,0,0:0:0:0:
344,288,342326,1,2,0:0:0:0:
288,180,342386,1,0,0:0:0:0:
288,180,342446,1,2,0:0:0:0:
288,180,342566,1,0,0:0:0:0:
292,184,342686,1,0,0:0:0:0:
356,88,342746,1,0,0:0:0:0:
288,184,342806,1,2,0:0:0:0:
248,188,342926,1,2,0:0:0:0:
344,180,343046,1,0,0:0:0:0:
264,188,343166,1,0,0:0:0:0:
264,188,343286,1,2,0:0:0:0:
256,184,343406,1,0,0:0:0:0:
244,188,343526,1,0,0:0:0:0:
300,268,343586,1,0,0:0:0:0:
244,188,343646,1,0,0:0:0:0:
300,248,343706,1,0,0:0:0:0:
212,32,343766,1,2,0:0:0:0:
244,192,344006,1,0,0:0:0:0:
296,356,344126,1,0,0:0:0:0:
236,188,344246,1,2,0:0:0:0:
268,288,344306,1,2,0:0:0:0:
272,284,344366,1,2,0:0:0:0:
276,280,344486,1,0,0:0:0:0:
276,280,344546,1,0,0:0:0:0:
280,280,344606,1,0,0:0:0:0:
288,272,344726,1,2,0:0:0:0:
344,332,344846,1,0,0:0:0:0:
344,332,344966,1,0,0:0:0:0:
344,332,345086,1,0,0:0:0:0:
344,332,345206,1,2,0:0:0:0:
304,284,345326,1,0,0:0:0:0:
304,288,345446,1,2,0:0:0:0:
304,284,345566,1,0,0:0:0:0:
304,284,345626,1,0,0:0:0:0:
304,284,345686,1,2,0:0:0:0:
320,304,345806,1,0,0:0:0:0:
312,312,345926,1,2,0:0:0:0:
312,312,346046,1,0,0:0:0:0:
312,312,346106,1,0,0:0:0:0:
312,312,346166,1,2,0:0:0:0:
372,236,346286,1,0,0:0:0:0:
372,236,346406,1,2,0:0:0:0:
360,232,346466,1,0,0:0:0:0:
352,224,346526,1,2,0:0:0:0:
256,128,346646,1,2,0:0:0:0:
264,136,346706,1,2,0:0:0:0:
264,132,346766,1,2,0:0:0:0:
264,136,346826,1,2,0:0:0:0:
300,244,346886,1,2,0:0:0:0:
300,244,346946,1,2,0:0:0:0:
300,244,347006,1,2,0:0:0:0:
300,244,347066,1,2,0:0:0:0:
300,244,347126,1,0,0:0:0:0:
296,232,347186,1,0,0:0:0:0:
296,232,347246,1,0,0:0:0:0:
296,232,347306,1,0,0:0:0:0:
300,276,347366,1,0,0:0:0:0:
300,276,347426,1,0,0:0:0:0:
296,268,347486,1,0,0:0:0:0:
296,264,347546,1,0,0:0:0:0:
296,264,347606,1,2,0:0:0:0:
256,188,347726,1,2,0:0:0:0:
252,200,347846,1,0,0:0:0:0:
252,196,347966,1,0,0:0:0:0:
320,272,348026,1,0,0:0:0:0:
252,196,348086,1,2,0:0:0:0:
328,304,348206,1,0,0:0:0:0:
328,304,348326,1,2,0:0:0:0:
308,292,348446,1,0,0:0:0:0:
308,292,348506,1,0,0:0:0:0:
308,292,348566,1,2,0:0:0:0:
336,328,348686,1,2,0:0:0:0:
336,328,348806,1,2,0:0:0:0:
336,328,348926,1,0,0:0:0:0:
184,224,348986,1,0,0:0:0:0:
332,332,349046,1,2,0:0:0:0:
284,184,349166,1,2,0:0:0:0:
336,328,349286,1,0,0:0:0:0:
316,304,349406,1,0,0:0:0:0:
316,304,349466,1,0,0:0:0:0:
316,304,349526,1,2,0:0:0:0:
272,144,349646,1,0,0:0:0:0:
276,144,349766,1,2,0:0:0:0:
272,144,349886,1,2,0:0:0:0:
276,136,349946,1,2,0:0:0:0:
276,136,350006,1,0,0:0:0:0:
284,216,350126,1,0,0:0:0:0:
284,216,350246,1,2,0:0:0:0:
296,284,350366,1,0,0:0:0:0:
296,284,350426,1,0,0:0:0:0:
300,276,350486,1,2,0:0:0:0:
304,276,350546,1,0,0:0:0:0:
304,272,350606,1,0,0:0:0:0:
304,272,350726,1,2,0:0:0:0:
308,264,350846,1,0,0:0:0:0:
324,308,350906,1,0,0:0:0:0:
308,264,350966,1,2,0:0:0:0:
304,280,351086,1,0,0:0:0:0:
304,280,351206,1,2,0:0:0:0:
308,304,351326,1,0,0:0:0:0:
308,304,351386,1,0,0:0:0:0:
304,300,351446,1,2,0:0:0:0:
344,272,351566,1,0,0:0:0:0:
336,280,351686,1,2,0:0:0:0:
248,216,351806,1,0,0:0:0:0:
248,216,351926,1,2,0:0:0:0:
336,200,352046,1,0,0:0:0:0:
344,200,352106,1,0,0:0:0:0:
336,200,352166,1,0,0:0:0:0:
336,200,352286,1,0,0:0:0:0:
336,200,352406,1,2,0:0:0:0:
312,240,352526,1,0,0:0:0:0:
316,232,352646,1,0,0:0:0:0:
316,224,352766,1,0,0:0:0:0:
316,224,352826,1,0,0:0:0:0:
316,224,352886,1,2,0:0:0:0:
284,276,353006,1,0,0:0:0:0:
284,276,353126,1,2,0:0:0:0:
280,276,353246,1,0,0:0:0:0:
280,276,353306,1,0,0:0:0:0:
284,276,353366,1,2,0:0:0:0:
324,316,353486,1,2,0:0:0:0:
324,316,353606,1,2,0:0:0:0:
324,316,353726,1,2,0:0:0:0:
328,316,353846,1,0,0:0:0:0:
332,312,353966,1,2,0:0:0:0:
332,304,354086,1,2,0:0:0:0:
336,304,354206,1,2,0:0:0:0:
336,308,354266,1,2,0:0:0:0:
336,308,354326,1,2,0:0:0:0:
196,160,354386,1,2,0:0:0:0:
196,160,354446,1,2,0:0:0:0:
200,144,354506,1,2,0:0:0:0:
204,144,354566,1,2,0:0:0:0:
204,144,354626,1,2,0:0:0:0:
204,144,354686,1,2,0:0:0:0:
196,144,354746,1,2,0:0:0:0:
196,144,354806,1,0,0:0:0:0:
192,140,354866,1,0,0:0:0:0:
192,140,354926,1,0,0:0:0:0:
192,140,354986,1,0,0:0:0:0:
188,136,355046,1,0,0:0:0:0:
188,136,355106,1,0,0:0:0:0:
188,136,355166,1,0,0:0:0:0:
188,136,355226,1,0,0:0:0:0:
188,136,355286,1,2,0:0:0:0:
324,256,355406,1,2,0:0:0:0:
324,256,355526,1,0,0:0:0:0:
264,200,355646,1,0,0:0:0:0:
264,200,355706,1,0,0:0:0:0:
264,200,355766,1,2,0:0:0:0:
292,288,355886,1,0,0:0:0:0:
144,200,356006,1,0,0:0:0:0:
292,288,356126,1,0,0:0:0:0:
348,292,356186,1,0,0:0:0:0:
348,292,356246,1,2,0:0:0:0:
312,316,356366,1,0,0:0:0:0:
312,316,356486,1,0,0:0:0:0:
312,308,356606,1,0,0:0:0:0:
312,304,356666,1,0,0:0:0:0:
312,304,356726,1,2,0:0:0:0:
312,304,356846,1,0,0:0:0:0:
312,304,356966,1,2,0:0:0:0:
256,236,357086,1,0,0:0:0:0:
180,256,357206,1,2,0:0:0:0:
180,256,357266,1,0,0:0:0:0:
180,260,357326,1,0,0:0:0:0:
180,264,357386,1,0,0:0:0:0:
224,180,357446,1,2,0:0:0:0:
288,220,357566,1,0,0:0:0:0:
288,220,357686,1,2,0:0:0:0:
288,220,357746,1,0,0:0:0:0:
284,224,357806,1,0,0:0:0:0:
288,224,357866,1,0,0:0:0:0:
284,224,357926,1,2,0:0:0:0:
256,192,358046,1,0,0:0:0:0:
256,192,358166,1,2,0:0:0:0:
256,192,358226,1,0,0:0:0:0:
256,192,358286,1,0,0:0:0:0:
256,192,358346,1,0,0:0:0:0:
256,192,358406,1,2,0:0:0:0:
268,268,358526,1,0,0:0:0:0:
268,268,358646,1,2,0:0:0:0:
272,256,358766,1,2,0:0:0:0:
276,252,358886,1,0,0:0:0:0:
280,244,359006,1,0,0:0:0:0:
280,244,359126,1,2,0:0:0:0:
296,200,359181,1,2,0:0:0:0:
316,208,359237,1,2,0:0:0:0:
316,208,359292,1,2,0:0:0:0:
312,208,359348,1,0,0:0:0:0:
312,208,359459,1,0,0:0:0:0:
312,208,359570,1,2,0:0:0:0:
272,256,359681,1,0,0:0:0:0:
272,256,359737,1,0,0:0:0:0:
268,256,359792,1,0,0:0:0:0:
268,256,359903,1,0,0:0:0:0:
272,256,360014,1,2,0:0:0:0:
268,272,360070,1,2,0:0:0:0:
264,272,360126,1,0,0:0:0:0:
264,272,360181,1,0,0:0:0:0:
264,272,360237,1,2,0:0:0:0:
280,268,360348,1,0,0:0:0:0:
280,268,360403,1,0,0:0:0:0:
280,268,360459,1,2,0:0:0:0:
280,268,360514,1,0,0:0:0:0:
280,268,360570,1,2,0:0:0:0:
280,268,360626,1,2,0:0:0:0:
280,268,360681,1,0,0:0:0:0:
280,268,360737,1,0,0:0:0:0:
280,268,360792,1,2,0:0:0:0:
280,268,360848,1,0,0:0:0:0:
280,268,360903,1,2,0:0:0:0:
232,256,361014,1,0,0:0:0:0:
232,256,361126,1,2,0:0:0:0:
316,316,361181,1,2,0:0:0:0:
232,256,361237,1,0,0:0:0:0:
236,252,361348,1,2,0:0:0:0:
312,332,361403,1,2,0:0:0:0:
312,332,361459,1,0,0:0:0:0:
312,328,361514,1,0,0:0:0:0:
312,328,361570,1,2,0:0:0:0:
312,324,361681,1,0,0:0:0:0:
308,320,361792,1,2,0:0:0:0:
300,320,361848,1,2,0:0:0:0:
288,296,361903,1,0,0:0:0:0:
260,200,361959,1,2,0:0:0:0:
288,296,362014,1,0,0:0:0:0:
288,296,362070,1,0,0:0:0:0:
288,296,362126,1,2,0:0:0:0:
288,300,362237,1,2,0:0:0:0:
304,276,362292,1,2,0:0:0:0:
304,276,362348,1,0,0:0:0:0:
308,280,362403,1,2,0:0:0:0:
304,280,362459,1,0,0:0:0:0:
304,280,362514,1,0,0:0:0:0:
304,276,362570,1,2,0:0:0:0:
304,276,362626,1,2,0:0:0:0:
304,276,362681,1,0,0:0:0:0:
272,260,362792,1,0,0:0:0:0:
272,260,362903,1,2,0:0:0:0:
272,260,363014,1,0,0:0:0:0:
272,252,363070,1,0,0:0:0:0:
268,244,363126,1,0,0:0:0:0:
264,240,363237,1,0,0:0:0:0:
264,240,363348,1,2,0:0:0:0:
312,328,363459,1,0,0:0:0:0:
312,328,363514,1,0,0:0:0:0:
312,328,363570,1,2,0:0:0:0:
280,288,363681,1,0,0:0:0:0:
272,280,363792,1,2,0:0:0:0:
272,280,363848,1,0,0:0:0:0:
272,280,363903,1,0,0:0:0:0:
272,276,363959,1,0,0:0:0:0:
272,276,364014,1,2,0:0:0:0:
272,268,364126,1,0,0:0:0:0:
272,272,364237,1,2,0:0:0:0:
276,268,364348,1,0,0:0:0:0:
276,268,364403,1,0,0:0:0:0:
280,268,364459,1,2,0:0:0:0:
272,276,364570,1,0,0:0:0:0:
272,276,364681,1,2,0:0:0:0:
272,276,364792,1,0,0:0:0:0:
272,272,364848,1,0,0:0:0:0:
272,272,364903,1,0,0:0:0:0:
272,272,365014,1,0,0:0:0:0:
276,268,365070,1,0,0:0:0:0:
268,268,365126,1,2,0:0:0:0:
268,268,365181,1,0,0:0:0:0:
268,268,365237,1,0,0:0:0:0:
312,276,365348,1,2,0:0:0:0:
276,228,365403,1,2,0:0:0:0:
276,228,365459,1,2,0:0:0:0:
276,228,365514,1,2,0:0:0:0:
272,220,365570,1,0,0:0:0:0:
268,216,365626,1,2,0:0:0:0:
268,216,365681,1,0,0:0:0:0:
264,216,365737,1,0,0:0:0:0:
264,212,365792,1,2,0:0:0:0:
264,212,365848,1,0,0:0:0:0:
264,208,365903,1,2,0:0:0:0:
264,208,365959,1,2,0:0:0:0:
264,208,366014,1,0,0:0:0:0:
264,204,366070,1,0,0:0:0:0:
264,204,366126,1,2,0:0:0:0:
264,204,366181,1,0,0:0:0:0:
312,296,366237,1,2,0:0:0:0:
256,248,366348,1,0,0:0:0:0:
252,256,366459,1,2,0:0:0:0:
248,252,366570,1,0,0:0:0:0:
244,252,366626,1,0,0:0:0:0:
240,252,366681,1,0,0:0:0:0:
240,252,366792,1,0,0:0:0:0:
240,252,366903,1,2,0:0:0:0:
228,248,366959,1,0,0:0:0:0:
224,248,367014,1,0,0:0:0:0:
224,252,367126,1,2,0:0:0:0:
300,296,367181,1,2,0:0:0:0:
304,268,367237,1,2,0:0:0:0:
296,264,367292,1,2,0:0:0:0:
296,264,367348,1,0,0:0:0:0:
296,264,367403,1,2,0:0:0:0:
296,256,367459,1,0,0:0:0:0:
276,260,367514,1,0,0:0:0:0:
276,260,367570,1,2,0:0:0:0:
276,260,367626,1,0,0:0:0:0:
276,260,367681,1,2,0:0:0:0:
276,260,367737,1,2,0:0:0:0:
280,256,367792,1,0,0:0:0:0:
284,256,367848,1,0,0:0:0:0:
292,248,367903,1,2,0:0:0:0:
296,248,367959,1,0,0:0:0:0:
300,244,368014,1,2,0:0:0:0:
248,264,368126,1,0,0:0:0:0:
248,264,368237,1,2,0:0:0:0:
304,312,368292,1,2,0:0:0:0:
296,304,368348,1,0,0:0:0:0:
296,304,368459,1,2,0:0:0:0:
288,300,368570,1,0,0:0:0:0:
208,192,368681,1,2,0:0:0:0:
212,192,368792,1,0,0:0:0:0:
284,292,368903,1,2,0:0:0:0:
284,292,368959,1,0,0:0:0:0:
280,288,369014,1,0,0:0:0:0:
280,288,369070,1,0,0:0:0:0:
284,284,369125,1,2,0:0:0:0:
296,312,369236,1,0,0:0:0:0:
296,312,369348,1,2,0:0:0:0:
296,308,369403,1,0,0:0:0:0:
296,308,369459,1,0,0:0:0:0:
292,308,369514,1,0,0:0:0:0:
292,304,369570,1,2,0:0:0:0:
292,304,369681,1,0,0:0:0:0:
292,296,369792,1,2,0:0:0:0:
292,296,369848,1,0,0:0:0:0:
288,296,369903,1,0,0:0:0:0:
284,296,369959,1,0,0:0:0:0:
284,296,370014,1,2,0:0:0:0:
296,244,370126,1,0,0:0:0:0:
296,244,370181,1,0,0:0:0:0:
296,244,370237,1,2,0:0:0:0:
292,264,370292,1,0,0:0:0:0:
292,264,370348,1,2,0:0:0:0:
292,264,370459,1,2,0:0:0:0:
284,256,370570,1,0,0:0:0:0:
284,256,370681,1,2,0:0:0:0:
284,256,370737,1,2,0:0:0:0:
284,252,370792,1,0,0:0:0:0:
284,252,370848,1,0,0:0:0:0:
284,252,370903,1,2,0:0:0:0:
284,252,371014,1,0,0:0:0:0:
284,252,371126,1,2,0:0:0:0:
288,268,371181,1,0,0:0:0:0:
284,252,371237,1,0,0:0:0:0:
284,256,371292,1,0,0:0:0:0:
284,256,371348,1,2,0:0:0:0:
284,248,371459,1,2,0:0:0:0:
284,252,371570,1,0,0:0:0:0:
284,252,371626,1,2,0:0:0:0:
284,252,371681,1,0,0:0:0:0:
284,252,371737,1,0,0:0:0:0:
276,316,371792,1,2,0:0:0:0:
352,236,371903,1,0,0:0:0:0:
352,236,372014,1,2,0:0:0:0:
264,244,372070,1,0,0:0:0:0:
264,240,372126,1,0,0:0:0:0:
264,240,372181,1,0,0:0:0:0:
264,240,372237,1,2,0:0:0:0:
264,236,372292,1,0,0:0:0:0:
268,232,372348,1,2,0:0:0:0:
272,228,372403,1,2,0:0:0:0:
272,228,372459,1,0,0:0:0:0:
268,228,372514,1,0,0:0:0:0:
288,216,372570,1,0,0:0:0:0:
288,216,372626,1,0,0:0:0:0:
288,216,372681,1,2,0:0:0:0:
288,208,372737,1,2,0:0:0:0:
288,208,372792,1,2,0:0:0:0:
288,208,372848,1,2,0:0:0:0:
292,296,372903,1,0,0:0:0:0:
288,296,373014,1,0,0:0:0:0:
284,296,373070,1,0,0:0:0:0:
284,296,373125,1,2,0:0:0:0:
296,244,373237,1,0,0:0:0:0:
296,244,373292,1,0,0:0:0:0:
296,244,373348,1,2,0:0:0:0:
292,264,373403,1,0,0:0:0:0:
292,264,373459,1,2,0:0:0:0:
292,264,373570,1,2,0:0:0:0:
284,256,373681,1,0,0:0:0:0:
284,256,373792,1,2,0:0:0:0:
284,256,373848,1,2,0:0:0:0:
284,252,373903,1,0,0:0:0:0:
284,252,373959,1,0,0:0:0:0:
284,252,374014,1,2,0:0:0:0:
284,252,374125,1,0,0:0:0:0:
284,252,374237,1,2,0:0:0:0:
288,268,374292,1,0,0:0:0:0:
284,252,374348,1,0,0:0:0:0:
284,256,374403,1,0,0:0:0:0:
284,256,374459,1,2,0:0:0:0:
284,248,374570,1,2,0:0:0:0:
284,252,374681,1,0,0:0:0:0:
284,252,374737,1,2,0:0:0:0:
284,252,374792,1,0,0:0:0:0:
284,252,374848,1,0,0:0:0:0:
276,316,374903,1,2,0:0:0:0:
352,236,375014,1,0,0:0:0:0:
336,252,375126,1,2,0:0:0:0:
300,268,375237,1,0,0:0:0:0:
308,320,375292,1,0,0:0:0:0:
280,248,375348,1,2,0:0:0:0:
276,248,375403,1,2,0:0:0:0:
256,244,375459,1,2,0:0:0:0:
260,240,375514,1,2,0:0:0:0:
260,236,375570,1,0,0:0:0:0:
260,236,375626,1,0,0:0:0:0:
260,236,375681,1,0,0:0:0:0:
260,232,375737,1,0,0:0:0:0:
256,232,375792,1,2,0:0:0:0:
260,232,375848,1,2,0:0:0:0:
260,228,375903,1,2,0:0:0:0:
260,228,375959,1,2,0:0:0:0:
292,296,376014,1,0,0:0:0:0:
288,296,376125,1,0,0:0:0:0:
284,296,376181,1,0,0:0:0:0:
284,296,376236,1,2,0:0:0:0:
296,244,376348,1,0,0:0:0:0:
296,244,376403,1,0,0:0:0:0:
296,244,376459,1,2,0:0:0:0:
292,264,376514,1,0,0:0:0:0:
292,264,376570,1,2,0:0:0:0:
292,264,376681,1,2,0:0:0:0:
284,256,376792,1,0,0:0:0:0:
284,256,376903,1,2,0:0:0:0:
284,256,376959,1,2,0:0:0:0:
284,252,377014,1,0,0:0:0:0:
284,252,377070,1,0,0:0:0:0:
284,252,377125,1,2,0:0:0:0:
284,252,377236,1,0,0:0:0:0:
284,252,377348,1,2,0:0:0:0:
288,268,377403,1,0,0:0:0:0:
284,252,377459,1,0,0:0:0:0:
284,256,377514,1,0,0:0:0:0:
284,256,377570,1,2,0:0:0:0:
284,248,377681,1,2,0:0:0:0:
284,252,377792,1,0,0:0:0:0:
284,252,377848,1,2,0:0:0:0:
284,252,377903,1,0,0:0:0:0:
284,252,377959,1,0,0:0:0:0:
276,316,378014,1,2,0:0:0:0:
352,236,378125,1,0,0:0:0:0:
352,236,378236,1,2,0:0:0:0:
264,244,378292,1,0,0:0:0:0:
264,240,378348,1,0,0:0:0:0:
264,240,378403,1,0,0:0:0:0:
264,240,378459,1,2,0:0:0:0:
264,236,378514,1,0,0:0:0:0:
268,232,378570,1,2,0:0:0:0:
272,228,378625,1,2,0:0:0:0:
272,228,378681,1,0,0:0:0:0:
268,228,378736,1,0,0:0:0:0:
288,216,378792,1,0,0:0:0:0:
288,216,378848,1,0,0:0:0:0:
288,216,378903,1,2,0:0:0:0:
288,208,378959,1,2,0:0:0:0:
288,208,379014,1,2,0:0:0:0:
288,208,379070,1,2,0:0:0:0:
292,296,379126,1,0,0:0:0:0:
288,296,379237,1,2,0:0:0:0:
284,296,379293,1,0,0:0:0:0:
284,296,379348,1,2,0:0:0:0:
296,244,379460,1,0,0:0:0:0:
296,244,379515,1,0,0:0:0:0:
296,244,379571,1,2,0:0:0:0:
292,264,379626,1,0,0:0:0:0:
292,264,379682,1,2,0:0:0:0:
292,264,379793,1,2,0:0:0:0:
284,256,379904,1,0,0:0:0:0:
284,256,380015,1,2,0:0:0:0:
284,256,380071,1,2,0:0:0:0:
284,252,380126,1,0,0:0:0:0:
284,252,380182,1,0,0:0:0:0:
284,252,380237,1,2,0:0:0:0:
284,252,380348,1,0,0:0:0:0:
284,252,380460,1,2,0:0:0:0:
288,268,380515,1,0,0:0:0:0:
284,252,380571,1,0,0:0:0:0:
284,256,380626,1,0,0:0:0:0:
284,256,380682,1,2,0:0:0:0:
284,248,380793,1,2,0:0:0:0:
284,252,380904,1,0,0:0:0:0:
284,252,380960,1,2,0:0:0:0:
284,252,381015,1,0,0:0:0:0:
284,252,381071,1,0,0:0:0:0:
276,316,381126,1,2,0:0:0:0:
352,236,381237,1,0,0:0:0:0:
204,208,381292,1,0,0:0:0:0:
352,236,381348,1,2,0:0:0:0:
264,244,381404,1,0,0:0:0:0:
264,240,381460,1,0,0:0:0:0:
264,240,381515,1,0,0:0:0:0:
264,240,381571,1,2,0:0:0:0:
264,236,381626,1,0,0:0:0:0:
268,232,381682,1,2,0:0:0:0:
272,228,381737,1,2,0:0:0:0:
272,228,381793,1,0,0:0:0:0:
268,228,381848,1,0,0:0:0:0:
288,216,381904,1,0,0:0:0:0:
288,216,381960,1,0,0:0:0:0:
288,216,382015,1,2,0:0:0:0:
288,208,382071,1,2,0:0:0:0:
288,208,382126,1,2,0:0:0:0:
288,208,382182,1,2,0:0:0:0:
288,208,382237,1,0,0:0:0:0:
344,332,382665,1,4,0:0:0:0:
296,236,383094,1,4,0:0:0:0:
276,256,383522,1,4,0:0:0:0:
320,284,383951,1,4,0:0:0:0:
352,336,384379,1,4,0:0:0:0:
336,316,384808,1,4,0:0:0:0:
308,336,385237,1,6,0:0:0:0:
416,220,385665,1,0,0:0:0:0:
408,224,385772,1,0,0:0:0:0:
400,228,385879,1,0,0:0:0:0:
380,232,385987,1,0,0:0:0:0:
392,232,386094,1,2,0:0:0:0:
256,188,386522,1,0,0:0:0:0:
308,184,386629,1,0,0:0:0:0:
308,184,386737,1,2,0:0:0:0:
308,184,386844,1,0,0:0:0:0:
308,184,386951,1,2,0:0:0:0:
288,196,387058,1,2,0:0:0:0:
288,200,387165,1,2,0:0:0:0:
280,200,387272,1,2,0:0:0:0:
288,196,387379,1,0,0:0:0:0:
284,260,387808,1,2,0:0:0:0:
284,260,388022,1,2,0:0:0:0:
284,260,388237,1,0,0:0:0:0:
304,268,388344,1,0,0:0:0:0:
304,268,388451,1,2,0:0:0:0:
300,268,388558,1,0,0:0:0:0:
292,256,388665,1,2,0:0:0:0:
292,256,388772,1,0,0:0:0:0:
292,256,388879,1,0,0:0:0:0:
296,256,388987,1,0,0:0:0:0:
296,256,389094,1,2,0:0:0:0:
324,320,389522,1,2,0:0:0:0:
296,252,389737,1,0,0:0:0:0:
296,256,389844,1,0,0:0:0:0:
296,252,389951,1,2,0:0:0:0:
220,200,390165,1,0,0:0:0:0:
284,224,390379,1,2,0:0:0:0:
264,248,390487,1,2,0:0:0:0:
264,248,390594,1,0,0:0:0:0:
268,248,390701,1,0,0:0:0:0:
272,248,390808,1,2,0:0:0:0:
340,256,391237,1,0,0:0:0:0:
252,240,391665,1,2,0:0:0:0:
308,252,392094,1,2,0:0:0:0:
344,204,392522,1,0,0:0:0:0:
344,204,392629,1,0,0:0:0:0:
336,208,392737,1,0,0:0:0:0:
336,204,392844,1,0,0:0:0:0:
336,204,392951,1,2,0:0:0:0:
300,252,393379,1,0,0:0:0:0:
300,252,393487,1,0,0:0:0:0:
308,248,393594,1,2,0:0:0:0:
312,244,393701,1,0,0:0:0:0:
312,240,393808,1,2,0:0:0:0:
312,240,393915,1,2,0:0:0:0:
312,240,394022,1,2,0:0:0:0:
312,236,394129,1,2,0:0:0:0:
308,236,394237,1,0,0:0:0:0:
324,292,394344,1,0,0:0:0:0:
328,288,394451,1,0,0:0:0:0:
320,296,394558,1,0,0:0:0:0:
316,292,394665,1,2,0:0:0:0:
352,244,395094,1,0,0:0:0:0:
352,244,395201,1,0,0:0:0:0:
332,232,395308,1,2,0:0:0:0:
332,232,395415,1,0,0:0:0:0:
332,232,395522,1,2,0:0:0:0:
328,228,395629,1,2,0:0:0:0:
328,228,395737,1,0,0:0:0:0:
324,228,395844,1,0,0:0:0:0:
324,232,395951,1,2,0:0:0:0:
316,204,396022,1,2,0:0:0:0:
312,192,396094,1,2,0:0:0:0:
316,188,396165,1,2,0:0:0:0:
316,188,396237,1,2,0:0:0:0:
312,184,396308,1,2,0:0:0:0:
312,184,396379,1,0,0:0:0:0:
312,180,396451,1,0,0:0:0:0:
312,176,396522,1,0,0:0:0:0:
312,176,396594,1,0,0:0:0:0:
312,176,396665,1,0,0:0:0:0:
312,176,396737,1,0,0:0:0:0:
312,172,396808,1,2,0:0:0:0:
312,168,396879,1,2,0:0:0:0:
312,164,396951,1,0,0:0:0:0:
308,168,397022,1,0,0:0:0:0:
308,168,397094,1,2,0:0:0:0:
312,164,397165,1,0,0:0:0:0:
308,164,397237,1,2,0:0:0:0:
264,160,397308,1,2,0:0:0:0:
264,160,397379,1,2,0:0:0:0:
264,160,397451,1,2,0:0:0:0:
280,144,397522,1,0,0:0:0:0:
320,208,397594,1,2,0:0:0:0:
316,212,397665,1,0,0:0:0:0:
424,212,397879,1,0,0:0:0:0:
452,216,397987,1,0,0:0:0:0:
452,216,398094,1,2,0:0:0:0:
320,268,398308,1,0,0:0:0:0:
328,264,398415,1,0,0:0:0:0:
328,264,398522,1,2,0:0:0:0:
328,284,398737,1,0,0:0:0:0:
340,124,398808,1,0,0:0:0:0:
328,180,398879,1,0,0:0:0:0:
328,180,398951,1,2,0:0:0:0:
324,296,399379,1,0,0:0:0:0:
288,264,399454,1,0,0:0:0:0:
288,264,399561,1,2,0:0:0:0:
288,264,399668,1,0,0:0:0:0:
288,264,399775,1,0,0:0:0:0:
288,264,399882,1,2,0:0:0:0:
332,324,399989,1,0,0:0:0:0:
332,324,400096,1,0,0:0:0:0:
332,324,400204,1,2,0:0:0:0:
336,324,400665,1,2,0:0:0:0:
352,348,401093,1,0,0:0:0:0:
344,336,401200,1,0,0:0:0:0:
344,324,401307,1,0,0:0:0:0:
340,328,401415,1,0,0:0:0:0:
336,320,401522,1,0,0:0:0:0:
336,320,401629,1,0,0:0:0:0:
336,320,401736,1,0,0:0:0:0:
336,320,401843,1,0,0:0:0:0:
328,328,401950,1,0,0:0:0:0:
336,324,402057,1,0,0:0:0:0:
340,328,402165,1,0,0:0:0:0:
344,328,402272,1,0,0:0:0:0:
344,340,402379,1,0,0:0:0:0:
344,340,402486,1,0,0:0:0:0:
344,340,402593,1,0,0:0:0:0:
344,340,402700,1,0,0:0:0:0:
344,340,402807,1,2,0:0:0:0:
256,208,402915,1,0,0:0:0:0:
252,212,403022,1,0,0:0:0:0:
252,212,403129,1,0,0:0:0:0:
252,212,403236,1,0,0:0:0:0:
252,212,403343,1,0,0:0:0:0:
252,212,403450,1,0,0:0:0:0:
248,212,403557,1,0,0:0:0:0:
312,304,403665,1,0,0:0:0:0:
312,304,403772,1,0,0:0:0:0:
320,308,403879,1,0,0:0:0:0:
320,308,403986,1,0,0:0:0:0:
328,312,404093,1,2,0:0:0:0:
328,312,404200,1,0,0:0:0:0:
328,312,404307,1,0,0:0:0:0:
328,312,404415,1,0,0:0:0:0:
328,312,404522,1,2,0:0:0:0:
320,328,404629,1,0,0:0:0:0:
312,312,404736,1,2,0:0:0:0:
316,320,404843,1,0,0:0:0:0:
312,308,404950,1,2,0:0:0:0:
288,316,405057,1,0,0:0:0:0:
288,316,405165,1,0,0:0:0:0:
288,320,405272,1,0,0:0:0:0:
296,320,405379,1,0,0:0:0:0:
292,320,405486,1,0,0:0:0:0:
300,328,405593,1,0,0:0:0:0:
296,320,405700,1,0,0:0:0:0:
300,328,405807,1,0,0:0:0:0:
312,332,405915,1,0,0:0:0:0:
316,332,406022,1,0,0:0:0:0:
316,332,406129,1,0,0:0:0:0:
316,332,406236,1,2,0:0:0:0:
340,352,406343,1,0,0:0:0:0:
340,352,406450,1,0,0:0:0:0:
340,352,406557,1,0,0:0:0:0:
332,200,406665,1,0,0:0:0:0:
332,200,406772,1,0,0:0:0:0:
332,192,406879,1,0,0:0:0:0:
332,192,406986,1,0,0:0:0:0:
304,272,407093,1,2,0:0:0:0:
304,272,407200,1,2,0:0:0:0:
304,264,407307,1,0,0:0:0:0:
304,264,407415,1,0,0:0:0:0:
300,264,407522,1,2,0:0:0:0:
328,340,407629,1,0,0:0:0:0:
328,340,407736,1,0,0:0:0:0:
312,324,407843,1,0,0:0:0:0:
312,324,407950,1,2,0:0:0:0:
328,272,408057,1,0,0:0:0:0:
324,268,408165,1,0,0:0:0:0:
336,272,408272,1,0,0:0:0:0:
336,272,408379,1,0,0:0:0:0:
336,272,408486,1,0,0:0:0:0:
336,272,408593,1,0,0:0:0:0:
344,268,408700,1,0,0:0:0:0:
344,268,408807,1,0,0:0:0:0:
344,268,408915,1,0,0:0:0:0:
344,268,409022,1,0,0:0:0:0:
352,268,409129,1,0,0:0:0:0:
352,268,409236,1,0,0:0:0:0:
352,268,409343,1,0,0:0:0:0:
352,268,409450,1,0,0:0:0:0:
352,268,409557,1,0,0:0:0:0:
352,268,409665,1,2,0:0:0:0:
288,292,409772,1,0,0:0:0:0:
296,284,409879,1,0,0:0:0:0:
300,280,409986,1,0,0:0:0:0:
304,264,410093,1,0,0:0:0:0:
312,260,410200,1,0,0:0:0:0:
312,256,410307,1,0,0:0:0:0:
312,256,410415,1,0,0:0:0:0:
324,248,410522,1,0,0:0:0:0:
324,248,410629,1,0,0:0:0:0:
324,248,410736,1,0,0:0:0:0:
320,248,410843,1,0,0:0:0:0:
320,248,410950,1,2,0:0:0:0:
296,276,411057,1,0,0:0:0:0:
296,272,411165,1,0,0:0:0:0:
300,272,411272,1,0,0:0:0:0:
296,276,411379,1,2,0:0:0:0:
344,328,411486,1,0,0:0:0:0:
344,312,411593,1,0,0:0:0:0:
344,312,411700,1,0,0:0:0:0:
344,304,411807,1,2,0:0:0:0:
344,300,411915,1,0,0:0:0:0:
344,304,412022,1,0,0:0:0:0:
344,300,412129,1,0,0:0:0:0:
248,192,412236,1,0,0:0:0:0:
248,192,412343,1,0,0:0:0:0:
248,184,412450,1,0,0:0:0:0:
248,192,412557,1,0,0:0:0:0:
312,296,412665,1,2,0:0:0:0:
312,292,412772,1,0,0:0:0:0:
312,288,412879,1,2,0:0:0:0:
312,280,412986,1,2,0:0:0:0:
308,276,413093,1,0,0:0:0:0:
312,296,413200,1,0,0:0:0:0:
312,296,413307,1,0,0:0:0:0:
304,292,413415,1,0,0:0:0:0:
304,288,413522,1,2,0:0:0:0:
300,280,413629,1,2,0:0:0:0:
300,276,413736,1,2,0:0:0:0:
300,276,413843,1,2,0:0:0:0:
304,276,413950,1,0,0:0:0:0:
312,240,414057,1,0,0:0:0:0:
312,240,414165,1,0,0:0:0:0:
308,236,414272,1,0,0:0:0:0:
308,236,414379,1,2,0:0:0:0:
308,236,414486,1,0,0:0:0:0:
308,236,414593,1,0,0:0:0:0:
308,224,414700,1,0,0:0:0:0:
308,224,414807,1,2,0:0:0:0:
316,328,414915,1,0,0:0:0:0:
316,328,415022,1,0,0:0:0:0:
308,328,415129,1,0,0:0:0:0:
316,328,415236,1,2,0:0:0:0:
364,336,415343,1,0,0:0:0:0:
364,336,415450,1,0,0:0:0:0:
364,336,415557,1,0,0:0:0:0:
364,336,415665,1,0,0:0:0:0:
360,328,415772,1,0,0:0:0:0:
356,328,415879,1,0,0:0:0:0:
356,328,415986,1,0,0:0:0:0:
268,224,416093,1,2,0:0:0:0:
344,352,416200,1,0,0:0:0:0:
344,352,416307,1,2,0:0:0:0:
344,352,416415,1,0,0:0:0:0:
344,352,416522,1,2,0:0:0:0:
328,352,416629,1,0,0:0:0:0:
336,344,416736,1,0,0:0:0:0:
344,344,416843,1,0,0:0:0:0:
352,344,416950,1,0,0:0:0:0:
356,344,417057,1,0,0:0:0:0:
356,344,417165,1,0,0:0:0:0:
352,340,417272,1,0,0:0:0:0:
352,340,417379,1,0,0:0:0:0:
352,336,417486,1,0,0:0:0:0:
352,336,417593,1,0,0:0:0:0:
352,332,417700,1,0,0:0:0:0:
352,328,417807,1,2,0:0:0:0:
208,200,417915,1,0,0:0:0:0:
208,200,418022,1,2,0:0:0:0:
208,200,418129,1,0,0:0:0:0:
212,208,418236,1,2,0:0:0:0:
276,228,418343,1,0,0:0:0:0:
276,228,418450,1,0,0:0:0:0:
276,228,418557,1,0,0:0:0:0:
276,228,418665,1,0,0:0:0:0:
276,228,418772,1,0,0:0:0:0:
276,228,418879,1,0,0:0:0:0:
276,228,418986,1,0,0:0:0:0:
276,228,419093,1,0,0:0:0:0:
276,228,419200,1,0,0:0:0:0:
276,228,419307,1,0,0:0:0:0:
276,228,419415,1,0,0:0:0:0:
348,304,419522,1,2,0:0:0:0:
336,344,419629,1,0,0:0:0:0:
336,344,419736,1,2,0:0:0:0:
336,344,419843,1,0,0:0:0:0:
336,344,419950,1,2,0:0:0:0:
284,300,420057,1,0,0:0:0:0:
284,300,420165,1,0,0:0:0:0:
284,300,420272,1,0,0:0:0:0:
284,300,420379,1,0,0:0:0:0:
284,300,420486,1,0,0:0:0:0:
284,300,420593,1,0,0:0:0:0:
300,316,420700,1,0,0:0:0:0:
332,328,420807,1,2,0:0:0:0:
228,240,420879,1,2,0:0:0:0:
228,240,420950,1,2,0:0:0:0:
184,176,421022,1,2,0:0:0:0:
184,180,421093,1,2,0:0:0:0:
184,180,421165,1,2,0:0:0:0:
184,180,421236,1,2,0:0:0:0:
184,176,421307,1,2,0:0:0:0:
184,176,421379,1,2,0:0:0:0:
184,176,421450,1,2,0:0:0:0:
192,216,421522,1,2,0:0:0:0:
192,216,421593,1,2,0:0:0:0:
192,216,421665,1,0,0:0:0:0:
272,272,421772,1,0,0:0:0:0:
276,272,421879,1,0,0:0:0:0:
276,272,421986,1,0,0:0:0:0:
280,272,422093,1,2,0:0:0:0:
328,324,422200,1,0,0:0:0:0:
328,324,422307,1,0,0:0:0:0:
324,312,422415,1,0,0:0:0:0:
324,312,422522,1,0,0:0:0:0:
324,312,422629,1,0,0:0:0:0:
320,304,422736,1,0,0:0:0:0:
320,304,422843,1,0,0:0:0:0:
320,304,422950,1,2,0:0:0:0:
332,284,423057,1,0,0:0:0:0:
332,284,423165,1,2,0:0:0:0:
328,280,423272,1,0,0:0:0:0:
328,280,423379,1,2,0:0:0:0:
304,268,423486,1,0,0:0:0:0:
304,268,423593,1,0,0:0:0:0:
304,268,423700,1,0,0:0:0:0:
304,268,423807,1,0,0:0:0:0:
304,268,423915,1,0,0:0:0:0:
304,268,424022,1,0,0:0:0:0:
288,264,424129,1,0,0:0:0:0:
328,312,424236,1,2,0:0:0:0:
288,264,424343,1,0,0:0:0:0:
288,264,424450,1,0,0:0:0:0:
292,264,424557,1,0,0:0:0:0:
356,340,424665,1,2,0:0:0:0:
292,264,424772,1,0,0:0:0:0:
260,176,424879,1,2,0:0:0:0:
292,264,424986,1,0,0:0:0:0:
264,172,425093,1,2,0:0:0:0:
292,264,425200,1,0,0:0:0:0:
292,264,425307,1,0,0:0:0:0:
296,260,425415,1,0,0:0:0:0:
296,260,425522,1,0,0:0:0:0:
296,260,425629,1,0,0:0:0:0:
296,260,425736,1,0,0:0:0:0:
300,256,425843,1,0,0:0:0:0:
296,256,425950,1,0,0:0:0:0:
296,256,426057,1,0,0:0:0:0:
296,260,426165,1,0,0:0:0:0:
296,260,426272,1,0,0:0:0:0:
332,336,426379,1,2,0:0:0:0:
296,260,426486,1,0,0:0:0:0:
368,320,426593,1,2,0:0:0:0:
296,256,426700,1,0,0:0:0:0:
368,320,426807,1,2,0:0:0:0:
296,260,426915,1,0,0:0:0:0:
296,260,427022,1,0,0:0:0:0:
296,260,427129,1,0,0:0:0:0:
296,260,427236,1,0,0:0:0:0:
296,256,427343,1,0,0:0:0:0:
296,256,427450,1,0,0:0:0:0:
296,260,427557,1,0,0:0:0:0:
340,344,427665,1,2,0:0:0:0:
344,360,428093,1,4,0:0:0:0:
256,176,428522,1,2,0:0:0:0:
352,228,428584,1,2,0:0:0:0:
348,232,428647,1,0,0:0:0:0:
348,232,428709,1,0,0:0:0:0:
352,228,428772,1,2,0:0:0:0:
336,268,428834,1,2,0:0:0:0:
336,268,428897,1,2,0:0:0:0:
336,268,428959,1,2,0:0:0:0:
336,260,429022,1,0,0:0:0:0:
324,300,429084,1,0,0:0:0:0:
324,300,429147,1,0,0:0:0:0:
324,300,429209,1,0,0:0:0:0:
324,300,429272,1,2,0:0:0:0:
324,296,429334,1,2,0:0:0:0:
324,292,429397,1,0,0:0:0:0:
324,292,429459,1,0,0:0:0:0:
324,292,429522,1,2,0:0:0:0:
312,288,429584,1,0,0:0:0:0:
308,288,429647,1,2,0:0:0:0:
308,288,429709,1,2,0:0:0:0:
308,288,429772,1,0,0:0:0:0:
308,284,429834,1,0,0:0:0:0:
308,284,429897,1,2,0:0:0:0:
308,288,429959,1,2,0:0:0:0:
308,284,430022,1,0,0:0:0:0:
304,284,430084,1,0,0:0:0:0:
304,280,430147,1,0,0:0:0:0:
300,280,430209,1,0,0:0:0:0:
316,296,430272,1,0,0:0:0:0:
316,296,430334,1,0,0:0:0:0:
316,292,430397,1,2,0:0:0:0:
316,288,430459,1,2,0:0:0:0:
328,332,430522,1,2,0:0:0:0:
328,332,430584,1,2,0:0:0:0:
328,324,430647,1,2,0:0:0:0:
328,320,430709,1,2,0:0:0:0:
328,320,430772,1,2,0:0:0:0:
352,352,430834,1,2,0:0:0:0:
352,352,430897,1,2,0:0:0:0:
352,352,430959,1,2,0:0:0:0:
336,332,431022,1,2,0:0:0:0:
336,328,431084,1,2,0:0:0:0:
336,328,431147,1,0,0:0:0:0:
336,328,431209,1,2,0:0:0:0:
332,320,431272,1,0,0:0:0:0:
332,320,431334,1,0,0:0:0:0:
332,320,431397,1,2,0:0:0:0:
332,316,431459,1,0,0:0:0:0:
332,316,431522,1,2,0:0:0:0:
332,312,431584,1,2,0:0:0:0:
332,312,431647,1,0,0:0:0:0:
332,312,431709,1,0,0:0:0:0:
332,312,431772,1,2,0:0:0:0:
336,308,431834,1,2,0:0:0:0:
336,308,431897,1,2,0:0:0:0:
332,312,431959,1,2,0:0:0:0:
332,312,432022,1,0,0:0:0:0:
292,288,432084,1,0,0:0:0:0:
292,288,432147,1,0,0:0:0:0:
292,288,432209,1,0,0:0:0:0:
292,288,432272,1,2,0:0:0:0:
296,284,432334,1,2,0:0:0:0:
296,284,432397,1,0,0:0:0:0:
296,284,432459,1,0,0:0:0:0:
296,280,432522,1,2,0:0:0:0:
336,216,432584,1,2,0:0:0:0:
336,216,432647,1,2,0:0:0:0:
336,216,432709,1,2,0:0:0:0:
336,216,432772,1,0,0:0:0:0:
336,216,432834,1,2,0:0:0:0:
340,212,432897,1,2,0:0:0:0:
340,212,432959,1,2,0:0:0:0:
340,212,433022,1,2,0:0:0:0:
340,212,433084,1,2,0:0:0:0:
340,212,433147,1,2,0:0:0:0:
340,212,433209,1,2,0:0:0:0:
340,212,433272,1,0,0:0:0:0:
328,328,433334,1,0,0:0:0:0:
328,328,433397,1,0,0:0:0:0:
328,328,433459,1,0,0:0:0:0:
328,328,433522,1,2,0:0:0:0:
308,308,433584,1,0,0:0:0:0:
308,308,433647,1,0,0:0:0:0:
308,308,433709,1,0,0:0:0:0:
308,308,433772,1,0,0:0:0:0:
304,304,433834,1,0,0:0:0:0:
304,300,433897,1,0,0:0:0:0:
300,304,433959,1,0,0:0:0:0:
296,304,434022,1,2,0:0:0:0:
296,312,434084,1,2,0:0:0:0:
288,308,434147,1,0,0:0:0:0:
292,304,434209,1,0,0:0:0:0:
312,212,434272,1,2,0:0:0:0:
312,212,434334,1,2,0:0:0:0:
312,212,434397,1,0,0:0:0:0:
316,208,434459,1,0,0:0:0:0:
316,208,434522,1,2,0:0:0:0:
308,284,434584,1,0,0:0:0:0:
308,284,434647,1,2,0:0:0:0:
308,280,434709,1,2,0:0:0:0:
308,284,434772,1,0,0:0:0:0:
308,284,434834,1,0,0:0:0:0:
308,276,434897,1,2,0:0:0:0:
308,276,434959,1,2,0:0:0:0:
308,276,435022,1,0,0:0:0:0:
308,276,435084,1,2,0:0:0:0:
308,276,435147,1,0,0:0:0:0:
312,276,435209,1,0,0:0:0:0:
312,276,435272,1,2,0:0:0:0:
312,272,435334,1,2,0:0:0:0:
312,272,435397,1,0,0:0:0:0:
312,268,435459,1,2,0:0:0:0:
308,264,435522,1,0,0:0:0:0:
308,264,435584,1,0,0:0:0:0:
312,264,435647,1,2,0:0:0:0:
312,260,435709,1,0,0:0:0:0:
312,260,435772,1,2,0:0:0:0:
316,256,435897,1,0,0:0:0:0:
316,256,435959,1,0,0:0:0:0:
316,256,436022,1,2,0:0:0:0:
344,316,436147,1,2,0:0:0:0:
344,316,436209,1,2,0:0:0:0:
344,316,436272,1,0,0:0:0:0:
344,308,436397,1,0,0:0:0:0:
344,308,436459,1,0,0:0:0:0:
344,308,436522,1,2,0:0:0:0:
248,200,436584,1,2,0:0:0:0:
248,200,436647,1,2,0:0:0:0:
248,200,436709,1,2,0:0:0:0:
248,200,436772,1,0,0:0:0:0:
320,276,436834,1,2,0:0:0:0:
320,276,436897,1,0,0:0:0:0:
316,268,436959,1,0,0:0:0:0:
308,256,437022,1,2,0:0:0:0:
308,252,437084,1,0,0:0:0:0:
304,248,437147,1,2,0:0:0:0:
304,244,437209,1,2,0:0:0:0:
304,240,437272,1,0,0:0:0:0:
304,240,437334,1,0,0:0:0:0:
304,240,437397,1,0,0:0:0:0:
304,240,437459,1,0,0:0:0:0:
308,236,437522,1,2,0:0:0:0:
308,236,437584,1,2,0:0:0:0:
304,236,437647,1,0,0:0:0:0:
296,232,437709,1,0,0:0:0:0:
296,232,437772,1,2,0:0:0:0:
296,232,437834,1,2,0:0:0:0:
296,232,437897,1,0,0:0:0:0:
296,232,437959,1,0,0:0:0:0:
296,232,438022,1,2,0:0:0:0:
324,224,438084,1,0,0:0:0:0:
324,220,438147,1,2,0:0:0:0:
324,216,438209,1,2,0:0:0:0:
324,216,438272,1,0,0:0:0:0:
324,216,438334,1,0,0:0:0:0:
320,208,438397,1,2,0:0:0:0:
320,208,438459,1,0,0:0:0:0:
320,208,438522,1,2,0:0:0:0:
312,264,438584,1,2,0:0:0:0:
312,252,438647,1,2,0:0:0:0:
312,248,438709,1,0,0:0:0:0:
316,240,438772,1,0,0:0:0:0:
316,240,438834,1,0,0:0:0:0:
316,240,438897,1,2,0:0:0:0:
312,240,438959,1,0,0:0:0:0:
312,236,439022,1,2,0:0:0:0:
312,232,439084,1,2,0:0:0:0:
312,232,439147,1,0,0:0:0:0:
312,232,439209,1,0,0:0:0:0:
312,228,439272,1,2,0:0:0:0:
312,228,439334,1,0,0:0:0:0:
312,228,439397,1,0,0:0:0:0:
304,224,439459,1,0,0:0:0:0:
304,224,439522,1,2,0:0:0:0:
320,316,439584,1,0,0:0:0:0:
320,316,439647,1,0,0:0:0:0:
324,312,439709,1,0,0:0:0:0:
320,304,439772,1,2,0:0:0:0:
320,296,439834,1,2,0:0:0:0:
320,292,439897,1,0,0:0:0:0:
320,284,439959,1,0,0:0:0:0:
332,288,440022,1,2,0:0:0:0:
208,200,440084,1,2,0:0:0:0:
208,200,440147,1,0,0:0:0:0:
208,200,440209,1,0,0:0:0:0:
208,200,440272,1,2,0:0:0:0:
268,260,440334,1,2,0:0:0:0:
264,248,440397,1,2,0:0:0:0:
264,248,440459,1,2,0:0:0:0:
268,248,440522,1,0,0:0:0:0:
316,344,440772,1,0,0:0:0:0:
312,336,440834,1,0,0:0:0:0:
312,332,440897,1,2,0:0:0:0:
332,376,440959,1,0,0:0:0:0:
324,364,441022,1,2,0:0:0:0:
324,360,441084,1,2,0:0:0:0:
324,360,441147,1,2,0:0:0:0:
320,356,441209,1,2,0:0:0:0:
316,352,441272,1,0,0:0:0:0:
308,308,441334,1,0,0:0:0:0:
312,296,441397,1,2,0:0:0:0:
312,296,441459,1,2,0:0:0:0:
312,296,441522,1,0,0:0:0:0:
312,296,441584,1,0,0:0:0:0:
312,296,441647,1,0,0:0:0:0:
308,296,441709,1,0,0:0:0:0:
308,296,441772,1,2,0:0:0:0:
288,288,441834,1,2,0:0:0:0:
288,288,441897,1,0,0:0:0:0:
284,284,441959,1,0,0:0:0:0:
284,284,442022,1,2,0:0:0:0:
284,280,442084,1,2,0:0:0:0:
280,280,442147,1,0,0:0:0:0:
280,288,442209,1,0,0:0:0:0:
280,284,442272,1,2,0:0:0:0:
328,328,442334,1,2,0:0:0:0:
328,320,442397,1,2,0:0:0:0:
328,320,442459,1,2,0:0:0:0:
324,312,442522,1,0,0:0:0:0:
320,300,442584,1,0,0:0:0:0:
316,296,442647,1,2,0:0:0:0:
320,296,442709,1,0,0:0:0:0:
328,296,442772,1,2,0:0:0:0:
328,292,442834,1,2,0:0:0:0:
328,288,442897,1,0,0:0:0:0:
328,288,442959,1,0,0:0:0:0:
328,288,443022,1,2,0:0:0:0:
328,296,443084,1,0,0:0:0:0:
332,296,443147,1,2,0:0:0:0:
336,292,443209,1,2,0:0:0:0:
336,288,443272,1,0,0:0:0:0:
336,288,443334,1,0,0:0:0:0:
336,288,443397,1,0,0:0:0:0:
332,284,443459,1,0,0:0:0:0:
332,284,443522,1,2,0:0:0:0:
324,272,443584,1,2,0:0:0:0:
324,268,443647,1,0,0:0:0:0:
328,268,443709,1,0,0:0:0:0:
328,264,443772,1,2,0:0:0:0:
324,264,443834,1,2,0:0:0:0:
324,264,443897,1,0,0:0:0:0:
324,260,443959,1,0,0:0:0:0:
324,260,444022,1,2,0:0:0:0:
344,328,444084,1,2,0:0:0:0:
344,328,444147,1,2,0:0:0:0:
340,320,444209,1,2,0:0:0:0:
340,320,444272,1,0,0:0:0:0:
324,200,444522,1,0,0:0:0:0:
324,200,444584,1,0,0:0:0:0:
328,192,444647,1,0,0:0:0:0:
328,192,444709,1,0,0:0:0:0:
328,192,444772,1,2,0:0:0:0:
328,184,444834,1,2,0:0:0:0:
328,184,444897,1,0,0:0:0:0:
328,184,444959,1,0,0:0:0:0:
328,184,445022,1,2,0:0:0:0:
332,180,445084,1,0,0:0:0:0:
332,180,445147,1,2,0:0:0:0:
332,184,445209,1,2,0:0:0:0:
332,184,445272,1,0,0:0:0:0:
332,184,445334,1,0,0:0:0:0:
328,184,445397,1,0,0:0:0:0:
328,184,445459,1,0,0:0:0:0:
328,184,445522,1,2,0:0:0:0:
300,296,445584,1,2,0:0:0:0:
304,288,445647,1,2,0:0:0:0:
304,288,445709,1,2,0:0:0:0:
304,284,445772,1,0,0:0:0:0:
320,328,445834,1,0,0:0:0:0:
320,320,445897,1,0,0:0:0:0:
320,316,445959,1,0,0:0:0:0:
308,304,446022,1,2,0:0:0:0:
308,300,446084,1,0,0:0:0:0:
308,296,446147,1,2,0:0:0:0:
308,288,446209,1,2,0:0:0:0:
304,288,446272,1,0,0:0:0:0:
224,184,446334,1,0,0:0:0:0:
224,184,446397,1,2,0:0:0:0:
224,176,446459,1,0,0:0:0:0:
224,176,446522,1,2,0:0:0:0:
232,172,446584,1,2,0:0:0:0:
232,168,446647,1,2,0:0:0:0:
232,168,446709,1,2,0:0:0:0:
232,168,446772,1,2,0:0:0:0:
224,168,446834,1,2,0:0:0:0:
220,168,446897,1,2,0:0:0:0:
220,164,446959,1,2,0:0:0:0:
220,168,447022,1,0,0:0:0:0:
212,204,447084,1,0,0:0:0:0:
256,216,447147,1,2,0:0:0:0:
256,216,447209,1,2,0:0:0:0:
256,216,447272,1,0,0:0:0:0:
256,216,447334,1,0,0:0:0:0:
256,216,447397,1,0,0:0:0:0:
256,216,447459,1,0,0:0:0:0:
256,216,447522,1,2,0:0:0:0:
316,288,447584,1,0,0:0:0:0:
316,288,447647,1,0,0:0:0:0:
316,284,447709,1,0,0:0:0:0:
312,280,447772,1,2,0:0:0:0:
312,280,447834,1,2,0:0:0:0:
312,276,447897,1,2,0:0:0:0:
312,276,447959,1,2,0:0:0:0:
316,276,448022,1,2,0:0:0:0:
288,192,448084,1,2,0:0:0:0:
296,192,448147,1,2,0:0:0:0:
296,192,448209,1,2,0:0:0:0:
296,184,448272,1,0,0:0:0:0:
296,180,448334,1,0,0:0:0:0:
296,176,448397,1,0,0:0:0:0:
296,176,448459,1,0,0:0:0:0:
296,176,448522,1,2,0:0:0:0:
324,284,448584,1,0,0:0:0:0:
320,276,448647,1,0,0:0:0:0:
316,268,448709,1,0,0:0:0:0:
316,264,448772,1,2,0:0:0:0:
328,304,448834,1,0,0:0:0:0:
328,304,448897,1,0,0:0:0:0:
328,296,448959,1,0,0:0:0:0:
360,328,449022,1,0,0:0:0:0:
360,328,449084,1,0,0:0:0:0:
364,328,449147,1,0,0:0:0:0:
364,328,449209,1,0,0:0:0:0:
368,360,449272,1,2,0:0:0:0:
364,328,449334,1,0,0:0:0:0:
364,328,449397,1,0,0:0:0:0:
368,344,449459,1,0,0:0:0:0:
368,344,449522,1,2,0:0:0:0:
312,296,449584,1,0,0:0:0:0:
312,296,449647,1,0,0:0:0:0:
316,296,449709,1,0,0:0:0:0:
316,296,449772,1,0,0:0:0:0:
252,208,449834,1,0,0:0:0:0:
236,172,449897,1,2,0:0:0:0:
252,208,449959,1,0,0:0:0:0:
252,208,450022,1,0,0:0:0:0:
304,284,450084,1,0,0:0:0:0:
304,284,450147,1,0,0:0:0:0:
304,284,450209,1,0,0:0:0:0:
308,280,450272,1,2,0:0:0:0:
308,276,450334,1,2,0:0:0:0:
308,272,450397,1,2,0:0:0:0:
308,272,450459,1,2,0:0:0:0:
308,276,450522,1,0,0:0:0:0:
168,200,450584,1,0,0:0:0:0:
168,200,450647,1,0,0:0:0:0:
168,200,450709,1,0,0:0:0:0:
168,200,450772,1,0,0:0:0:0:
176,184,450834,1,0,0:0:0:0:
232,244,450897,1,2,0:0:0:0:
236,240,450959,1,2,0:0:0:0:
304,244,451022,1,2,0:0:0:0:
308,240,451084,1,2,0:0:0:0:
308,240,451147,1,2,0:0:0:0:
308,240,451209,1,2,0:0:0:0:
68,180,451272,1,0,0:0:0:0:
316,228,451334,1,0,0:0:0:0:
316,224,451397,1,2,0:0:0:0:
316,220,451459,1,2,0:0:0:0:
312,216,451522,1,0,0:0:0:0:
312,216,451584,1,2,0:0:0:0:
324,220,451647,1,0,0:0:0:0:
324,220,451709,1,0,0:0:0:0:
368,200,451772,1,0,0:0:0:0:
368,200,451834,1,0,0:0:0:0:
368,200,451897,1,0,0:0:0:0:
360,196,451959,1,0,0:0:0:0:
356,188,452022,1,0,0:0:0:0:
356,188,452084,1,0,0:0:0:0:
356,188,452147,1,0,0:0:0:0:
356,188,452209,1,0,0:0:0:0:
356,188,452272,1,0,0:0:0:0:
356,188,452334,1,0,0:0:0:0:
356,188,452397,1,0,0:0:0:0:
360,184,452459,1,0,0:0:0:0:
356,368,452522,1,2,0:0:0:0:
264,252,452772,1,2,0:0:0:0:
264,252,452897,1,0,0:0:0:0:
264,252,453022,1,2,0:0:0:0:
264,252,453084,1,2,0:0:0:0:
264,252,453147,1,0,0:0:0:0:
268,244,453272,1,2,0:0:0:0:
280,196,453397,1,0,0:0:0:0:
312,200,453522,1,2,0:0:0:0:
312,200,453647,1,0,0:0:0:0:
312,200,453709,1,0,0:0:0:0:
312,200,453772,1,2,0:0:0:0:
320,312,453897,1,0,0:0:0:0:
320,312,453959,1,0,0:0:0:0:
320,312,454022,1,2,0:0:0:0:
320,304,454084,1,0,0:0:0:0:
320,304,454147,1,0,0:0:0:0:
320,304,454272,1,2,0:0:0:0:
320,304,454397,1,0,0:0:0:0:
320,300,454522,1,2,0:0:0:0:
320,300,454584,1,0,0:0:0:0:
320,300,454647,1,0,0:0:0:0:
320,300,454709,1,0,0:0:0:0:
320,296,454772,1,2,0:0:0:0:
320,296,454897,1,0,0:0:0:0:
348,356,454959,1,0,0:0:0:0:
320,296,455022,1,2,0:0:0:0:
304,200,455147,1,0,0:0:0:0:
304,196,455209,1,0,0:0:0:0:
296,188,455272,1,0,0:0:0:0:
296,188,455397,1,0,0:0:0:0:
296,188,455522,1,2,0:0:0:0:
360,268,455584,1,2,0:0:0:0:
332,344,455647,1,0,0:0:0:0:
352,344,455772,1,0,0:0:0:0:
352,344,455897,1,0,0:0:0:0:
260,200,455959,1,0,0:0:0:0:
348,340,456022,1,2,0:0:0:0:
340,220,456084,1,0,0:0:0:0:
340,340,456147,1,0,0:0:0:0:
344,312,456272,1,2,0:0:0:0:
344,312,456397,1,0,0:0:0:0:
344,312,456459,1,0,0:0:0:0:
352,320,456522,1,2,0:0:0:0:
416,212,456647,1,0,0:0:0:0:
416,212,456772,1,2,0:0:0:0:
416,212,456897,1,0,0:0:0:0:
416,212,457022,1,0,0:0:0:0:
416,212,457147,1,0,0:0:0:0:
416,212,457209,1,0,0:0:0:0:
416,212,457272,1,2,0:0:0:0:
356,324,457397,1,0,0:0:0:0:
360,316,457522,1,2,0:0:0:0:
360,308,457584,1,0,0:0:0:0:
368,304,457647,1,0,0:0:0:0:
368,304,457709,1,0,0:0:0:0:
372,300,457772,1,2,0:0:0:0:
328,248,457897,1,0,0:0:0:0:
328,248,458022,1,2,0:0:0:0:
336,240,458084,1,2,0:0:0:0:
336,236,458147,1,0,0:0:0:0:
336,236,458209,1,0,0:0:0:0:
336,236,458272,1,2,0:0:0:0:
336,232,458397,1,0,0:0:0:0:
336,232,458459,1,0,0:0:0:0:
336,232,458522,1,2,0:0:0:0:
356,188,458647,1,0,0:0:0:0:
356,188,458772,1,2,0:0:0:0:
356,188,458897,1,0,0:0:0:0:
356,188,459022,1,0,0:0:0:0:
344,188,459084,1,0,0:0:0:0:
344,188,459147,1,0,0:0:0:0:
340,188,459209,1,0,0:0:0:0:
336,188,459272,1,2,0:0:0:0:
328,288,459397,1,0,0:0:0:0:
328,288,459522,1,2,0:0:0:0:
296,260,459584,1,2,0:0:0:0:
296,260,459647,1,2,0:0:0:0:
340,204,459709,1,2,0:0:0:0:
340,204,459772,1,2,0:0:0:0:
332,192,459834,1,2,0:0:0:0:
316,240,459897,1,0,0:0:0:0:
316,240,459959,1,0,0:0:0:0:
320,236,460022,1,2,0:0:0:0:
324,232,460084,1,2,0:0:0:0:
324,232,460147,1,0,0:0:0:0:
344,320,460209,1,0,0:0:0:0:
340,320,460272,1,0,0:0:0:0:
208,232,460313,1,0,0:0:0:0:
208,232,460355,1,0,0:0:0:0:
208,232,460397,1,0,0:0:0:0:
208,232,460438,1,0,0:0:0:0:
208,232,460480,1,0,0:0:0:0:
212,228,460522,1,2,0:0:0:0:
348,220,460772,1,2,0:0:0:0:
328,200,460897,1,0,0:0:0:0:
232,168,461022,1,2,0:0:0:0:
232,168,461084,1,2,0:0:0:0:
236,164,461147,1,0,0:0:0:0:
236,164,461209,1,0,0:0:0:0:
240,164,461272,1,2,0:0:0:0:
312,180,461397,1,0,0:0:0:0:
344,208,461522,1,2,0:0:0:0:
420,176,461647,1,0,0:0:0:0:
412,160,461709,1,0,0:0:0:0:
416,160,461772,1,2,0:0:0:0:
420,164,461834,1,0,0:0:0:0:
420,164,461897,1,2,0:0:0:0:
420,164,462022,1,2,0:0:0:0:
424,172,462147,1,0,0:0:0:0:
300,240,462272,1,0,0:0:0:0:
308,236,462397,1,0,0:0:0:0:
328,236,462522,1,2,0:0:0:0:
316,232,462584,1,2,0:0:0:0:
316,232,462647,1,0,0:0:0:0:
316,232,462709,1,0,0:0:0:0:
320,232,462772,1,2,0:0:0:0:
320,240,462897,1,0,0:0:0:0:
328,244,463022,1,2,0:0:0:0:
328,240,463084,1,2,0:0:0:0:
328,240,463147,1,0,0:0:0:0:
328,240,463209,1,0,0:0:0:0:
328,236,463272,1,2,0:0:0:0:
328,240,463397,1,0,0:0:0:0:
328,240,463522,1,2,0:0:0:0:
300,236,463584,1,0,0:0:0:0:
300,232,463647,1,0,0:0:0:0:
300,236,463709,1,0,0:0:0:0:
300,232,463772,1,0,0:0:0:0:
304,232,463834,1,0,0:0:0:0:
304,232,463897,1,0,0:0:0:0:
304,228,463959,1,0,0:0:0:0:
304,224,464022,1,2,0:0:0:0:
304,224,464084,1,0,0:0:0:0:
304,224,464147,1,0,0:0:0:0:
300,220,464209,1,0,0:0:0:0:
304,216,464272,1,2,0:0:0:0:
304,216,464334,1,0,0:0:0:0:
304,216,464397,1,2,0:0:0:0:
304,212,464459,1,2,0:0:0:0:
304,216,464522,1,0,0:0:0:0:
216,248,464647,1,0,0:0:0:0:
216,248,464772,1,2,0:0:0:0:
220,252,464897,1,0,0:0:0:0:
220,252,464959,1,0,0:0:0:0:
216,240,465022,1,0,0:0:0:0:
216,240,465147,1,0,0:0:0:0:
256,180,465272,1,2,0:0:0:0:
324,240,465397,1,0,0:0:0:0:
324,240,465459,1,0,0:0:0:0:
324,240,465522,1,0,0:0:0:0:
320,232,465647,1,0,0:0:0:0:
320,232,465772,1,2,0:0:0:0:
348,268,465897,1,2,0:0:0:0:
348,268,466022,1,0,0:0:0:0:
348,268,466147,1,2,0:0:0:0:
380,148,466272,1,0,0:0:0:0:
380,148,466397,1,2,0:0:0:0:
380,148,466522,1,0,0:0:0:0:
300,208,466647,1,0,0:0:0:0:
320,200,466772,1,2,0:0:0:0:
320,200,466834,1,0,0:0:0:0:
328,196,466897,1,0,0:0:0:0:
324,188,466959,1,0,0:0:0:0:
328,188,467022,1,2,0:0:0:0:
336,292,467147,1,0,0:0:0:0:
336,288,467272,1,2,0:0:0:0:
336,280,467397,1,0,0:0:0:0:
336,280,467459,1,0,0:0:0:0:
336,280,467522,1,2,0:0:0:0:
304,288,467584,1,0,0:0:0:0:
304,288,467647,1,2,0:0:0:0:
292,268,467709,1,2,0:0:0:0:
292,272,467772,1,0,0:0:0:0:
296,268,467834,1,0,0:0:0:0:
304,264,467897,1,2,0:0:0:0:
304,264,467959,1,0,0:0:0:0:
304,260,468022,1,2,0:0:0:0:
300,256,468084,1,2,0:0:0:0:
300,256,468147,1,0,0:0:0:0:
304,252,468209,1,0,0:0:0:0:
304,248,468272,1,2,0:0:0:0:
304,248,468334,1,0,0:0:0:0:
308,248,468397,1,0,0:0:0:0:
308,248,468459,1,0,0:0:0:0:
308,248,468522,1,2,0:0:0:0:
256,204,468772,1,2,0:0:0:0:
256,204,469022,1,0,0:0:0:0:
256,204,469272,1,2,0:0:0:0:
256,204,469522,1,0,0:0:0:0:
256,204,470022,1,0,0:0:0:0:
256,204,470147,1,0,0:0:0:0:
256,204,470272,1,2,0:0:0:0:
256,204,470397,1,0,0:0:0:0:
256,204,470522,1,2,0:0:0:0:
168,188,470772,1,0,0:0:0:0:
344,344,471022,1,2,0:0:0:0:
344,328,471272,1,0,0:0:0:0:
352,328,471522,1,2,0:0:0:0:
348,328,471772,1,0,0:0:0:0:
240,200,472022,1,2,0:0:0:0:
296,272,472272,1,2,0:0:0:0:
244,224,472522,1,6,0:0:0:0:
256,192,472772,1,0,0:0:0:0:
300,272,473022,1,2,0:0:0:0:
304,272,473272,1,0,0:0:0:0:
344,332,473397,1,0,0:0:0:0:
324,284,473522,1,2,0:0:0:0:
360,320,473772,1,0,0:0:0:0:
328,296,474022,1,2,0:0:0:0:
328,296,474147,1,2,0:0:0:0:
328,296,474272,1,0,0:0:0:0:
328,296,474397,1,0,0:0:0:0:
328,296,474522,1,2,0:0:0:0:
328,296,474772,1,2,0:0:0:0:
328,296,474897,1,2,0:0:0:0:
328,296,475022,1,0,0:0:0:0:
336,336,475272,1,0,0:0:0:0:
336,336,475522,1,2,0:0:0:0:
336,336,475647,1,2,0:0:0:0:
340,332,475772,1,0,0:0:0:0:
336,296,476022,1,2,0:0:0:0:
344,304,476147,1,2,0:0:0:0:
348,312,476272,1,0,0:0:0:0:
328,308,476397,1,2,0:0:0:0:
328,208,476522,1,0,0:0:0:0:
320,176,476584,1,0,0:0:0:0:
320,168,476647,1,0,0:0:0:0:
328,164,476709,1,0,0:0:0:0:
348,200,476772,1,2,0:0:0:0:
256,248,477022,1,2,0:0:0:0:
344,332,477084,1,2,0:0:0:0:
344,324,477147,1,0,0:0:0:0:
332,296,477272,1,0,0:0:0:0:
332,296,477397,1,0,0:0:0:0:
344,280,477522,1,2,0:0:0:0:
300,224,477772,1,2,0:0:0:0:
308,252,478022,1,0,0:0:0:0:
312,248,478147,1,0,0:0:0:0:
320,248,478272,1,2,0:0:0:0:
304,264,478397,1,0,0:0:0:0:
304,264,478522,1,0,0:0:0:0:
308,252,478584,1,0,0:0:0:0:
308,260,478647,1,0,0:0:0:0:
312,248,478709,1,0,0:0:0:0:
312,248,478772,1,2,0:0:0:0:
284,172,479022,1,2,0:0:0:0:
284,172,479147,1,0,0:0:0:0:
208,188,479272,1,2,0:0:0:0:
208,188,479334,1,2,0:0:0:0:
208,188,479397,1,0,0:0:0:0:
208,188,479459,1,0,0:0:0:0:
208,188,479522,1,2,0:0:0:0:
328,324,479772,1,0,0:0:0:0:
336,320,480022,1,2,0:0:0:0:
340,320,480272,1,0,0:0:0:0:
360,344,480334,1,0,0:0:0:0:
360,344,480397,1,0,0:0:0:0:
360,344,480459,1,0,0:0:0:0:
360,336,480522,1,2,0:0:0:0:
368,272,480772,1,0,0:0:0:0:
364,264,481022,1,2,0:0:0:0:
364,264,481272,1,0,0:0:0:0:
372,252,481522,1,2,0:0:0:0:
332,304,481647,1,2,0:0:0:0:
328,296,481772,1,0,0:0:0:0:
340,348,481834,1,0,0:0:0:0:
352,344,481897,1,0,0:0:0:0:
352,340,481959,1,0,0:0:0:0:
352,336,482022,1,2,0:0:0:0:
344,332,482147,1,2,0:0:0:0:
344,332,482272,1,0,0:0:0:0:
264,196,482397,1,0,0:0:0:0:
112,176,482459,1,0,0:0:0:0:
264,196,482522,1,2,0:0:0:0:
264,200,482772,1,0,0:0:0:0:
336,160,483022,1,2,0:0:0:0:
356,176,483272,1,0,0:0:0:0:
360,180,483522,1,2,0:0:0:0:
320,296,483584,1,2,0:0:0:0:
320,296,483647,1,2,0:0:0:0:
320,296,483709,1,2,0:0:0:0:
320,296,483772,1,0,0:0:0:0:
292,288,483834,1,0,0:0:0:0:
296,284,483897,1,2,0:0:0:0:
296,280,483959,1,2,0:0:0:0:
296,280,484022,1,0,0:0:0:0:
296,280,484084,1,0,0:0:0:0:
296,280,484147,1,0,0:0:0:0:
296,280,484209,1,0,0:0:0:0:
296,276,484272,1,0,0:0:0:0:
296,276,484334,1,0,0:0:0:0:
296,276,484397,1,0,0:0:0:0:
296,276,484459,1,0,0:0:0:0:
296,276,484522,1,2,0:0:0:0:
328,304,484647,1,2,0:0:0:0:
328,304,484772,1,0,0:0:0:0:
328,304,484897,1,2,0:0:0:0:
332,304,485022,1,0,0:0:0:0:
336,308,485147,1,0,0:0:0:0:
336,304,485272,1,2,0:0:0:0:
336,304,485397,1,0,0:0:0:0:
336,300,485522,1,2,0:0:0:0:
336,300,485647,1,0,0:0:0:0:
336,296,485772,1,0,0:0:0:0:
336,300,485897,1,0,0:0:0:0:
340,300,486022,1,2,0:0:0:0:
340,296,486147,1,0,0:0:0:0:
340,296,486272,1,0,0:0:0:0:
340,296,486397,1,0,0:0:0:0:
344,296,486522,1,2,0:0:0:0:
344,296,486647,1,0,0:0:0:0:
340,300,486772,1,2,0:0:0:0:
340,296,486897,1,0,0:0:0:0:
340,296,486959,1,0,0:0:0:0:
340,296,487022,1,0,0:0:0:0:
340,296,487147,1,0,0:0:0:0:
344,296,487272,1,2,0:0:0:0:
344,296,487397,1,0,0:0:0:0:
340,300,487522,1,2,0:0:0:0:
344,356,487647,1,0,0:0:0:0:
344,348,487772,1,2,0:0:0:0:
344,344,487897,1,0,0:0:0:0:
344,344,488022,1,2,0:0:0:0:
216,200,488147,1,0,0:0:0:0:
216,200,488209,1,0,0:0:0:0:
344,344,488272,1,2,0:0:0:0:
260,200,488397,1,0,0:0:0:0:
264,200,488522,1,2,0:0:0:0:
296,304,488647,1,2,0:0:0:0:
296,304,488772,1,0,0:0:0:0:
296,304,488897,1,0,0:0:0:0:
300,296,489022,1,2,0:0:0:0:
336,332,489147,1,0,0:0:0:0:
336,332,489209,1,0,0:0:0:0:
336,324,489272,1,0,0:0:0:0:
336,320,489397,1,0,0:0:0:0:
336,320,489459,1,0,0:0:0:0:
336,316,489522,1,2,0:0:0:0:
352,332,489647,1,0,0:0:0:0:
348,316,489772,1,2,0:0:0:0:
348,312,489897,1,0,0:0:0:0:
348,312,490022,1,0,0:0:0:0:
348,308,490147,1,0,0:0:0:0:
348,308,490272,1,2,0:0:0:0:
344,320,490397,1,2,0:0:0:0:
340,308,490522,1,0,0:0:0:0:
344,308,490647,1,2,0:0:0:0:
348,312,490772,1,2,0:0:0:0:
348,308,490897,1,0,0:0:0:0:
348,308,491022,1,0,0:0:0:0:
348,304,491147,1,2,0:0:0:0:
348,304,491272,1,0,0:0:0:0:
336,304,491397,1,0,0:0:0:0:
336,304,491522,1,2,0:0:0:0:
336,304,491647,1,0,0:0:0:0:
336,304,491772,1,0,0:0:0:0:
336,304,491897,1,0,0:0:0:0:
340,304,492022,1,2,0:0:0:0:
300,196,492105,1,0,0:0:0:0:
304,200,492188,1,0,0:0:0:0:
340,304,492272,1,0,0:0:0:0:
364,256,492355,1,0,0:0:0:0:
364,256,492438,1,0,0:0:0:0:
368,256,492522,1,6,0:0:0:0:
312,192,492647,1,4,0:0:0:0:
336,240,492772,1,6,0:0:0:0:
320,292,492897,1,4,0:0:0:0:
320,292,493022,1,6,0:0:0:0:
320,292,493147,1,4,0:0:0:0:
320,292,493272,1,6,0:0:0:0:
344,344,493397,1,4,0:0:0:0:
356,360,493522,1,6,0:0:0:0:
340,296,494022,1,6,0:0:0:0:
340,296,494147,1,4,0:0:0:0:
340,296,494272,1,6,0:0:0:0:
340,296,494397,1,4,0:0:0:0:
312,208,494897,1,4,0:0:0:0:
312,208,495022,1,6,0:0:0:0:
312,208,495147,1,4,0:0:0:0:
320,208,495272,1,6,0:0:0:0:
356,252,495397,1,6,0:0:0:0:
348,292,495647,1,4,0:0:0:0:
344,304,495772,1,6,0:0:0:0:
344,304,495897,1,4,0:0:0:0:
344,304,496022,1,6,0:0:0:0:
356,360,496272,1,6,0:0:0:0:
244,192,496397,1,4,0:0:0:0:
336,212,496522,1,6,0:0:0:0:
336,216,496647,1,4,0:0:0:0:
280,176,496897,1,4,0:0:0:0:
280,176,497022,1,6,0:0:0:0:
280,176,497147,1,4,0:0:0:0:
304,288,497272,1,6,0:0:0:0:
348,328,497772,1,6,0:0:0:0:
348,328,497897,1,4,0:0:0:0:
352,328,498022,1,6,0:0:0:0:
360,336,498147,1,4,0:0:0:0:
