osu file format v14

[General]
AudioFilename: Life is Strange 2015 Soundtrack~ Sparklehorse - Piano fire.mp3
AudioLeadIn: 0
PreviewTime: 15464
Countdown: 0
SampleSet: Normal
StackLeniency: 0.7
Mode: 0
LetterboxInBreaks: 1
EpilepsyWarning: 1
WidescreenStoryboard: 1

[Editor]
Bookmarks: 16336,20274,23865,26876,31278,35911,38692,41934,44251,47031,47957,52359,52590,57687,72050,76220,79348,82243,86877,91510,94290,97302,99850,103093,103557,107958,108190,112823,115603,120699
DistanceSpacing: 0.8
BeatDivisor: 4
GridSize: 8
TimelineZoom: 1

[Metadata]
Title:Piano fire
TitleUnicode:Piano fire
Artist:Sparklehorse
ArtistUnicode:Sparklehorse
Creator:small_hins
Version:Easy
Source:Life is Strange Soundtrack
Tags:burning piano life is strange fire black white dark insane english smallhins small_hins broken
BeatmapID:645979
BeatmapSetID:284963

[Difficulty]
HPDrainRate:3
CircleSize:3
OverallDifficulty:2
ApproachRate:2
SliderMultiplier:0.799999999999999
SliderTickRate:2

[Events]
//Background and Video events
0,0,"bg.jpg",0,0
//Break Periods
2,8307,13961
//Storyboard Layer 0 (Background)
//Storyboard Layer 1 (Fail)
//Storyboard Layer 2 (Pass)
//Storyboard Layer 3 (Foreground)
Sprite,Foreground,Centre,"Piano-Fire.png",320,240 M,0,8113,15526,-189,145,808,151
Sprite,Foreground,Centre,"Difficulty and Storyboard(Beginner).png",320,240 M,0,9961,15521,-104,371,813,378
//Storyboard Sound Samples

[TimingPoints]
695,463.320463320463,4,1,0,30,1,0
700,-100,4,1,0,30,0,0
60000,-83.3333333333333,4,1,0,50,0,1
71351,-100,4,1,0,30,0,0
123011,-83.3333333333333,4,1,0,60,0,1
152779,-100,4,1,0,30,0,0

[Colours]
Combo1 : 0,109,219
Combo2 : 0,0,0
Combo3 : 255,255,255
Combo4 : 234,0,0

[HitObjects]
368,88,695,5,0,0:0:0:0:
360,152,1158,2,0,P|280:168|176:136,1,180
144,168,2548,1,0,0:0:0:0:
112,224,3011,2,0,P|40:320|48:352,2,160
176,208,5328,1,0,0:0:0:0:
240,200,5791,6,0,P|336:200|400:216,1,160
424,272,7181,1,0,0:0:0:0:
376,312,7644,2,0,L|296:344,1,79.9999999999999
280,80,15521,5,0,0:0:0:0:
336,112,15984,2,0,P|384:200|384:224,1,120
312,272,17374,1,0,0:0:0:0:
184,288,18301,2,0,L|64:176,1,160
64,112,19691,6,0,L|136:64,1,79.9999999999999
184,104,20617,1,0,0:0:0:0:
224,152,21081,2,0,L|320:152,1,79.9999999999999
336,208,22007,1,0,0:0:0:0:
392,240,22471,2,0,P|392:296|368:312,1,79.9999999999999
312,296,23397,5,0,0:0:0:0:
248,296,23861,2,0,B|200:280|176:240|152:280|88:296,1,160
56,248,25250,1,0,0:0:0:0:
56,184,25714,2,0,P|64:104|144:80,1,160
160,136,27104,1,0,0:0:0:0:
216,168,27567,6,0,B|264:208|272:224|272:224|280:208|336:152,1,160
392,160,28957,2,0,L|392:248,2,79.9999999999999
328,184,30347,1,0,0:0:0:0:
272,216,30810,1,0,0:0:0:0:
216,256,31274,1,0,0:0:0:0:
152,280,31737,6,0,B|104:320|104:320|80:320,1,79.9999999999999
96,256,32664,2,0,L|152:192,2,79.9999999999999
32,248,34054,2,0,P|96:320|136:296,1,160
168,296,35212,2,0,L|232:240,1,79.9999999999999
320,224,36370,6,0,P|344:208|344:160,2,79.9999999999999
296,160,37760,1,0,0:0:0:0:
232,136,38223,1,0,0:0:0:0:
168,136,38687,6,0,L|88:184,1,79.9999999999999
136,232,39613,2,0,L|208:184,1,79.9999999999999
256,224,40540,1,0,0:0:0:0:
304,264,41003,2,0,P|328:288|336:288,2,40
352,256,41930,5,0,0:0:0:0:
392,208,42393,1,0,0:0:0:0:
384,144,42857,2,0,P|344:104|320:112,1,79.9999999999999
328,168,43783,2,0,P|312:216|272:224,1,79.9999999999999
232,200,44710,1,0,0:0:0:0:
168,216,45173,6,0,B|112:248|104:336|160:376|216:392|272:376|304:328|312:320,1,320
352,272,47490,1,0,0:0:0:0:
392,224,47953,5,0,0:0:0:0:
400,160,48417,1,0,0:0:0:0:
384,96,48880,2,0,B|336:96|312:72|312:32|296:8|264:-8|232:16|216:56|232:104|224:168|192:232|184:328|120:328|80:304|40:232|40:208,1,559.999999999999
56,160,52586,5,0,0:0:0:0:
104,120,53050,2,0,B|168:128|192:104|192:104|200:136|264:144,1,180
304,168,54440,1,0,0:0:0:0:
336,224,54903,2,0,L|368:264,2,40
272,224,55830,5,0,0:0:0:0:
208,224,56293,1,0,0:0:0:0:
144,224,56756,2,0,P|56:184|72:128,1,160
104,88,58146,1,0,0:0:0:0:
160,64,58610,6,0,L|248:64,2,79.9999999999999
200,128,60000,5,0,0:0:0:0:
224,200,60463,2,0,P|280:256|296:256,1,95.9999970703125
368,256,61389,2,0,P|424:256|440:224,1,95.9999970703125
440,152,62316,2,0,P|440:96|408:88,1,95.9999970703125
336,104,63243,2,0,P|280:104|272:144,1,95.9999970703125
352,168,64169,5,0,0:0:0:0:
296,216,64633,1,0,0:0:0:0:
224,232,65096,1,0,0:0:0:0:
128,112,66023,5,0,0:0:0:0:
184,64,66486,1,0,0:0:0:0:
256,48,66949,1,0,0:0:0:0:
328,72,67413,6,0,L|192:224,1,191.999994140625
56,176,69266,2,0,L|192:32,1,191.999994140625
288,152,71119,1,0,0:0:0:0:
312,208,71583,2,0,L|360:280,1,79.9999999999999
416,304,72509,5,0,0:0:0:0:
464,264,72972,2,0,P|512:152|512:112,1,160
384,104,74826,2,0,P|296:136|224:120,1,160
120,128,76679,5,0,0:0:0:0:
112,192,77142,1,0,0:0:0:0:
144,248,77606,1,0,0:0:0:0:
272,280,78532,5,0,0:0:0:0:
400,248,79459,6,0,P|432:168|400:96,1,160
344,96,80849,1,0,0:0:0:0:
280,96,81312,2,0,L|232:96,2,40
304,152,82239,1,0,0:0:0:0:
304,216,82702,6,0,P|304:264|264:280,1,79.9999999999999
216,256,83629,1,0,0:0:0:0:
152,256,84092,2,0,P|120:224|136:184,1,79.9999999999999
168,144,85019,1,0,0:0:0:0:
288,104,85945,5,0,0:0:0:0:
408,192,86872,5,0,0:0:0:0:
368,240,87335,2,0,B|336:224|312:240|296:256|296:256|280:240|256:224|224:248,1,160
176,208,88725,1,0,0:0:0:0:
160,80,89652,6,0,B|208:48|256:8|256:8|304:48|360:96,1,240
400,120,91505,1,0,0:0:0:0:
400,248,92432,2,0,P|304:248|256:208,1,160
136,176,94285,5,0,0:0:0:0:
136,112,94749,1,0,0:0:0:0:
136,48,95212,1,0,0:0:0:0:
264,48,96139,6,0,L|352:48,2,79.9999999999999
256,176,97992,1,0,0:0:0:0:
256,304,98918,6,0,P|304:304|344:288,2,79.9999999999999
168,216,100772,5,0,0:0:0:0:
104,216,101235,2,0,P|72:176|224:160,1,320
288,136,103552,5,0,0:0:0:0:
352,152,104015,2,0,B|352:72|368:64|368:64|384:56|384:32|408:24|448:32|448:32|480:40|504:16|512:64|496:80|496:80|480:96|496:152|488:208|512:192|512:192|512:224|488:208|472:192|440:192|440:192|424:200|400:208|440:232|440:232|424:240|344:192|384:272|392:320,1,699.999999999999
312,296,108648,5,0,0:0:0:0:
248,296,109111,1,0,0:0:0:0:
184,296,109575,2,0,L|184:200,2,79.9999999999999
120,288,110965,5,0,0:0:0:0:
80,240,111428,1,0,0:0:0:0:
136,208,111891,1,0,0:0:0:0:
256,192,112818,6,0,L|344:192,1,79.9999999999999
336,128,113745,2,0,L|424:128,1,79.9999999999999
432,192,114671,1,0,0:0:0:0:
320,264,115598,5,0,0:0:0:0:
200,224,116525,2,0,P|120:240|56:200,1,160
160,128,118378,6,0,P|248:96|320:128,1,160
432,160,120231,5,0,0:0:0:0:
472,208,120694,1,0,0:0:0:0:
296,272,122084,5,0,0:0:0:0:
232,272,122548,1,0,0:0:0:0:
152,272,123011,6,0,P|104:272|80:152,1,191.999994140625
200,64,124864,2,0,L|296:64,2,95.9999970703125
352,80,126718,6,0,P|336:168|416:224,1,191.999994140625
296,328,128571,2,0,L|200:328,2,95.9999970703125
352,184,130424,6,0,L|352:88,1,95.9999970703125
352,8,131351,1,0,0:0:0:0:
200,8,132278,6,0,L|200:112,1,95.9999970703125
200,184,133204,1,0,0:0:0:0:
56,232,134131,6,0,P|248:312|416:248,1,383.99998828125
440,104,136911,2,0,P|440:56|392:40,1,95.9999970703125
328,48,137837,5,0,0:0:0:0:
184,104,138764,2,0,P|112:200|136:272,1,191.999994140625
272,208,140617,2,0,P|320:304|416:304,1,191.999994140625
432,160,142471,6,0,L|432:96,2,47.9999985351562
200,160,144324,1,0,0:0:0:0:
48,176,145250,6,0,B|48:256|96:280|144:320|200:304|240:280|256:240,1,287.999991210937
320,208,147104,2,0,P|432:112|504:200,1,287.999991210937
432,216,148957,1,0,0:0:0:0:
280,232,149884,6,0,P|248:272|200:256,1,95.9999970703125
176,112,151737,2,0,P|128:120|120:160,1,95.9999970703125
256,192,152664,12,0,156255,0:0:0:0:
