osu file format v14

[General]
AudioFilename: beloved .mp3
AudioLeadIn: 0
PreviewTime: -1
Countdown: 1
SampleSet: Soft
StackLeniency: 0.7
Mode: 0
LetterboxInBreaks: 1
WidescreenStoryboard: 0

[Editor]
DistanceSpacing: 1
BeatDivisor: 4
GridSize: 8
TimelineZoom: 2.2

[Metadata]
Title:beloved ~sakura no kanata e~
TitleUnicode:beloved ~桜の彼方へ~
Artist:Spanky
ArtistUnicode:Spanky
Creator:Shiino Kirari
Version:Sakura
Source:
Tags:
BeatmapID:888744
BeatmapSetID:409413

[Difficulty]
HPDrainRate:7
CircleSize:4
OverallDifficulty:7
ApproachRate:9.4
SliderMultiplier:2.2
SliderTickRate:1

[Events]
//Background and Video events
//Break Periods
2,5963,19458
2,22570,43948
2,44841,56193
2,69024,70886
2,85708,303540
//Storyboard Layer 0 (Background)
//Storyboard Layer 1 (Fail)
//Storyboard Layer 2 (Pass)
//Storyboard Layer 3 (Foreground)
//Storyboard Sound Samples

[TimingPoints]
406.554722830184,612.244897959184,4,2,0,0,1,0
19998,-66.6666666666667,4,2,0,0,0,0
20610,-50,4,2,0,0,0,0
20763,-200,4,2,0,0,0,0
21069,-133.333333333333,4,2,0,0,0,0
21529,-100,4,2,0,0,0,0
21835,-80,4,2,0,0,0,0
22141,-66.6666666666667,4,2,0,0,0,0
59182,-200,4,2,0,0,0,0
80610,-100,4,2,0,0,0,0
81222,-50,4,2,0,0,0,0
304080,-200,4,2,0,0,0,0

[HitObjects]
112,208,406,5,0,0:0:0:0:
104,216,559,1,0,0:0:0:0:
240,144,691,1,0,0:0:0:0:
240,128,865,1,0,0:0:0:0:
416,72,1018,1,0,0:0:0:0:
408,80,1171,2,0,L|432:208,1,110
352,304,1631,1,0,0:0:0:0:
376,304,1784,1,0,0:0:0:0:
240,296,1937,1,0,0:0:0:0:
208,296,2090,1,0,0:0:0:0:
336,224,2243,1,0,0:0:0:0:
352,216,2396,1,0,0:0:0:0:
216,208,2549,1,0,0:0:0:0:
184,224,2702,1,0,0:0:0:0:
72,112,2855,1,0,0:0:0:0:
64,136,3008,1,0,0:0:0:0:
232,96,3161,1,0,0:0:0:0:
240,120,3314,1,0,0:0:0:0:
400,88,3467,1,0,0:0:0:0:
400,88,3620,2,0,P|448:144|432:216,1,110
416,288,4080,1,0,0:0:0:0:
232,280,4233,1,0,0:0:0:0:
312,272,4386,1,0,0:0:0:0:
176,336,4539,1,0,0:0:0:0:
272,360,4692,1,0,0:0:0:0:
88,288,4845,1,0,0:0:0:0:
184,240,4998,1,0,0:0:0:0:
96,216,5151,1,0,0:0:0:0:
240,160,5304,1,0,0:0:0:0:
256,152,5457,1,0,0:0:0:0:
88,40,5610,1,0,0:0:0:0:
88,64,5763,1,0,0:0:0:0:
80,168,19998,6,0,L|160:136,1,82.5000031471254
280,160,20304,2,0,L|318:144,1,41.2500015735627
352,176,20457,2,0,L|400:160,1,41.2500015735627
264,240,20610,2,0,L|200:264,1,55
192,304,20763,2,0,L|240:304,1,41.25
232,312,21069,2,0,L|320:296,1,82.5000031471254
400,256,21529,2,0,P|416:224|376:240,1,82.5
344,232,21835,2,0,P|294:228|294:172,1,103.125
288,168,22141,2,0,P|277:121|213:135,1,123.750004720688
120,224,44488,6,0,L|208:184,1,82.5000031471254
128,208,56733,5,0,0:0:0:0:
344,88,56886,1,0,0:0:0:0:
232,232,57039,1,0,0:0:0:0:
256,232,57345,1,0,0:0:0:0:
352,192,57651,1,0,0:0:0:0:
192,136,57804,1,0,0:0:0:0:
336,176,57957,1,0,0:0:0:0:
192,144,58110,1,0,0:0:0:0:
336,176,58263,1,0,0:0:0:0:
136,272,58569,1,0,0:0:0:0:
120,264,58722,1,0,0:0:0:0:
96,256,58875,1,0,0:0:0:0:
80,248,59029,1,0,0:0:0:0:
72,208,59182,5,0,0:0:0:0:
192,288,59335,1,0,0:0:0:0:
136,176,59488,1,0,0:0:0:0:
248,176,59641,2,0,L|320:184,1,55
72,208,60100,5,0,0:0:0:0:
192,288,60253,1,0,0:0:0:0:
184,128,60406,1,0,0:0:0:0:
336,200,60559,2,0,L|400:200,1,55
72,208,61018,1,0,0:0:0:0:
192,288,61171,1,0,0:0:0:0:
248,152,61324,1,0,0:0:0:0:
432,128,61477,1,0,0:0:0:0:
400,72,61631,1,0,0:0:0:0:
168,96,61784,1,0,0:0:0:0:
168,96,61937,1,0,0:0:0:0:
384,160,62090,1,0,0:0:0:0:
384,160,62243,1,0,0:0:0:0:
192,184,62396,1,0,0:0:0:0:
192,184,62549,1,0,0:0:0:0:
376,208,62702,1,0,0:0:0:0:
384,240,62855,1,0,0:0:0:0:
456,152,63008,1,0,0:0:0:0:
408,280,63161,1,0,0:0:0:0:
384,304,63467,2,0,L|432:296,1,27.5
456,336,63773,2,0,L|496:328,1,27.5
312,344,64080,1,0,0:0:0:0:
176,328,64233,1,0,0:0:0:0:
272,224,64386,1,0,0:0:0:0:
376,280,64539,2,0,P|336:304|320:304,1,55
200,256,64998,1,0,0:0:0:0:
64,240,65151,1,0,0:0:0:0:
160,136,65304,1,0,0:0:0:0:
264,192,65457,2,0,P|224:216|208:216,1,55
328,160,65916,1,0,0:0:0:0:
408,152,66069,1,0,0:0:0:0:
448,184,66222,1,0,0:0:0:0:
440,232,66375,1,0,0:0:0:0:
336,264,66529,1,0,0:0:0:0:
176,336,66682,1,0,0:0:0:0:
192,272,66835,1,0,0:0:0:0:
312,336,66988,1,0,0:0:0:0:
288,288,67141,1,0,0:0:0:0:
216,320,67294,1,0,0:0:0:0:
240,288,67447,1,0,0:0:0:0:
264,312,67600,1,0,0:0:0:0:
352,272,67753,1,0,0:0:0:0:
128,208,67906,1,0,0:0:0:0:
328,144,68059,1,0,0:0:0:0:
432,120,68365,2,0,L|448:216,1,82.5
136,160,71426,6,0,L|184:144,1,27.5
208,104,71733,6,0,L|256:88,1,27.5
394,167,72039,6,0,L|368:176,1,27.5
282,167,72345,6,0,L|256:176,1,27.5
168,312,76324,5,0,0:0:0:0:
168,312,76631,1,0,0:0:0:0:
168,312,76937,1,0,0:0:0:0:
168,312,77243,1,0,0:0:0:0:
168,312,77549,1,0,0:0:0:0:
168,312,77855,1,0,0:0:0:0:
168,312,78161,1,0,0:0:0:0:
168,312,78467,1,0,0:0:0:0:
48,296,78773,5,0,0:0:0:0:
80,304,78926,1,0,0:0:0:0:
112,304,79080,1,0,0:0:0:0:
152,288,79233,1,0,0:0:0:0:
208,224,79386,1,0,0:0:0:0:
256,224,79539,1,0,0:0:0:0:
296,240,79692,1,0,0:0:0:0:
320,272,79845,1,0,0:0:0:0:
416,248,79998,1,0,0:0:0:0:
440,200,80151,1,0,0:0:0:0:
432,136,80304,1,0,0:0:0:0:
384,96,80457,1,0,0:0:0:0:
344,64,80610,1,0,0:0:0:0:
304,88,80687,1,0,0:0:0:0:
264,112,80763,1,0,0:0:0:0:
168,72,80916,1,0,0:0:0:0:
56,112,81069,1,0,0:0:0:0:
136,248,81222,2,0,P|248:272|352:272,1,165.000006294251
384,256,81529,2,0,P|320:248|184:240,1,165
104,232,81835,2,0,P|168:208|320:120,1,220
384,184,82294,1,0,0:0:0:0:
240,320,82447,1,0,0:0:0:0:
296,240,82600,1,0,0:0:0:0:
192,256,82906,1,0,0:0:0:0:
416,224,83059,1,0,0:0:0:0:
432,224,83365,2,0,L|272:200,1,110
144,184,83671,2,0,L|352:152,1,165
392,120,83977,2,0,P|264:192|264:208,1,165
144,288,84284,2,0,P|296:288|336:224,1,220
280,208,84743,1,0,0:0:0:0:
392,184,84896,1,0,0:0:0:0:
176,296,85049,1,0,0:0:0:0:
328,296,85355,1,0,0:0:0:0:
112,192,85508,1,0,0:0:0:0:
112,192,304080,5,0,0:0:0:0:
136,176,304386,1,0,0:0:0:0:
352,136,304539,1,0,0:0:0:0:
376,144,304845,1,0,0:0:0:0:
368,288,304998,1,0,0:0:0:0:
400,152,305151,1,0,0:0:0:0:
424,160,305457,1,0,0:0:0:0:
264,64,305610,1,0,0:0:0:0:
448,168,305763,1,0,0:0:0:0:
288,96,305916,1,0,0:0:0:0:
80,192,306069,1,0,0:0:0:0:
240,192,306222,1,0,0:0:0:0:
216,288,306375,1,0,0:0:0:0:
256,192,306529,1,0,0:0:0:0:
272,192,306835,1,0,0:0:0:0:
400,328,306988,1,0,0:0:0:0:
384,320,307294,1,0,0:0:0:0:
456,160,307447,1,0,0:0:0:0:
360,312,307600,1,0,0:0:0:0:
