osu file format v5

[General]
AudioFilename: SP5-Part2-Report2-2A.ogg
AudioLeadIn: 0
PreviewTime: 18245
Countdown: 0
SampleSet: Normal
StackLeniency: 0.5
Mode: 0
LetterboxInBreaks: 1

[Metadata]
Title:Guitar Showdown (Report 2-2)
Artist:Space Channel 5 Part 2
Creator:Ash
Version:Hard - Duet
Source:
Tags:

[Difficulty]
HPDrainRate:7
CircleSize:5
OverallDifficulty:7
SliderMultiplier:1.7
SliderTickRate:2

[Events]
//Background and Video events
1,-200,"SP5PT2R22.wmv"
//Break Periods
2,10928,17037
2,35200,39450
2,42200,45700
2,48600,52250
2,55400,58650
2,61800,69850
2,71600,73250
2,74800,77850
2,81200,84100
2,87800,90651
2,94001,101851
2,103601,105251
2,106801,109851
2,113201,119451
2,126201,132251
2,138801,148251
2,150401,154651
2,158001,159451
2,161401,162651
2,164401,165051
2,166201,166651
2,167801,168251
2,169401,169851
2,171001,172251
2,174202,175451
2,177402,177851
2,179001,179652
2,180602,181051
2,182201,182651
2,183801,188844
//Storyboard Layer 0 (Background)
//Storyboard Layer 1 (Failing)
//Storyboard Layer 2 (Passing)
//Storyboard Layer 3 (Foreground)
4,3,0,"VSmode.png",0,0 F,0,35500,35900,0,1 F,0,35900,62500,1,1 F,0,62500,63000,1,0 F,0,68200,68700,0,1 F,0,68700,94600,1,1 F,0,94600,95100,1,0 F,0,99400,99900,0,1 F,0,99900,139000,1,1 F,0,139000,139500,1,0 F,0,144200,144700,0,1 F,0,183600,184100,1,0
4,3,1,"onoes.png",322,240 F,0,35400,36700,1,0 S,0,35400,36700,1,2
//Storyboard Sound Samples
//Background Colour Transformations
3,100,39,38,61

[TimingPoints]
7199,441.172584390742,4,1,1,49
17787,400.005084390744,4,2,1,100
24200,400.006084390743,4,2,1,49
33800,400.006084390743,4,1,1,100
149001,400.006084390743,4,2,1,100
165001,400.006084390743,4,1,1,100
189594,444.439384390742,4,2,1,100
193038,444.439384390742,4,1,1,100

[Colours]
Combo1 : 255,255,255
Combo2 : 128,0,64
Combo3 : 193,0,97
Combo4 : 255,128,255

[HitObjects]
328,72,7199,6,4,L|176:64|158:153|296:161|330:207|314:251|258:280|174:271|120:232,2,680
440,40,17787,5,0
440,112,17987,5,0
440,184,18187,5,0
440,184,18287,1,0
440,256,18487,5,0
440,256,18587,1,0
440,328,18787,5,0
368,328,18987,5,0
368,328,19087,1,0
296,328,19287,5,0
296,328,19387,1,0
224,328,19587,5,0
224,256,19787,5,0
224,256,19887,1,0
152,256,20087,5,0
152,256,20187,1,0
80,256,20387,5,0
80,184,20587,5,0
80,72,20987,5,0
152,72,21187,1,0
152,72,21287,1,0
152,72,21387,1,0
152,144,21587,1,0
152,216,21787,2,0,C|241:205|280:96,2,170
152,288,22787,1,0
152,288,22887,1,0
152,288,22987,1,0
224,288,23187,1,0
224,64,23587,1,0
296,64,23787,1,4
424,64,24200,5,0
424,136,24400,1,0
424,208,24600,1,0
424,280,24800,2,0,C|312:328,1,85
336,248,25200,2,0,C|224:296,1,85
192,304,25600,1,0
120,304,25800,1,0
48,304,26000,1,0
48,232,26200,1,0
120,232,26400,2,0,C|224:232,1,85
272,232,26800,2,0,C|357:232,2,85
200,232,27400,5,0
128,232,27600,1,0
56,232,27800,1,0
56,160,28000,2,0,C|56:72,1,85
128,72,28400,2,0,C|128:184,1,85
200,160,28800,1,0
272,160,29000,1,0
344,160,29200,1,0
416,160,29400,1,0
416,80,29600,2,0,C|296:80,1,85
328,16,30000,2,0,C|216:64,1,85
120,72,30600,5,0
120,144,30800,1,0
120,216,31000,1,0
120,288,31200,1,0
120,360,31400,1,0
192,360,31600,1,0
192,360,31700,1,0
264,360,31900,1,0
264,360,32000,1,0
336,360,32200,5,0
408,360,32400,1,0
408,288,32600,1,0
408,216,32800,1,0
336,216,33000,1,0
264,216,33200,1,0
264,216,33300,1,0
192,216,33500,1,0
192,216,33600,1,0
120,216,33800,5,0
256,192,34400,1,0
384,168,35000,1,0
256,56,40200,6,0,B|160:80|152:184,1,170
256,176,41000,2,0,B|352:200|360:304,1,170
248,280,41800,1,0
192,328,42000,1,0
218,326,46600,6,0,L|139:282|170:198,1,170
290,238,47400,2,0,L|369:194|338:110,1,170
218,126,48200,1,0
218,54,48400,1,0
208,32,53000,6,0,L|144:128,1,85
216,128,53400,2,0,L|312:176,1,85
352,184,53800,2,0,L|352:288,1,85
312,312,54200,2,0,L|208:352,1,85
176,360,54600,1,0
184,296,54800,1,0
256,232,55200,1,0
328,40,59400,5,0
256,40,59600,1,0
184,136,60000,1,0
256,136,60200,1,0
328,136,60400,1,0
328,232,60800,1,0
256,232,61000,1,0
184,232,61200,1,0
256,320,61600,1,4
256,112,70600,5,0
192,224,71000,1,0
320,224,71400,1,4
336,232,74000,5,0
280,192,74200,1,0
168,112,74600,1,4
304,317,78600,6,0,L|352:213,1,85
341,238,79000,2,0,L|245:238,1,85
256,240,79400,2,0,L|160:240,1,85
168,240,79800,2,0,L|216:336,1,85
256,280,80200,1,0
256,168,80600,1,0
256,56,81000,1,0
184,8,85000,6,0,L|185:182,1,170
328,182,85800,2,0,L|328:-10,1,170
256,88,86600,1,0
256,192,87000,1,0
256,296,87400,1,0
256,368,87600,1,0
280,336,91400,5,0
176,336,91800,1,0
224,280,92000,1,0
272,224,92200,1,0
320,168,92400,1,0
320,272,92800,1,0
264,224,93000,1,0
168,152,93400,1,0
264,80,93800,1,4
256,272,102601,5,0
192,160,103001,1,0
320,160,103401,1,4
336,136,106001,5,0
280,176,106201,1,0
168,256,106601,1,4
192,40,110601,6,0,L|144:128|224:176,1,170
304,168,111401,2,0,L|364:133|316:45,1,170
256,112,112201,1,0
256,208,112601,1,0
256,304,113001,1,0
320,8,120201,6,0,L|320:128,1,85
320,88,120601,2,0,L|320:208,1,85
320,176,121001,2,0,L|320:296,1,85
320,264,121401,2,0,L|320:384,1,85
256,352,121801,2,0,L|256:267,1,85
256,264,122201,2,0,L|256:179,1,85
256,176,122601,2,0,L|256:91,1,85
256,96,123001,2,0,L|256:11,1,85
192,16,123401,2,0,L|192:136,1,85
192,104,123801,2,0,L|192:224,1,85
192,192,124201,2,0,L|192:312,1,85
192,280,124601,2,0,L|192:400,1,85
256,368,125001,1,0
256,280,125401,1,0
256,192,125801,1,0
256,128,126001,1,0
352,328,133001,5,0
200,344,133401,1,0
232,272,133601,1,0
288,216,133801,1,0
360,184,134001,1,0
224,144,134401,1,0
224,144,134601,1,0
200,8,135001,1,0
272,40,135201,1,0
328,96,135401,1,0
360,168,135601,1,0
264,232,136001,1,0
264,232,136201,1,0
160,272,136601,1,0
224,312,136801,1,0
304,312,137001,1,0
360,264,137201,1,0
264,232,137601,1,0
264,32,138601,1,4
176,232,149001,5,0
176,152,149201,1,0
256,152,149401,1,0
336,152,149601,1,0
336,232,149801,1,0
256,232,150001,1,0
176,232,150201,1,0
336,112,155401,5,0
336,192,155601,1,0
336,272,155801,1,0
256,272,156001,1,0
256,192,156201,1,0
336,192,156401,1,0
336,112,156601,1,0
256,112,156801,1,0
176,112,157001,1,0
176,192,157201,1,0
176,272,157401,1,0
256,272,157601,1,0
256,192,157801,1,0
160,88,160201,5,0
224,136,160401,1,0
288,184,160601,1,0
344,240,160801,2,0,B|312:328|216:336,1,170
192,80,163401,5,0
256,112,163601,1,0
256,240,164001,1,0
320,272,164201,1,0
352,56,165801,5,0
296,104,166001,1,0
160,336,167401,5,0
216,288,167601,1,0
148,190,169001,5,0
220,190,169201,1,0
364,190,170601,5,0
292,190,170801,1,0
296,304,173001,5,0
216,304,173201,1,0
216,224,173401,1,0
296,224,173601,2,0,B|224:48,1,170
195,131,176201,5,0
168,200,176401,1,0
248,184,176601,1,0
220,256,176801,1,0
328,336,177201,1,0
320,320,178601,5,0
248,344,178801,1,0
192,64,180401,5,0
336,216,181801,5,0
272,176,182001,1,0
168,248,183401,5,0
216,192,183601,1,0
200,72,189601,5,0
272,64,189816,1,0
288,136,190038,1,0
216,144,190260,2,0,B|40:336,1,255
256,336,191593,1,0
328,336,191816,1,0
400,336,192038,1,0
472,336,192260,1,0
472,264,192482,1,0
400,264,192705,1,0
400,192,192927,1,0
472,192,193149,2,0,B|440:88|320:88,1,170
392,192,194037,2,0,B|360:296|240:296,1,170
312,200,194926,2,4,B|280:96|160:96,1,170
200,200,195815,2,4,B|232:96|352:96,1,170
