osu file format v6

[General]
AudioFilename: RainbowSpinel.mp3
AudioLeadIn: 0
PreviewTime: -1
Countdown: 1
SampleSet: None
StackLeniency: 0.7
Mode: 0
LetterboxInBreaks: 1

[Editor]
DistanceSpacing: 0.800000011920929
BeatDivisor: 4
GridSize: 8

[Metadata]
Title:RainbowSpinel
Artist:Sp1NeL
Creator:Xsel
Version:Normal
Source:
Tags:

[Difficulty]
HPDrainRate:5
CircleSize:4
OverallDifficulty:0
SliderMultiplier:2.1
SliderTickRate:1

[Events]
//Background and Video events
//Break Periods
//Storyboard Layer 0 (Background)
//Storyboard Layer 1 (Fail)
//Storyboard Layer 2 (Pass)
//Storyboard Layer 3 (Foreground)
//Storyboard Sound Samples
//Background Colour Transformations
3,100,0,0,0

[TimingPoints]
53757.3891810308,652.173913043478,4,0,0,100,1,0

[Colours]
Combo1 : 255,255,0
Combo2 : 5,240,5
Combo3 : 0,255,255
Combo4 : 240,5,5

[HitObjects]
200,200,605,1,0
328,216,768,1,0
120,136,931,1,0
352,144,1094,1,0
168,216,1257,1,0
272,256,1420,1,0
336,336,1583,1,0
224,160,1746,5,0
128,264,1909,1,0
240,304,2072,1,0
352,192,2235,1,0
192,112,2561,1,0
112,216,2724,1,0
208,304,2887,1,0
352,192,3050,1,0
240,120,3213,1,0
112,216,3376,1,0
240,304,3539,1,0
352,192,3703,1,0
192,112,4029,1,0
112,216,4192,1,0
208,304,4355,1,0
256,192,3866,12,0,4355
352,192,4518,1,0
272,120,4681,1,0
168,192,4844,1,0
264,264,5007,1,0
352,192,5170,1,0
320,104,5496,1,0
176,144,5659,1,0
176,240,5822,1,0
264,264,5985,1,0
320,176,6148,1,0
176,96,6311,1,0
48,216,6474,1,0
200,312,6637,1,0
352,224,6800,1,0
288,128,6963,1,0
104,200,7289,1,0
256,192,7126,12,0,7453
200,312,7453,1,0
352,272,7616,1,0
376,200,7779,1,0
288,128,7942,1,0
376,200,8105,1,0
240,280,8268,5,0
328,136,8594,1,0
256,192,8431,12,0,8594
168,128,8757,1,0
152,224,8920,1,0
200,312,9083,1,0
320,272,9246,1,0
320,272,9409,1,0
72,224,9735,5,0
200,312,9898,1,0
320,272,10061,1,0
176,80,10224,1,0
144,304,10550,1,0
256,240,10713,5,0
128,112,10876,1,0
376,128,11039,1,0
240,96,11203,1,0
184,192,11366,1,0
248,280,11529,1,0
400,320,11692,1,0
472,176,11855,1,0
184,144,12018,1,0
208,288,12181,1,0
176,48,12344,1,0
320,264,12670,5,0
448,208,12996,1,0
224,160,13159,1,0
208,288,13322,1,0
320,304,13485,1,0
400,240,13648,1,0
8,152,13811,1,0
456,336,13974,1,0
120,256,14137,5,0
192,184,14300,1,0
320,216,14463,1,0
224,160,14626,1,0
160,216,14789,1,0
280,224,15116,5,0
256,96,15442,1,0
280,224,15605,5,0
296,264,15931,1,0
296,264,16094,1,0
336,256,16257,1,0
288,160,16420,1,0
112,272,16583,1,0
232,256,16746,1,0
280,224,16909,5,0
224,152,17072,1,0
128,168,17235,1,0
336,312,17398,1,0
184,264,17561,1,0
272,192,17724,1,0
152,200,17887,1,0
256,112,18050,1,0
336,248,18213,1,0
184,264,18376,1,0
48,56,18539,1,0
336,248,18703,1,0
272,192,18866,1,0
264,336,19029,1,0
240,232,19192,5,0
240,232,19355,1,0
184,224,19518,1,0
160,296,19681,1,0
240,232,19844,1,0
336,248,20007,1,0
280,280,20170,1,0
104,184,20333,5,0
224,272,20496,1,0
240,232,20659,1,0
240,232,20985,1,0
280,280,21148,1,0
136,160,21311,1,0
136,256,21474,1,0
192,232,21800,5,0
192,232,21963,1,0
192,232,22289,1,0
192,232,22616,1,0
192,232,22779,1,0
192,232,22942,1,0
192,232,23105,1,0
120,344,23268,1,0
288,160,23431,1,0
72,128,23594,1,0
80,160,23757,1,0
256,192,22453,12,0,23757
272,240,23920,1,0
120,304,24083,1,0
256,120,24246,1,0
120,144,24409,1,0
128,264,24572,1,0
288,288,24735,1,0
288,160,24898,1,0
128,264,25061,1,0
288,320,25224,1,0
336,320,25387,1,0
344,216,25550,1,0
392,208,25713,1,0
256,120,25876,1,0
96,160,26039,1,0
96,272,26203,1,0
256,272,26366,1,0
256,120,26529,1,0
480,264,26692,1,0
112,104,26855,1,0
96,272,27018,1,0
160,280,27181,1,0
96,304,27344,1,0
256,120,27507,1,0
376,160,27670,1,0
344,200,27833,1,0
376,288,27996,1,0
280,280,28159,1,0
200,272,28322,1,0
232,328,28485,1,0
312,328,28648,1,0
344,256,28811,1,0
240,184,28974,1,0
152,232,29137,1,0
152,232,29300,1,0
96,240,29463,1,0
40,240,29626,1,0
152,136,29789,1,0
64,208,29953,1,0
88,272,30116,1,0
160,288,30279,1,0
264,352,30442,1,0
264,352,30605,1,0
352,352,30768,1,0
456,320,31094,1,0
456,320,31257,1,0
448,256,31420,1,0
448,256,31583,1,0
448,216,31746,1,0
448,184,31909,1,0
256,192,30931,12,0,32072
448,184,32072,1,0
448,184,32235,1,0
448,152,32398,1,0
448,152,32561,1,0
448,152,32724,1,0
400,88,33050,1,0
400,88,33213,1,0
352,72,33376,1,0
256,192,32887,12,0,33376
352,72,33539,1,0
304,72,33703,1,0
304,72,33866,1,0
304,72,34029,1,0
304,72,34192,1,0
264,72,34355,1,0
128,176,34518,1,0
216,64,34681,1,0
216,64,34844,1,0
168,72,35007,1,0
168,72,35170,1,0
128,176,35496,1,0
400,128,35333,2,0,B|408:200,2,52.5
160,176,35659,1,0
200,208,35822,1,0
200,208,35985,1,0
248,240,36148,1,0
224,264,36474,1,0
184,304,36637,1,0
304,152,36311,2,0,B|328:272,1,105
136,296,36800,1,0
120,232,36963,1,0
104,272,37126,1,0
104,152,37289,1,0
104,152,37453,1,0
160,128,37616,1,0
208,136,37942,1,0
432,192,37779,2,0,B|448:256,2,52.5
272,128,38105,1,0
264,168,38268,1,0
240,144,38431,1,0
248,224,38594,1,0
184,232,38920,1,0
184,232,39083,1,0
144,256,39246,1,0
192,296,39409,1,0
264,304,39735,1,0
336,312,39898,1,0
368,312,40061,1,0
368,312,40224,1,0
368,312,40550,1,0
400,296,40713,1,0
360,208,40387,2,0,B|400:144,2,52.5
424,256,40876,1,0
440,224,41039,1,0
456,192,41203,1,0
456,192,41366,1,0
472,152,41529,1,0
448,120,41692,1,0
392,72,42018,1,0
280,120,41855,2,0,B|176:112,2,52.5
440,88,42181,1,0
392,72,42344,1,0
360,64,42507,1,0
328,64,42670,1,0
328,64,42833,1,0
272,48,42996,1,0
232,48,43159,1,0
80,88,43485,1,0
80,88,43648,1,0
64,120,43811,1,0
128,176,43322,2,0,B|184:232,3,52.5
56,160,43974,1,0
64,208,44137,1,0
64,240,44300,1,0
112,264,44626,1,0
112,264,44789,1,0
152,288,44953,1,0
280,272,44463,2,0,B|352:280,4,52.5
152,288,45116,1,0
208,336,45279,1,0
264,344,45442,1,0
296,344,45605,1,0
336,312,45931,1,0
336,312,46094,1,0
336,312,46257,1,0
336,312,46420,1,0
376,280,46583,1,0
376,280,46746,1,0
416,272,46909,1,0
432,240,47072,1,0
432,192,45768,2,0,B|336:200|304:128,4,105
432,192,47235,1,0
432,192,47398,1,0
416,160,47561,1,0
416,160,47724,1,0
408,128,48050,1,0
392,96,48213,1,0
392,96,48376,1,0
344,80,48539,1,0
312,48,48703,1,0
312,48,48866,1,0
288,72,49029,1,0
288,72,49192,1,0
232,56,49355,1,0
184,48,49518,1,0
184,48,49681,1,0
160,136,47887,2,0,B|192:184|264:304|112:304,3,210
136,88,49844,1,0
136,88,50007,1,0
80,128,50170,1,0
80,128,50333,1,0
64,176,50659,1,0
231,254,50822,1,0
56,216,50985,1,0
56,216,51148,1,0
56,216,51311,1,0
56,248,51474,1,0
56,248,51637,1,0
96,320,51800,1,0
288,168,50496,2,0,B|432:304|232:208,2,210
96,320,51963,1,0
136,336,52126,1,0
192,344,52289,1,0
224,344,52616,1,0
224,344,52779,1,0
256,336,52942,1,0
224,344,53105,1,0
192,344,53268,1,0
136,128,52453,2,0,B|280:232,2,157.5
48,64,53431,1,0
256,136,53594,1,0
384,160,53757,1,0
152,256,53920,1,0
296,328,54083,1,0
304,144,54409,1,0
336,304,54572,1,0
304,64,54735,1,0
64,160,54898,1,0
152,256,55061,1,0
376,280,55224,1,0
200,72,55387,1,0
8,144,55550,1,0
120,264,55713,1,0
464,72,54246,2,0,B|432:232,3,157.5
312,216,55876,1,0
376,144,56039,1,0
448,192,56203,1,0
456,136,56366,1,0
456,136,56529,1,0
408,64,56692,1,0
376,40,56855,1,0
376,40,57018,1,0
288,8,57344,1,0
208,176,57181,2,0,B|336:192,1,105
288,8,57507,1,0
232,0,57670,1,0
232,0,57833,1,0
200,16,58159,1,0
232,40,58322,1,0
200,16,58485,1,0
168,32,58648,1,0
168,32,58811,1,0
168,32,58974,1,0
144,56,59137,1,0
112,88,59300,1,0
112,88,59463,1,0
112,88,59626,1,0
112,88,59789,1,0
256,208,57996,2,0,B|128:288|368:168|400:248,3,210
96,120,59953,1,0
96,120,60116,1,0
96,120,60279,1,0
72,152,60442,1,0
72,152,60605,1,0
72,152,60768,1,0
64,192,60931,1,0
80,232,61094,1,0
48,240,61257,1,0
128,304,61420,1,0
168,328,61583,1,0
208,296,61746,1,0
208,296,61909,1,0
216,136,62072,1,0
208,224,62235,1,0
96,184,62398,1,0
96,184,62561,1,0
16,72,62724,1,0
128,112,62887,1,0
248,80,63050,1,0
416,104,63213,1,0
424,72,63376,1,0
424,72,63539,1,0
344,112,63703,1,0
208,296,63866,1,0
296,192,64029,1,0
344,112,64192,1,0
104,168,64355,1,0
136,240,64518,1,0
360,312,64681,1,0
288,224,64844,1,0
176,160,65007,1,0
232,72,65170,1,0
448,288,65333,1,0
208,240,65496,5,0
248,288,65659,1,0
136,240,65822,1,0
104,344,65985,1,0
472,144,66148,1,0
72,136,66311,1,0
96,176,66474,1,0
176,224,66637,1,0
304,200,66800,1,0
376,256,66963,1,0
248,288,67126,1,0
248,288,67289,1,0
176,136,67453,1,0
176,136,67616,1,0
136,160,67779,1,0
288,96,67942,5,0
224,152,68105,1,0
216,192,68268,1,0
176,136,68431,1,0
416,176,68594,1,0
368,112,68757,1,0
288,168,68920,1,0
56,256,69083,1,0
56,256,69246,1,0
56,256,69409,1,0
88,288,69572,1,0
88,288,69735,1,0
120,320,69898,1,0
120,320,70061,1,0
120,320,70224,1,0
200,344,70387,1,0
200,344,70550,1,0
240,336,70713,1,0
272,336,70876,1,0
336,344,71039,1,0
160,176,71203,1,0
336,344,71366,1,0
416,336,71529,1,0
200,344,71692,1,0
376,144,71855,1,0
240,336,72018,1,0
304,336,72181,1,0
456,344,72344,1,0
416,336,72507,1,0
336,344,72670,1,0
376,344,72833,1,0
104,248,72996,5,0
432,304,73159,1,0
208,272,73322,1,0
456,344,73485,1,0
256,152,73648,1,0
496,264,73811,1,0
496,136,73974,1,0
496,224,74137,1,0
496,232,74300,1,0
488,192,74463,1,0
120,120,74626,5,0
264,320,74789,1,0
496,136,74953,1,0
344,232,75116,1,0
496,96,75279,1,0
376,32,75442,1,0
336,24,75605,1,0
376,32,75768,1,0
336,24,75931,1,0
96,248,76094,5,0
208,272,76257,1,0
264,176,76420,1,0
344,32,76583,1,0
344,32,76746,1,0
192,32,76909,1,0
224,32,77072,1,0
224,32,77235,1,0
376,216,77398,5,0
376,272,77561,1,0
296,304,77724,1,0
144,48,77887,1,0
144,40,78050,1,0
96,56,78213,1,0
96,64,78376,1,0
96,56,78539,1,0
296,112,78703,5,0
224,184,78866,1,0
184,272,79029,1,0
296,304,79192,1,0
360,216,79355,1,0
48,128,79518,1,0
32,192,79681,1,0
40,176,79844,1,0
32,160,80007,1,0
32,192,80170,1,0
176,88,80333,5,0
248,184,80496,1,0
384,184,80659,1,0
64,304,80822,1,0
24,288,80985,1,0
168,344,81148,1,0
240,344,81311,1,0
264,224,81474,5,0
128,352,81637,1,0
240,344,81800,1,0
128,360,81963,1,0
200,72,82126,5,0
288,352,82289,1,0
328,336,82453,1,0
56,208,82616,5,0
336,336,82779,1,0
360,344,82942,1,0
56,208,83105,5,0
376,312,83268,1,0
240,232,83431,5,0
472,192,83594,1,0
472,240,83757,1,0
464,248,83920,1,0
472,192,84083,1,0
464,144,84246,1,0
224,72,84409,5,0
432,152,84572,1,0
464,112,84735,1,0
464,112,84898,1,0
448,72,85061,1,0
392,72,85224,1,0
448,72,85387,1,0
424,72,85550,1,0
416,56,85713,1,0
184,224,85876,5,0
352,48,86039,1,0
384,48,86203,1,0
320,48,86366,1,0
416,248,86529,5,0
280,56,86692,1,0
240,64,86855,1,0
240,64,87018,1,0
208,96,87181,1,0
120,152,87344,5,0
264,112,87507,1,0
208,96,87670,1,0
224,112,87833,1,0
336,144,87996,5,0
192,168,88159,1,0
192,168,88322,1,0
352,312,88485,5,0
192,168,88648,1,0
200,200,88811,1,0
200,200,88974,1,0
200,232,89137,1,0
104,104,89300,5,0
152,280,89463,1,0
272,192,89626,1,0
88,240,89789,5,0
184,272,89953,1,0
216,256,90116,1,0
128,304,90279,1,0
320,296,90442,5,0
272,200,90605,1,0
232,296,90768,1,0
360,320,90931,1,0
336,168,91094,5,0
320,296,91257,1,0
296,288,91420,1,0
312,336,91583,1,0
344,320,91746,1,0
240,112,91909,5,0
408,304,92072,1,0
176,248,92235,1,0
440,48,92398,1,0
424,64,92561,1,0
416,96,92724,1,0
296,72,92887,1,0
312,336,93050,1,0
376,256,93213,1,0
208,288,93376,1,0
376,256,93703,1,0
312,336,93866,1,0
136,144,94029,5,0
72,224,94192,1,0
192,344,94355,1,0
344,152,94518,1,0
352,216,94681,1,0
240,80,94844,5,0
128,352,95007,1,0
192,344,95170,1,0
248,312,95333,1,0
416,96,95496,5,0
192,344,95659,1,0
304,360,95822,1,0
304,360,95985,1,0
336,352,96148,1,0
128,168,96311,5,0
256,280,96474,1,0
336,352,96637,1,0
304,360,96800,1,0
384,232,96963,5,0
384,352,97126,1,0
480,312,97289,1,0
496,248,97453,1,0
144,96,97616,5,0
464,256,97779,1,0
504,208,97942,1,0
352,112,98105,5,0
496,248,98268,1,0
488,128,98431,1,0
488,128,98594,1,0
504,208,98757,1,0
144,96,98920,5,0
320,48,99083,1,0
256,280,99246,1,0
320,128,99409,1,0
272,40,99572,1,0
104,232,99735,1,0
272,40,99898,1,0
192,136,100061,1,0
336,184,100224,1,0
400,96,100387,1,0
392,240,100550,1,0
192,96,100713,1,0
184,192,100876,1,0
120,288,101039,1,0
240,328,101203,1,0
336,184,101366,1,0
192,96,101529,1,0
184,192,101692,1,0
296,216,101855,1,0
80,184,102018,1,0
72,240,102181,1,0
48,192,102344,5,0
240,328,102507,1,0
88,272,102670,1,0
360,288,102833,5,0
352,344,102996,1,0
128,168,103159,1,0
416,296,103322,1,0
360,256,103485,1,0
472,328,103648,1,0
200,152,103811,5,0
424,240,103974,1,0
472,328,104137,1,0
440,208,104300,1,0
112,112,104463,5,0
152,288,104626,1,0
304,152,104789,1,0
440,80,104953,1,0
256,328,105116,1,0
120,272,105279,1,0
104,304,105442,1,0
136,336,105605,1,0
240,288,105768,1,0
304,152,105931,1,0
336,232,106094,1,0
240,128,106257,1,0
152,176,106420,1,0
80,168,106583,1,0
272,120,106909,1,0
256,192,106746,12,0,107072
336,264,107072,1,0
424,232,107235,1,0
360,304,107398,1,0
320,88,107561,1,0
448,128,107724,1,0
120,328,107887,1,0
448,128,108050,1,0
400,48,108213,1,0
192,96,108376,1,0
96,80,108539,1,0
96,80,108703,1,0
48,216,108866,1,0
128,136,109192,1,0
216,216,109355,1,0
304,168,109518,1,0
328,280,109681,1,0
168,192,109844,1,0
200,288,110007,1,0
88,328,110170,1,0
400,160,110333,1,0
160,288,110496,1,0
264,144,110659,5,0
104,208,110822,1,0
408,336,110985,1,0
232,224,111148,1,0
368,152,111474,1,0
384,192,111637,1,0
288,240,111800,1,0
232,264,111963,1,0
232,224,112126,1,0
168,232,112289,1,0
232,224,112453,1,0
264,160,112616,1,0
248,192,112942,1,0
200,248,113105,1,0
320,248,113268,1,0
352,120,113431,1,0
400,128,113594,1,0
128,192,113757,1,0
320,136,113920,1,0
264,160,114083,1,0
200,248,114246,1,0
176,280,114409,1,0
112,280,114572,1,0
112,320,114735,1,0
232,320,114898,1,0
400,216,115061,1,0
336,312,115224,1,0
336,312,115387,1,0
368,224,115550,1,0
304,192,115713,1,0
232,224,115876,1,0
208,272,116039,1,0
272,296,116203,1,0
368,296,116366,1,0
424,288,116529,1,0
400,232,116692,1,0
304,192,116855,1,0
192,184,117181,1,0
200,224,117344,1,0
