osu file format v9

[General]
AudioFilename: Sowelu - Wish.mp3
AudioLeadIn: 0
PreviewTime: 54481
Countdown: 0
SampleSet: Soft
StackLeniency: 0.7
Mode: 0
LetterboxInBreaks: 0

[Editor]
Bookmarks: 83151,93437,120865,162008,187722,192865,220294
DistanceSpacing: 1
BeatDivisor: 4
GridSize: 8

[Metadata]
Title:Wish
Artist:Sowelu
Creator:Lissette
Version:Kenezz & Vicho
Source:D.Gray-man
Tags:Lizbeth KenezzEdward Vicho-kun collab collaboration

[Difficulty]
HPDrainRate:4
CircleSize:3
OverallDifficulty:3
ApproachRate:3
SliderMultiplier:1.5
SliderTickRate:1

[Events]
//Background and Video events
0,0,"BG.jpg"
//Break Periods
2,82538,92041
2,187966,191469
//Storyboard Layer 0 (Background)
//Storyboard Layer 1 (Fail)
//Storyboard Layer 2 (Pass)
//Storyboard Layer 3 (Foreground)
//Storyboard Sound Samples
//Background Colour Transformations
3,100,163,162,255

[TimingPoints]
14624,857.142857142857,4,2,0,100,1,0
55766,-100,4,2,0,100,0,1
68624,-100,4,2,0,100,0,0
69481,-100,4,2,0,100,0,1
82338,-100,4,2,0,100,0,0
134623,-100,4,2,0,100,0,1
147481,-100,4,2,0,100,0,0
148338,-100,4,2,0,100,0,1
161195,-100,4,2,0,100,0,0
192909,-100,4,2,0,100,0,1
205766,-100,4,2,0,100,0,0
206623,-100,4,2,0,100,0,1
219481,-100,4,2,0,100,0,0

[Colours]
Combo1 : 255,255,106
Combo2 : 0,64,128
Combo3 : 255,141,28
Combo4 : 0,240,120
Combo5 : 151,0,151

[HitObjects]
96,304,14624,5,4
160,272,15053,1,0
176,200,15481,2,0,B|80:184|64:72,2,150,8|0|8
200,128,17624,1,0
272,128,18053,6,0,B|432:128,1,150,0|8
448,192,19339,1,0
448,192,19767,2,0,B|288:192,1,150,0|8
272,264,21053,1,0
216,312,21481,6,0,B|120:296|112:192,1,150,0|8
168,168,22767,1,0
168,168,23196,2,0,B|160:64|264:40,1,150,0|8
272,112,24482,2,0,B|360:112,1,75
368,184,25339,5,0
368,184,25767,2,0,B|456:168|440:56,2,150,8|0|8
368,256,27910,1,0
320,312,28339,5,4
256,272,28767,1,0
184,272,29196,2,0,B|168:232|104:216,1,75,8|0
160,160,30053,2,0,B|240:136|272:32,1,150,0|8
336,88,31339,1,0
376,152,31767,6,0,B|376:320,1,150,0|8
304,272,33053,1,0
304,272,33482,2,0,B|304:112,2,150,0|8|0
240,312,35624,5,0
240,312,36053,2,0,B|216:232|104:240,1,150,8|0
64,192,37339,1,0
128,152,37766,2,0,B|192:104|296:128,1,150,8|0
312,184,39052,5,0
384,216,39481,2,0,B|368:296|256:304,1,150,8|0
256,152,41195,1,8
256,152,41623,1,0
256,152,42052,6,0,B|184:192|112:152,2,150,4|8|0
288,224,44195,1,0
288,224,44623,1,8
416,144,45481,6,0,B|328:136|288:72,1,150,0|8
216,80,46766,2,0,B|120:80,2,75
208,152,48052,2,0,B|232:232|168:304,1,150,8|4
248,320,49338,6,0,B|328:336,1,75,0|8
360,272,50195,2,0,B|456:272,2,75
328,200,51481,1,8
256,192,52338,12,4,54909
256,48,55766,6,0,B|336:48,1,75,4|0
408,48,56624,2,0,B|456:112|408:192,1,150,8|0
280,112,58338,6,0,B|280:192,1,75,8|0
280,264,59195,2,0,B|216:311|139:265,2,150,4|8|0
432,264,61766,5,8
432,192,62195,1,0
432,120,62624,2,0,B|352:120,2,75,4|0|8
432,192,63909,2,0,B|280:192,1,150
208,192,65195,5,8
208,192,65624,1,0
208,192,66052,1,4
320,96,66909,2,0,B|408:96|456:192|408:288|320:288,1,300,8|8
248,288,69052,5,0
248,216,69481,1,4
248,144,69909,2,0,B|96:144,2,150
320,144,72052,6,0,B|400:144,2,75,8|0|4
248,144,73338,1,0
176,144,73766,2,0,B|120:208|176:280,1,150,8|0
328,280,75481,5,8
328,280,75909,1,0
328,280,76338,2,0,B|328:128,2,150,4|8|0
184,224,78909,1,8
112,224,79338,1,0
256,192,79766,12,0,82338
416,336,93481,5,4
344,336,93910,1,0
304,272,94338,2,0,B|208:256|192:144,2,150,8|0|8
352,216,96481,5,0
352,216,96910,2,0,B|352:56,1,150,4|8
280,48,98196,5,0
280,47,98624,2,0,B|176:31|136:111,1,150,0|8
184,160,99910,1,0
184,160,100338,2,0,B|336:216,1,150,4|8
344,288,101624,5,0
344,288,102053,2,0,B|192:232,1,150,0|8
136,200,103339,6,0,B|136:120,1,75
208,136,104196,1,0
208,136,104624,2,0,B|304:144|360:56,2,150,8|0|8
208,208,106767,1,0
208,280,107196,1,4
352,320,108053,6,0,B|368:280|432:264,1,75,8|0
352,216,108910,2,0,B|432:192|464:88,1,150,0|8
384,80,110196,1,0
312,104,110624,6,0,B|152:104,1,150,4|8
112,160,111910,1,0
112,160,112338,2,0,B|192:192|192:288,1,150,0|8
264,256,113623,1,0
264,256,114053,1,4
376,160,114910,6,0,B|288:152|256:80,1,150,8|0
257,82,116196,1,0
184,112,116623,1,8
256,192,117481,12,8,120052
128,120,120909,6,0,B|192:56|256:134|256:134|320:56|384:120,1,300
408,192,123052,1,0
336,192,123481,2,0,B|184:192,1,150,8|0
112,192,124766,1,0
128,264,125195,2,0,B|192:328|256:250|256:250|320:328|384:264,1,300,8|8
344,120,127766,5,0
272,120,128195,1,0
200,120,128623,2,0,B|152:192|200:264,2,150,8|0|8
256,192,130766,12,4,132909
112,152,134623,5,4
184,152,135052,1,0
256,152,135481,2,0,B|352:152|352:64,2,150,8|0|8
256,224,137623,5,0
256,224,138052,2,0,B|352:224|352:312,2,150,4|8|0
128,296,140623,5,8
128,224,141052,1,0
128,152,141481,1,4
280,152,142338,1,8
280,304,143195,2,0,B|360:304,1,75
432,304,144052,6,0,B|432:152,1,150,8|0
280,152,145766,2,0,B|280:231|176:279|72:231|72:154,1,300,8|8
72,80,147909,5,0
72,80,148338,2,0,B|224:80,1,150,4|8
296,80,149623,1,0
296,80,150052,1,0
400,192,150909,6,0,B|400:288|312:288,1,150,8|4
240,288,152195,1,0
168,288,152623,1,8
96,288,153052,2,0,B|64:216,1,75
144,96,154338,6,0,B|216:48|288:96,1,150,8|4
288,168,155623,2,0,B|360:216|432:168,2,150
256,192,157766,12,4,161195
80,96,162052,6,0,B|80:175|184:231|280:175|280:95,1,300,4|0
352,64,164195,1,0
416,104,164623,2,0,B|392:144|416:200,1,75,8|0
344,224,165481,6,0,B|424:264|440:352,2,150,0|8|0
280,264,167623,2,0,B|200:264,2,75,0|8|0
264,192,168909,6,0,B|176:176|160:80,1,150,4|8
232,72,170195,2,0,B|240:32|288:32,1,75
320,96,171052,1,0
320,168,171481,1,8
368,224,171909,1,0
368,224,172338,6,0,B|448:192|432:80,1,150,0|8
360,112,173623,2,0,B|360:16,3,75,0|0|0|8
224,96,175766,6,0,B|176:168|64:136,1,150,4|8
88,216,177052,1,0
88,216,177481,1,0
200,320,178338,1,8
312,216,179195,6,0,B|368:152|472:176,1,150,0|8
448,96,180481,1,0
384,56,180909,1,0
312,56,181338,2,0,B|272:80|272:128,2,75,0|8|0
240,32,182623,6,0,B|214:107|115:139,1,150,4|8
160,280,184338,2,0,B|264:280|312:360,1,150,0|8
424,264,186052,2,0,B|384:192|416:112,1,150,0|8
272,72,187766,1,0
112,192,192909,5,4
184,192,193338,2,0,B|184:112,1,75,0|8
184,192,194195,2,0,B|264:192,1,75
408,192,195481,6,0,B|408:104|312:104,2,150,8|4|8
408,264,197623,1,0
408,264,198052,1,0
256,264,198909,6,0,B|184:288|104:256,1,150,8|4
104,184,200195,1,0
104,112,200623,2,0,B|178:82|250:106,2,150,8|0|8
104,184,202766,1,0
104,256,203195,5,0
176,256,203623,1,0
248,256,204052,1,8
400,256,204909,1,0
400,256,205338,1,0
400,256,205766,1,8
400,104,206623,5,4
400,104,207052,1,0
400,104,207481,2,0,B|328:64|256:104,1,150,8|0
256,256,209195,5,8
256,256,209623,1,0
256,256,210052,2,0,B|184:296|112:256,2,150,4|8|0
256,104,212623,5,8
256,104,213052,1,0
256,104,213481,2,0,B|176:104,2,75,4|0|8
328,104,214766,1,0
400,104,215195,2,0,B|400:184,1,75
256,192,216052,12,4,219481
