osu file format v14

[General]
AudioFilename: 02. Miss Parallel World.mp3
AudioLeadIn: 0
PreviewTime: 160052
Countdown: 0
SampleSet: Normal
StackLeniency: 0.7
Mode: 1
LetterboxInBreaks: 0
WidescreenStoryboard: 0

[Editor]
DistanceSpacing: 1
BeatDivisor: 4
GridSize: 32
TimelineZoom: 1.9

[Metadata]
Title:Miss Parallel World
TitleUnicode:ミス・パラレルワールド
Artist:Soutaisei Riron
ArtistUnicode:相対性理論
Creator:Coro
Version:Oni
Source:
Tags:Etsuko Yakushimaru Seiichi Nagai Shuuichi Manabe Kensuke Nishiura Tika・α pop'n music 19 TUNE STREET
BeatmapID:674432
BeatmapSetID:300710

[Difficulty]
HPDrainRate:5
CircleSize:5
OverallDifficulty:5
ApproachRate:5
SliderMultiplier:1.4
SliderTickRate:1

[Events]
//Background and Video events
0,0,"bg.jpg",0,0
//Break Periods
//Storyboard Layer 0 (Background)
//Storyboard Layer 1 (Fail)
//Storyboard Layer 2 (Pass)
//Storyboard Layer 3 (Foreground)
//Storyboard Sound Samples

[TimingPoints]
1260.36668162986,451.127819548872,4,1,0,70,1,0
58328,-105.263157894737,4,1,0,70,0,0
58553,-111.111111111111,4,1,0,70,0,0
58779,-117.647058823529,4,1,0,70,0,0
59004,-125,4,1,0,60,0,0
73440,-100,4,1,0,70,0,1
87876,-100,4,1,0,70,0,0
116072,-105.263157894737,4,1,0,70,0,0
116297,-111.111111111111,4,1,0,70,0,0
116523,-117.647058823529,4,1,0,70,0,0
116749,-125,4,1,0,60,0,0
131185,-100,4,1,0,70,0,1
159267,-103.092783505155,4,1,0,70,0,1
159380,-105.263157894737,4,1,0,70,0,1
159493,-107.52688172043,4,1,0,70,0,1
159606,-111.111111111111,4,1,0,70,0,1
159719,-114.942528735632,4,1,0,70,0,1
159831,-117.647058823529,4,1,0,70,0,1
159944,-120.481927710843,4,1,0,70,0,1
160057,-125,4,1,0,60,0,0
188929,-100,4,1,0,70,0,1
217801,-100,4,1,0,70,0,0

[HitObjects]
192,256,1260,5,4,0:0:0:0:
192,256,1711,1,8,0:0:0:0:
192,256,2162,1,0,0:0:0:0:
192,256,2388,1,0,0:0:0:0:
192,256,2613,1,8,0:0:0:0:
192,256,3064,1,0,0:0:0:0:
192,256,3516,1,8,0:0:0:0:
192,256,3854,1,0,0:0:0:0:
192,256,3967,1,0,0:0:0:0:
192,256,4192,1,0,0:0:0:0:
192,256,4418,1,8,0:0:0:0:
192,256,4869,1,0,0:0:0:0:
192,256,5320,1,8,0:0:0:0:
192,256,5771,1,0,0:0:0:0:
192,256,5997,1,0,0:0:0:0:
192,256,6222,1,8,0:0:0:0:
224,256,6673,1,0,0:0:0:0:
224,256,7125,1,8,0:0:0:0:
192,256,7463,1,0,0:0:0:0:
224,256,7576,1,0,0:0:0:0:
224,256,7801,1,0,0:0:0:0:
224,256,8027,1,8,0:0:0:0:
192,256,8478,1,0,0:0:0:0:
192,256,8703,1,8,0:0:0:0:
192,256,8929,1,8,0:0:0:0:
192,256,9380,1,0,0:0:0:0:
192,256,9831,1,8,0:0:0:0:
192,256,10282,1,0,0:0:0:0:
192,256,10734,1,8,0:0:0:0:
192,256,11072,1,0,0:0:0:0:
192,256,11185,1,0,0:0:0:0:
192,256,11410,1,0,0:0:0:0:
192,256,11636,1,8,0:0:0:0:
192,256,12087,1,0,0:0:0:0:
192,256,12538,1,8,0:0:0:0:
192,256,12989,1,0,0:0:0:0:
192,256,13215,1,0,0:0:0:0:
192,256,13440,1,8,0:0:0:0:
192,256,13891,1,0,0:0:0:0:
192,256,14343,1,8,0:0:0:0:
192,256,14681,1,0,0:0:0:0:
192,256,14794,1,0,0:0:0:0:
192,256,15019,1,0,0:0:0:0:
192,256,15245,1,8,0:0:0:0:
192,256,15696,1,0,0:0:0:0:
192,256,16034,1,0,0:0:0:0:
192,256,16147,1,8,0:0:0:0:
192,256,16598,1,8,0:0:0:0:
192,256,17049,1,8,0:0:0:0:
192,256,17500,1,0,0:0:0:0:
192,256,17839,1,0,0:0:0:0:
192,256,17952,1,8,0:0:0:0:
192,256,18403,1,0,0:0:0:0:
192,256,18628,1,0,0:0:0:0:
192,256,18854,1,8,0:0:0:0:
192,256,19079,1,8,0:0:0:0:
192,256,19192,1,8,0:0:0:0:
192,256,19305,1,4,0:0:0:0:
192,256,19531,1,0,0:0:0:0:
192,256,19756,1,8,0:0:0:0:
192,256,19982,1,0,0:0:0:0:
192,256,20207,1,0,0:0:0:0:
192,256,20433,1,0,0:0:0:0:
192,256,20658,1,8,0:0:0:0:
192,256,20884,1,0,0:0:0:0:
192,256,21109,1,0,0:0:0:0:
192,256,21335,1,0,0:0:0:0:
192,256,21561,1,8,0:0:0:0:
192,256,21899,1,0,0:0:0:0:
192,256,22012,1,0,0:0:0:0:
192,256,22237,1,0,0:0:0:0:
192,256,22463,1,8,0:0:0:0:
160,256,22688,1,8,0:0:0:0:
192,256,22914,1,0,0:0:0:0:
192,256,23252,1,0,0:0:0:0:
192,256,23365,1,8,0:0:0:0:
192,256,23816,1,8,0:0:0:0:
192,256,24267,1,8,0:0:0:0:
192,256,24719,1,0,0:0:0:0:
192,256,25057,1,0,0:0:0:0:
192,256,25170,1,8,0:0:0:0:
192,256,25621,1,0,0:0:0:0:
192,256,25846,1,0,0:0:0:0:
192,256,26072,1,8,0:0:0:0:
192,256,26297,1,8,0:0:0:0:
192,256,26410,1,8,0:0:0:0:
192,256,26523,1,4,0:0:0:0:
192,256,26749,1,0,0:0:0:0:
192,256,26974,1,8,0:0:0:0:
192,256,27200,1,0,0:0:0:0:
192,256,27425,1,0,0:0:0:0:
192,256,27651,1,0,0:0:0:0:
192,256,27876,1,8,0:0:0:0:
192,256,28102,1,0,0:0:0:0:
192,256,28328,1,0,0:0:0:0:
192,256,28553,1,0,0:0:0:0:
192,256,28779,1,8,0:0:0:0:
192,256,29117,1,0,0:0:0:0:
192,256,29230,1,0,0:0:0:0:
192,256,29568,1,0,0:0:0:0:
192,256,29681,1,8,0:0:0:0:
128,256,29794,1,8,0:0:0:0:
160,256,29906,1,8,0:0:0:0:
160,256,30019,1,8,0:0:0:0:
160,256,30132,1,4,0:0:0:0:
160,256,30358,1,0,0:0:0:0:
160,256,30583,1,8,0:0:0:0:
160,256,31034,1,0,0:0:0:0:
160,256,31260,1,0,0:0:0:0:
160,256,31485,1,8,0:0:0:0:
160,256,31937,1,0,0:0:0:0:
160,256,32162,1,0,0:0:0:0:
160,256,32388,1,8,0:0:0:0:
160,256,32726,1,0,0:0:0:0:
160,256,32839,1,0,0:0:0:0:
160,256,33064,1,0,0:0:0:0:
160,256,33290,1,8,0:0:0:0:
160,256,33741,1,0,0:0:0:0:
160,256,33967,1,8,0:0:0:0:
160,256,34192,1,8,0:0:0:0:
160,256,34643,1,0,0:0:0:0:
160,256,34869,1,8,0:0:0:0:
160,256,35094,1,8,0:0:0:0:
160,256,35546,1,0,0:0:0:0:
160,256,35771,1,0,0:0:0:0:
160,256,35997,1,8,0:0:0:0:
160,256,36222,1,0,0:0:0:0:
160,256,36335,1,0,0:0:0:0:
160,256,36448,1,0,0:0:0:0:
160,256,36673,1,0,0:0:0:0:
160,256,36899,1,8,0:0:0:0:
160,256,37350,1,0,0:0:0:0:
160,256,37576,1,0,0:0:0:0:
160,256,37801,1,8,0:0:0:0:
160,256,38252,1,0,0:0:0:0:
160,256,38478,1,0,0:0:0:0:
160,256,38703,1,8,0:0:0:0:
160,256,39155,1,0,0:0:0:0:
160,256,39380,1,0,0:0:0:0:
160,256,39606,1,8,0:0:0:0:
160,256,39944,1,0,0:0:0:0:
160,256,40057,1,0,0:0:0:0:
160,256,40282,1,0,0:0:0:0:
160,256,40508,1,8,0:0:0:0:
160,256,40959,1,0,0:0:0:0:
160,256,41185,1,8,0:0:0:0:
160,256,41410,1,8,0:0:0:0:
160,256,41861,1,0,0:0:0:0:
160,256,42087,1,8,0:0:0:0:
160,256,42312,1,8,0:0:0:0:
160,256,42764,1,0,0:0:0:0:
160,256,42989,1,0,0:0:0:0:
160,256,43215,1,8,0:0:0:0:
160,256,43440,1,0,0:0:0:0:
160,256,43553,1,0,0:0:0:0:
160,256,43666,1,0,0:0:0:0:
160,256,43891,1,8,0:0:0:0:
160,256,44117,1,8,0:0:0:0:
192,256,44568,1,0,0:0:0:0:
192,256,44906,1,0,0:0:0:0:
192,256,45019,1,8,0:0:0:0:
192,256,45470,1,8,0:0:0:0:
192,256,45921,1,8,0:0:0:0:
192,256,46372,1,0,0:0:0:0:
192,256,46711,1,0,0:0:0:0:
192,256,46824,1,8,0:0:0:0:
192,256,47275,1,0,0:0:0:0:
192,256,47500,1,8,0:0:0:0:
192,256,47726,1,0,0:0:0:0:
192,256,47952,1,8,0:0:0:0:
192,256,48064,1,8,0:0:0:0:
192,256,48177,1,4,0:0:0:0:
192,256,48403,1,0,0:0:0:0:
192,256,48628,1,8,0:0:0:0:
192,256,48854,1,0,0:0:0:0:
192,256,49079,1,0,0:0:0:0:
192,256,49305,1,0,0:0:0:0:
192,256,49530,1,8,0:0:0:0:
192,256,49756,1,0,0:0:0:0:
192,256,49981,1,0,0:0:0:0:
192,256,50207,1,0,0:0:0:0:
192,256,50433,1,8,0:0:0:0:
192,256,50771,1,0,0:0:0:0:
192,256,50884,1,0,0:0:0:0:
192,256,51109,1,0,0:0:0:0:
192,256,51335,1,8,0:0:0:0:
160,256,51560,1,8,0:0:0:0:
192,256,51786,1,0,0:0:0:0:
192,256,52124,1,0,0:0:0:0:
192,256,52237,1,8,0:0:0:0:
192,256,52688,1,8,0:0:0:0:
192,256,53139,1,8,0:0:0:0:
192,256,53591,1,0,0:0:0:0:
192,256,53929,1,0,0:0:0:0:
192,256,54042,1,8,0:0:0:0:
192,256,54493,1,0,0:0:0:0:
192,256,54718,1,8,0:0:0:0:
192,256,54944,1,0,0:0:0:0:
192,256,55057,1,0,0:0:0:0:
192,256,55169,1,8,0:0:0:0:
192,256,55395,1,4,0:0:0:0:
192,256,55621,1,0,0:0:0:0:
192,256,55846,1,8,0:0:0:0:
192,256,56072,1,0,0:0:0:0:
192,256,56297,1,0,0:0:0:0:
192,256,56523,1,0,0:0:0:0:
192,256,56748,1,8,0:0:0:0:
192,256,56974,1,0,0:0:0:0:
192,256,57200,1,0,0:0:0:0:
192,256,57425,1,0,0:0:0:0:
192,256,57651,1,12,0:0:0:0:
160,256,57876,1,0,0:0:0:0:
160,256,57952,1,0,0:0:0:0:
160,256,58027,1,0,0:0:0:0:
160,256,58102,1,8,0:0:0:0:
192,256,58328,1,8,0:0:0:0:
192,256,58553,1,0,0:0:0:0:
192,256,58779,1,0,0:0:0:0:
192,256,59004,1,12,0:0:0:0:
192,256,59230,1,0,0:0:0:0:
192,256,59681,1,8,0:0:0:0:
192,256,60132,1,8,0:0:0:0:
192,256,60583,1,8,0:0:0:0:
192,256,60809,1,0,0:0:0:0:
192,256,61034,1,0,0:0:0:0:
192,256,61485,1,8,0:0:0:0:
192,256,61937,1,0,0:0:0:0:
192,256,62162,1,8,0:0:0:0:
192,256,62613,1,0,0:0:0:0:
192,256,62839,1,0,0:0:0:0:
192,256,63290,1,8,0:0:0:0:
192,256,63741,1,0,0:0:0:0:
192,256,64192,1,8,0:0:0:0:
192,256,64418,1,0,0:0:0:0:
192,256,64643,1,0,0:0:0:0:
192,256,65094,1,8,0:0:0:0:
192,256,65546,1,0,0:0:0:0:
192,256,65771,1,8,0:0:0:0:
192,256,65997,1,0,0:0:0:0:
192,256,66222,1,12,0:0:0:0:
192,256,66448,1,0,0:0:0:0:
192,256,66899,1,8,0:0:0:0:
192,256,67350,1,8,0:0:0:0:
192,256,67801,1,8,0:0:0:0:
192,256,68027,1,0,0:0:0:0:
192,256,68252,1,0,0:0:0:0:
192,256,68703,1,8,0:0:0:0:
192,256,69155,1,0,0:0:0:0:
192,256,69380,1,8,0:0:0:0:
192,256,69831,1,0,0:0:0:0:
192,256,70057,1,0,0:0:0:0:
192,256,70508,1,8,0:0:0:0:
192,256,70959,1,0,0:0:0:0:
192,256,71185,1,8,0:0:0:0:
192,256,71297,1,0,0:0:0:0:
192,256,71410,1,0,0:0:0:0:
192,256,71636,1,12,0:0:0:0:
224,256,73440,1,0,0:0:0:0:
224,256,73666,1,0,0:0:0:0:
224,256,73891,1,8,0:0:0:0:
224,256,74117,1,0,0:0:0:0:
224,256,74343,1,0,0:0:0:0:
224,256,74455,1,0,0:0:0:0:
224,256,74568,1,0,0:0:0:0:
224,256,74794,1,8,0:0:0:0:
224,256,75019,1,0,0:0:0:0:
224,256,75245,1,0,0:0:0:0:
224,256,75471,1,0,0:0:0:0:
224,256,75696,1,8,0:0:0:0:
224,256,75922,1,0,0:0:0:0:
224,256,76148,1,0,0:0:0:0:
224,256,76260,1,0,0:0:0:0:
224,256,76373,1,8,0:0:0:0:
224,256,76599,1,8,0:0:0:0:
224,256,76824,1,0,0:0:0:0:
224,256,77049,1,0,0:0:0:0:
224,256,77275,1,0,0:0:0:0:
224,256,77500,1,8,0:0:0:0:
224,256,77726,1,0,0:0:0:0:
224,256,77952,1,0,0:0:0:0:
224,256,78064,1,0,0:0:0:0:
224,256,78177,1,0,0:0:0:0:
224,256,78403,1,8,0:0:0:0:
224,256,78628,1,0,0:0:0:0:
224,256,78854,1,0,0:0:0:0:
224,256,79080,1,0,0:0:0:0:
224,256,79305,1,8,0:0:0:0:
224,256,79531,1,0,0:0:0:0:
224,288,79643,1,0,0:0:0:0:
224,256,79757,1,0,0:0:0:0:
224,256,79869,1,0,0:0:0:0:
224,256,79982,1,0,0:0:0:0:
224,256,80208,1,8,0:0:0:0:
224,256,80658,1,0,0:0:0:0:
224,256,80884,1,0,0:0:0:0:
224,256,81109,1,8,0:0:0:0:
224,256,81335,1,0,0:0:0:0:
224,256,81561,1,0,0:0:0:0:
224,256,81673,1,0,0:0:0:0:
224,256,81786,1,0,0:0:0:0:
224,256,82012,1,8,0:0:0:0:
224,256,82237,1,0,0:0:0:0:
224,256,82463,1,0,0:0:0:0:
224,256,82689,1,0,0:0:0:0:
224,256,82914,1,8,0:0:0:0:
224,256,83140,1,0,0:0:0:0:
224,256,83366,1,0,0:0:0:0:
224,256,83478,1,0,0:0:0:0:
224,256,83591,1,8,0:0:0:0:
224,256,83817,1,8,0:0:0:0:
224,256,84042,1,0,0:0:0:0:
224,256,84267,1,0,0:0:0:0:
224,256,84493,1,0,0:0:0:0:
224,256,84718,1,8,0:0:0:0:
224,256,84944,1,0,0:0:0:0:
224,256,85170,1,0,0:0:0:0:
224,256,85282,1,0,0:0:0:0:
224,256,85395,1,0,0:0:0:0:
224,256,85621,1,8,0:0:0:0:
224,256,85846,1,0,0:0:0:0:
224,256,86072,1,0,0:0:0:0:
224,256,86298,1,0,0:0:0:0:
224,256,86523,1,8,0:0:0:0:
224,256,86749,1,0,0:0:0:0:
224,256,86975,1,0,0:0:0:0:
224,256,87087,1,0,0:0:0:0:
224,256,87200,1,0,0:0:0:0:
224,256,87426,1,8,0:0:0:0:
224,256,87651,1,8,0:0:0:0:
224,256,87764,1,8,0:0:0:0:
192,256,87876,1,4,0:0:0:0:
224,256,88102,1,0,0:0:0:0:
192,256,88327,1,8,0:0:0:0:
192,256,88778,1,0,0:0:0:0:
192,256,89004,1,0,0:0:0:0:
192,256,89229,1,8,0:0:0:0:
192,256,89680,1,0,0:0:0:0:
160,256,89906,1,0,0:0:0:0:
192,256,90132,1,8,0:0:0:0:
192,256,90470,1,0,0:0:0:0:
192,256,90583,1,0,0:0:0:0:
160,256,90809,1,0,0:0:0:0:
192,256,91034,1,8,0:0:0:0:
192,256,91485,1,0,0:0:0:0:
160,256,91711,1,0,0:0:0:0:
192,256,91936,1,8,0:0:0:0:
192,256,92387,1,0,0:0:0:0:
192,256,92613,1,0,0:0:0:0:
192,256,92838,1,8,0:0:0:0:
224,256,93289,1,0,0:0:0:0:
192,256,93516,1,0,0:0:0:0:
224,256,93741,1,8,0:0:0:0:
192,256,93967,1,0,0:0:0:0:
192,256,94079,1,0,0:0:0:0:
224,256,94192,1,0,0:0:0:0:
224,256,94417,1,0,0:0:0:0:
224,256,94643,1,8,0:0:0:0:
192,256,95094,1,0,0:0:0:0:
160,256,95320,1,0,0:0:0:0:
192,256,95545,1,8,0:0:0:0:
192,256,95884,1,0,0:0:0:0:
192,256,95996,1,0,0:0:0:0:
160,256,96222,1,0,0:0:0:0:
192,256,96447,1,8,0:0:0:0:
192,256,96898,1,0,0:0:0:0:
160,256,97125,1,0,0:0:0:0:
192,256,97350,1,8,0:0:0:0:
192,256,97688,1,0,0:0:0:0:
192,256,97801,1,0,0:0:0:0:
192,256,98026,1,0,0:0:0:0:
192,256,98252,1,8,0:0:0:0:
192,256,98478,1,8,0:0:0:0:
192,256,98703,1,0,0:0:0:0:
192,256,98929,1,0,0:0:0:0:
192,256,99154,1,8,0:0:0:0:
160,224,99493,1,0,0:0:0:0:
192,256,99605,1,0,0:0:0:0:
192,256,99831,1,0,0:0:0:0:
192,256,100056,1,8,0:0:0:0:
192,256,100507,1,0,0:0:0:0:
192,256,100734,1,0,0:0:0:0:
192,256,100959,1,8,0:0:0:0:
192,256,101185,1,0,0:0:0:0:
192,256,101297,1,0,0:0:0:0:
192,256,101410,1,0,0:0:0:0:
192,256,101636,1,8,0:0:0:0:
192,256,101861,1,8,0:0:0:0:
192,256,102312,1,0,0:0:0:0:
192,256,102650,1,0,0:0:0:0:
192,256,102763,1,8,0:0:0:0:
192,256,103214,1,8,0:0:0:0:
192,256,103665,1,8,0:0:0:0:
192,256,104116,1,0,0:0:0:0:
192,256,104455,1,0,0:0:0:0:
192,256,104568,1,8,0:0:0:0:
192,256,105019,1,0,0:0:0:0:
192,256,105244,1,8,0:0:0:0:
192,256,105470,1,8,0:0:0:0:
192,256,105583,1,0,0:0:0:0:
192,256,105695,1,0,0:0:0:0:
192,256,105921,1,12,0:0:0:0:
192,256,106147,1,0,0:0:0:0:
192,256,106372,1,8,0:0:0:0:
192,256,106598,1,0,0:0:0:0:
192,256,106823,1,0,0:0:0:0:
192,256,107049,1,0,0:0:0:0:
192,256,107274,1,8,0:0:0:0:
192,256,107500,1,0,0:0:0:0:
192,256,107725,1,0,0:0:0:0:
192,256,107951,1,0,0:0:0:0:
192,256,108177,1,8,0:0:0:0:
192,256,108515,1,0,0:0:0:0:
192,256,108628,1,0,0:0:0:0:
192,256,108853,1,0,0:0:0:0:
192,256,109079,1,8,0:0:0:0:
160,256,109304,1,8,0:0:0:0:
192,256,109530,1,0,0:0:0:0:
192,256,109868,1,0,0:0:0:0:
192,256,109981,1,8,0:0:0:0:
192,256,110432,1,8,0:0:0:0:
192,256,110883,1,8,0:0:0:0:
192,256,111335,1,0,0:0:0:0:
192,256,111673,1,0,0:0:0:0:
192,256,111786,1,8,0:0:0:0:
192,256,112237,1,0,0:0:0:0:
192,256,112463,1,8,0:0:0:0:
192,256,112688,1,8,0:0:0:0:
192,256,112801,1,8,0:0:0:0:
192,256,112914,1,0,0:0:0:0:
192,256,113027,1,8,0:0:0:0:
192,256,113140,1,4,0:0:0:0:
192,256,113366,1,0,0:0:0:0:
192,256,113591,1,8,0:0:0:0:
192,256,113817,1,0,0:0:0:0:
192,256,114042,1,0,0:0:0:0:
192,256,114268,1,0,0:0:0:0:
192,256,114493,1,8,0:0:0:0:
192,256,114719,1,0,0:0:0:0:
192,256,114945,1,0,0:0:0:0:
192,256,115170,1,0,0:0:0:0:
192,256,115396,1,12,0:0:0:0:
160,256,115621,1,0,0:0:0:0:
160,256,115697,1,0,0:0:0:0:
160,256,115772,1,0,0:0:0:0:
160,256,115847,1,8,0:0:0:0:
192,256,116073,1,8,0:0:0:0:
192,256,116298,1,0,0:0:0:0:
192,256,116524,1,0,0:0:0:0:
192,256,116749,1,12,0:0:0:0:
192,256,116975,1,0,0:0:0:0:
192,256,117426,1,8,0:0:0:0:
192,256,117877,1,8,0:0:0:0:
192,256,118328,1,8,0:0:0:0:
192,256,118554,1,0,0:0:0:0:
192,256,118779,1,0,0:0:0:0:
192,256,119230,1,8,0:0:0:0:
192,256,119682,1,0,0:0:0:0:
192,256,119907,1,8,0:0:0:0:
192,256,120358,1,0,0:0:0:0:
192,256,120584,1,0,0:0:0:0:
192,256,121035,1,8,0:0:0:0:
192,256,121486,1,0,0:0:0:0:
192,256,121937,1,8,0:0:0:0:
192,256,122163,1,0,0:0:0:0:
192,256,122388,1,0,0:0:0:0:
192,256,122839,1,8,0:0:0:0:
192,256,123291,1,0,0:0:0:0:
192,256,123516,1,8,0:0:0:0:
192,256,123742,1,0,0:0:0:0:
192,256,123967,1,12,0:0:0:0:
192,256,124193,1,0,0:0:0:0:
192,256,124644,1,8,0:0:0:0:
192,256,125095,1,8,0:0:0:0:
192,256,125546,1,8,0:0:0:0:
192,256,125772,1,0,0:0:0:0:
192,256,125997,1,0,0:0:0:0:
192,256,126448,1,8,0:0:0:0:
192,256,126900,1,0,0:0:0:0:
192,256,127125,1,8,0:0:0:0:
192,256,127576,1,0,0:0:0:0:
192,256,127802,1,0,0:0:0:0:
192,256,128253,1,8,0:0:0:0:
192,256,128704,1,0,0:0:0:0:
192,256,128930,1,8,0:0:0:0:
192,256,129042,1,0,0:0:0:0:
192,256,129155,1,0,0:0:0:0:
192,256,129381,1,12,0:0:0:0:
224,192,131185,1,0,0:0:0:0:
224,192,131410,1,0,0:0:0:0:
224,192,131636,1,8,0:0:0:0:
224,192,131861,1,0,0:0:0:0:
224,192,132087,1,0,0:0:0:0:
224,192,132200,1,8,0:0:0:0:
224,192,132312,1,0,0:0:0:0:
224,192,132538,1,8,0:0:0:0:
256,192,132764,1,0,0:0:0:0:
224,192,132989,1,0,0:0:0:0:
224,192,133214,1,8,0:0:0:0:
224,192,133440,1,8,0:0:0:0:
224,192,133665,1,0,0:0:0:0:
224,192,133891,1,0,0:0:0:0:
224,192,134004,1,8,0:0:0:0:
224,192,134116,1,0,0:0:0:0:
224,192,134342,1,8,0:0:0:0:
256,192,134568,1,0,0:0:0:0:
224,192,134794,1,0,0:0:0:0:
224,192,135019,1,0,0:0:0:0:
224,192,135245,1,8,0:0:0:0:
224,192,135470,1,0,0:0:0:0:
224,192,135696,1,0,0:0:0:0:
224,192,135809,1,8,0:0:0:0:
224,192,135921,1,0,0:0:0:0:
224,192,136147,1,8,0:0:0:0:
256,192,136373,1,0,0:0:0:0:
224,192,136598,1,0,0:0:0:0:
224,192,136823,1,8,0:0:0:0:
224,192,137049,1,8,0:0:0:0:
224,192,137274,1,0,0:0:0:0:
224,192,137500,1,0,0:0:0:0:
224,192,137613,1,8,0:0:0:0:
224,192,137725,1,0,0:0:0:0:
224,192,137951,1,8,0:0:0:0:
224,192,138403,1,0,0:0:0:0:
224,192,138628,1,0,0:0:0:0:
224,192,138854,1,8,0:0:0:0:
224,192,139079,1,0,0:0:0:0:
224,192,139305,1,0,0:0:0:0:
224,192,139418,1,8,0:0:0:0:
224,192,139530,1,0,0:0:0:0:
224,192,139756,1,8,0:0:0:0:
256,192,139982,1,0,0:0:0:0:
224,192,140207,1,0,0:0:0:0:
224,192,140433,1,8,0:0:0:0:
224,192,140658,1,8,0:0:0:0:
224,192,140883,1,0,0:0:0:0:
224,192,141109,1,0,0:0:0:0:
224,192,141222,1,8,0:0:0:0:
224,192,141334,1,0,0:0:0:0:
224,192,141560,1,8,0:0:0:0:
256,192,141786,1,0,0:0:0:0:
224,192,142012,1,0,0:0:0:0:
224,192,142237,1,0,0:0:0:0:
224,192,142463,1,8,0:0:0:0:
224,192,142688,1,0,0:0:0:0:
224,192,142914,1,0,0:0:0:0:
224,192,143027,1,8,0:0:0:0:
224,192,143139,1,0,0:0:0:0:
224,192,143365,1,8,0:0:0:0:
256,192,143591,1,0,0:0:0:0:
224,192,143816,1,0,0:0:0:0:
224,192,144041,1,0,0:0:0:0:
224,192,144267,1,8,0:0:0:0:
224,192,144492,1,0,0:0:0:0:
224,192,144718,1,0,0:0:0:0:
224,192,144831,1,8,0:0:0:0:
224,192,144943,1,0,0:0:0:0:
224,192,145057,1,0,0:0:0:0:
224,192,145169,1,8,0:0:0:0:
224,192,145621,1,4,0:0:0:0:
224,192,145846,1,0,0:0:0:0:
224,192,146072,1,8,0:0:0:0:
224,192,146297,1,0,0:0:0:0:
224,192,146410,1,0,0:0:0:0:
224,192,146636,1,8,0:0:0:0:
224,192,146748,1,0,0:0:0:0:
224,192,146974,1,8,0:0:0:0:
256,192,147200,1,0,0:0:0:0:
224,192,147425,1,0,0:0:0:0:
224,192,147650,1,8,0:0:0:0:
224,192,147876,1,8,0:0:0:0:
224,192,148101,1,0,0:0:0:0:
224,192,148215,1,0,0:0:0:0:
224,192,148440,1,8,0:0:0:0:
224,192,148552,1,0,0:0:0:0:
224,192,148778,1,8,0:0:0:0:
256,192,149004,1,0,0:0:0:0:
224,192,149230,1,0,0:0:0:0:
224,192,149455,1,0,0:0:0:0:
224,192,149681,1,8,0:0:0:0:
224,192,149906,1,0,0:0:0:0:
224,192,150020,1,0,0:0:0:0:
224,192,150245,1,8,0:0:0:0:
224,192,150357,1,0,0:0:0:0:
224,192,150583,1,8,0:0:0:0:
256,192,150809,1,0,0:0:0:0:
224,192,151034,1,0,0:0:0:0:
224,192,151259,1,8,0:0:0:0:
224,192,151485,1,8,0:0:0:0:
224,192,151710,1,0,0:0:0:0:
224,192,151824,1,0,0:0:0:0:
224,192,152049,1,8,0:0:0:0:
224,192,152161,1,0,0:0:0:0:
224,192,152387,1,8,0:0:0:0:
224,192,152839,1,0,0:0:0:0:
224,192,153064,1,8,0:0:0:0:
224,192,153290,1,8,0:0:0:0:
224,192,153515,1,0,0:0:0:0:
224,192,153629,1,0,0:0:0:0:
224,192,153854,1,8,0:0:0:0:
224,192,153966,1,0,0:0:0:0:
224,192,154192,1,8,0:0:0:0:
256,192,154418,1,0,0:0:0:0:
224,192,154643,1,0,0:0:0:0:
224,192,154868,1,0,0:0:0:0:
224,192,155094,1,8,0:0:0:0:
224,192,155319,1,0,0:0:0:0:
224,192,155433,1,0,0:0:0:0:
224,192,155658,1,8,0:0:0:0:
224,192,155770,1,0,0:0:0:0:
224,192,155996,1,8,0:0:0:0:
256,192,156222,1,0,0:0:0:0:
224,192,156448,1,0,0:0:0:0:
224,192,156673,1,8,0:0:0:0:
224,192,156899,1,8,0:0:0:0:
224,192,157124,1,0,0:0:0:0:
224,192,157238,1,0,0:0:0:0:
224,192,157463,1,8,0:0:0:0:
224,192,157575,1,0,0:0:0:0:
224,192,157801,1,8,0:0:0:0:
256,192,158027,1,0,0:0:0:0:
224,192,158252,1,0,0:0:0:0:
224,192,158477,1,8,0:0:0:0:
224,192,158591,1,8,0:0:0:0:
224,192,158703,1,0,0:0:0:0:
256,224,158929,1,0,0:0:0:0:
256,192,159155,1,8,0:0:0:0:
256,192,159267,1,8,0:0:0:0:
256,192,159380,1,8,0:0:0:0:
256,192,159493,1,8,0:0:0:0:
256,192,159606,1,0,0:0:0:0:
256,192,159719,1,0,0:0:0:0:
256,192,159831,1,0,0:0:0:0:
256,192,159944,1,0,0:0:0:0:
256,192,160057,1,12,0:0:0:0:
224,192,160282,1,8,0:0:0:0:
224,192,160508,1,0,0:0:0:0:
224,192,160621,1,0,0:0:0:0:
224,192,160734,1,8,0:0:0:0:
224,192,160959,1,0,0:0:0:0:
224,192,161185,1,8,0:0:0:0:
224,192,161297,1,8,0:0:0:0:
224,192,161410,1,0,0:0:0:0:
224,192,161636,1,8,0:0:0:0:
256,192,161861,1,0,0:0:0:0:
224,192,162086,1,8,0:0:0:0:
224,192,162200,1,0,0:0:0:0:
224,192,162312,1,0,0:0:0:0:
224,192,162538,1,8,0:0:0:0:
224,192,162763,1,0,0:0:0:0:
256,192,162876,1,0,0:0:0:0:
224,192,162989,1,8,0:0:0:0:
224,192,163102,1,0,0:0:0:0:
224,192,163214,1,0,0:0:0:0:
224,192,163440,1,8,0:0:0:0:
256,192,163666,1,0,0:0:0:0:
224,192,163891,1,8,0:0:0:0:
224,192,164117,1,0,0:0:0:0:
224,192,164230,1,0,0:0:0:0:
224,192,164343,1,8,0:0:0:0:
224,192,164568,1,0,0:0:0:0:
224,192,164794,1,8,0:0:0:0:
224,192,164906,1,8,0:0:0:0:
224,192,165019,1,0,0:0:0:0:
224,192,165245,1,8,0:0:0:0:
256,192,165470,1,0,0:0:0:0:
224,192,165695,1,8,0:0:0:0:
224,192,165809,1,0,0:0:0:0:
224,192,165921,1,0,0:0:0:0:
224,192,166147,1,8,0:0:0:0:
224,192,166372,1,0,0:0:0:0:
224,192,166485,1,0,0:0:0:0:
224,192,166598,1,0,0:0:0:0:
224,192,166710,1,0,0:0:0:0:
224,192,166824,1,8,0:0:0:0:
256,192,167275,1,0,0:0:0:0:
224,192,167500,1,8,0:0:0:0:
224,192,167726,1,0,0:0:0:0:
224,192,167839,1,0,0:0:0:0:
224,192,167952,1,8,0:0:0:0:
224,192,168177,1,0,0:0:0:0:
224,192,168403,1,8,0:0:0:0:
224,192,168515,1,8,0:0:0:0:
224,192,168628,1,0,0:0:0:0:
224,192,168854,1,8,0:0:0:0:
256,192,169079,1,0,0:0:0:0:
224,192,169304,1,8,0:0:0:0:
224,192,169418,1,0,0:0:0:0:
224,192,169530,1,0,0:0:0:0:
224,192,169756,1,8,0:0:0:0:
224,192,169981,1,0,0:0:0:0:
224,192,170207,1,8,0:0:0:0:
224,192,170319,1,8,0:0:0:0:
224,192,170432,1,0,0:0:0:0:
224,192,170546,1,0,0:0:0:0:
224,192,170658,1,8,0:0:0:0:
256,192,170884,1,0,0:0:0:0:
224,192,171109,1,8,0:0:0:0:
224,192,171335,1,0,0:0:0:0:
224,192,171448,1,0,0:0:0:0:
224,192,171561,1,8,0:0:0:0:
224,192,171786,1,0,0:0:0:0:
224,192,172012,1,8,0:0:0:0:
224,192,172124,1,8,0:0:0:0:
224,192,172237,1,0,0:0:0:0:
224,192,172463,1,8,0:0:0:0:
256,192,172688,1,0,0:0:0:0:
224,192,172913,1,8,0:0:0:0:
224,192,173027,1,0,0:0:0:0:
224,192,173139,1,0,0:0:0:0:
224,192,173365,1,8,0:0:0:0:
224,192,173590,1,8,0:0:0:0:
224,224,173703,1,0,0:0:0:0:
224,192,173816,1,8,0:0:0:0:
224,192,173928,1,0,0:0:0:0:
224,192,174041,1,8,0:0:0:0:
224,224,174267,1,8,0:0:0:0:
256,192,174493,1,4,0:0:0:0:
224,192,174719,1,8,0:0:0:0:
224,192,174945,1,0,0:0:0:0:
224,192,175058,1,0,0:0:0:0:
224,192,175171,1,8,0:0:0:0:
224,192,175396,1,0,0:0:0:0:
224,192,175622,1,8,0:0:0:0:
224,192,175734,1,8,0:0:0:0:
224,192,175847,1,0,0:0:0:0:
224,192,176073,1,8,0:0:0:0:
256,192,176298,1,0,0:0:0:0:
224,192,176523,1,8,0:0:0:0:
224,192,176637,1,0,0:0:0:0:
224,192,176749,1,0,0:0:0:0:
224,192,176975,1,8,0:0:0:0:
224,192,177200,1,0,0:0:0:0:
256,192,177313,1,0,0:0:0:0:
224,192,177426,1,8,0:0:0:0:
224,192,177539,1,0,0:0:0:0:
224,192,177651,1,0,0:0:0:0:
224,192,177877,1,8,0:0:0:0:
256,192,178103,1,0,0:0:0:0:
224,192,178328,1,8,0:0:0:0:
224,192,178554,1,0,0:0:0:0:
224,192,178667,1,0,0:0:0:0:
224,192,178780,1,8,0:0:0:0:
224,192,179005,1,0,0:0:0:0:
224,192,179231,1,8,0:0:0:0:
224,192,179343,1,8,0:0:0:0:
224,192,179456,1,0,0:0:0:0:
224,192,179682,1,8,0:0:0:0:
256,192,179907,1,0,0:0:0:0:
224,192,180132,1,8,0:0:0:0:
224,192,180246,1,0,0:0:0:0:
224,192,180358,1,0,0:0:0:0:
224,192,180584,1,8,0:0:0:0:
224,192,180809,1,0,0:0:0:0:
224,192,180922,1,0,0:0:0:0:
224,192,181035,1,8,0:0:0:0:
224,192,181147,1,0,0:0:0:0:
224,192,181261,1,8,0:0:0:0:
256,192,181712,1,0,0:0:0:0:
224,192,181937,1,8,0:0:0:0:
224,192,182163,1,0,0:0:0:0:
224,192,182276,1,0,0:0:0:0:
224,192,182389,1,8,0:0:0:0:
224,192,182614,1,0,0:0:0:0:
224,192,182840,1,8,0:0:0:0:
224,192,182952,1,8,0:0:0:0:
224,192,183065,1,0,0:0:0:0:
224,192,183291,1,8,0:0:0:0:
256,192,183516,1,0,0:0:0:0:
224,192,183741,1,8,0:0:0:0:
224,192,183855,1,0,0:0:0:0:
224,192,183967,1,0,0:0:0:0:
224,192,184193,1,8,0:0:0:0:
224,192,184418,1,0,0:0:0:0:
224,192,184644,1,8,0:0:0:0:
224,192,184756,1,8,0:0:0:0:
224,192,184869,1,0,0:0:0:0:
224,192,184983,1,0,0:0:0:0:
224,192,185095,1,8,0:0:0:0:
256,192,185321,1,0,0:0:0:0:
224,192,185546,1,8,0:0:0:0:
224,192,185772,1,0,0:0:0:0:
224,192,185885,1,0,0:0:0:0:
224,192,185998,1,8,0:0:0:0:
224,192,186223,1,0,0:0:0:0:
224,192,186449,1,8,0:0:0:0:
224,192,186561,1,8,0:0:0:0:
224,192,186673,1,8,0:0:0:0:
192,192,186786,1,8,0:0:0:0:
192,192,186899,1,8,0:0:0:0:
224,192,187125,1,4,0:0:0:0:
288,224,188929,1,4,0:0:0:0:
288,224,189155,1,0,0:0:0:0:
288,224,189380,1,8,0:0:0:0:
288,224,189606,1,0,0:0:0:0:
288,224,189719,1,0,0:0:0:0:
288,224,189831,1,0,0:0:0:0:
288,224,189944,1,8,0:0:0:0:
288,224,190057,1,0,0:0:0:0:
288,224,190282,1,8,0:0:0:0:
288,224,190508,1,0,0:0:0:0:
288,224,190734,1,0,0:0:0:0:
288,224,190960,1,0,0:0:0:0:
288,224,191185,1,8,0:0:0:0:
288,224,191411,1,0,0:0:0:0:
288,224,191524,1,8,0:0:0:0:
288,224,191636,1,0,0:0:0:0:
288,224,191749,1,8,0:0:0:0:
288,224,191862,1,0,0:0:0:0:
288,224,192087,1,8,0:0:0:0:
288,224,192313,1,0,0:0:0:0:
288,224,192538,1,0,0:0:0:0:
288,224,192764,1,0,0:0:0:0:
288,224,192989,1,8,0:0:0:0:
288,224,193215,1,0,0:0:0:0:
288,224,193328,1,0,0:0:0:0:
288,224,193440,1,0,0:0:0:0:
288,224,193553,1,8,0:0:0:0:
288,224,193666,1,0,0:0:0:0:
288,224,193891,1,8,0:0:0:0:
288,224,194117,1,0,0:0:0:0:
288,224,194343,1,0,0:0:0:0:
288,224,194569,1,0,0:0:0:0:
288,224,194794,1,8,0:0:0:0:
288,224,195020,1,0,0:0:0:0:
288,224,195133,1,8,0:0:0:0:
288,224,195245,1,0,0:0:0:0:
288,224,195358,1,8,0:0:0:0:
288,224,195471,1,0,0:0:0:0:
288,224,195696,1,8,0:0:0:0:
288,224,196147,1,0,0:0:0:0:
288,224,196373,1,0,0:0:0:0:
288,224,196598,1,8,0:0:0:0:
288,224,196824,1,0,0:0:0:0:
288,224,196937,1,0,0:0:0:0:
288,224,197049,1,0,0:0:0:0:
288,224,197162,1,8,0:0:0:0:
288,224,197275,1,0,0:0:0:0:
288,224,197500,1,8,0:0:0:0:
256,224,197726,1,0,0:0:0:0:
288,224,197952,1,0,0:0:0:0:
288,224,198178,1,0,0:0:0:0:
288,224,198403,1,8,0:0:0:0:
288,224,198629,1,0,0:0:0:0:
288,224,198742,1,8,0:0:0:0:
288,224,198854,1,0,0:0:0:0:
288,224,198967,1,8,0:0:0:0:
288,224,199080,1,0,0:0:0:0:
288,224,199305,1,8,0:0:0:0:
288,256,199531,1,0,0:0:0:0:
288,224,199756,1,0,0:0:0:0:
288,224,199982,1,0,0:0:0:0:
288,224,200207,1,8,0:0:0:0:
288,224,200433,1,0,0:0:0:0:
288,224,200546,1,0,0:0:0:0:
288,224,200658,1,0,0:0:0:0:
288,224,200771,1,8,0:0:0:0:
288,224,200884,1,0,0:0:0:0:
288,224,201109,1,8,0:0:0:0:
288,224,201335,1,0,0:0:0:0:
288,224,201561,1,0,0:0:0:0:
288,224,201787,1,0,0:0:0:0:
288,224,202012,1,8,0:0:0:0:
288,224,202238,1,0,0:0:0:0:
288,224,202351,1,8,0:0:0:0:
288,224,202463,1,0,0:0:0:0:
288,224,202576,1,8,0:0:0:0:
288,224,202689,1,0,0:0:0:0:
288,224,202914,1,8,0:0:0:0:
288,224,203140,1,8,0:0:0:0:
288,224,203252,1,8,0:0:0:0:
288,224,203365,1,4,0:0:0:0:
288,224,203591,1,0,0:0:0:0:
288,224,203816,1,8,0:0:0:0:
288,224,204042,1,0,0:0:0:0:
288,224,204155,1,0,0:0:0:0:
288,224,204267,1,0,0:0:0:0:
288,224,204380,1,8,0:0:0:0:
288,224,204493,1,0,0:0:0:0:
288,224,204718,1,8,0:0:0:0:
256,224,204944,1,0,0:0:0:0:
288,224,205170,1,0,0:0:0:0:
288,224,205396,1,8,0:0:0:0:
288,224,205621,1,8,0:0:0:0:
288,224,205847,1,0,0:0:0:0:
288,224,205960,1,8,0:0:0:0:
288,224,206072,1,0,0:0:0:0:
288,224,206185,1,8,0:0:0:0:
288,224,206298,1,0,0:0:0:0:
288,224,206523,1,8,0:0:0:0:
288,224,206749,1,0,0:0:0:0:
288,224,206974,1,0,0:0:0:0:
288,224,207200,1,8,0:0:0:0:
288,224,207425,1,8,0:0:0:0:
288,224,207651,1,0,0:0:0:0:
288,224,207764,1,0,0:0:0:0:
288,224,207876,1,0,0:0:0:0:
288,224,207989,1,8,0:0:0:0:
288,224,208102,1,0,0:0:0:0:
288,224,208327,1,8,0:0:0:0:
288,224,208553,1,0,0:0:0:0:
288,224,208779,1,0,0:0:0:0:
288,224,209005,1,8,0:0:0:0:
288,224,209230,1,8,0:0:0:0:
288,224,209456,1,0,0:0:0:0:
288,224,209569,1,8,0:0:0:0:
288,224,209681,1,0,0:0:0:0:
288,224,209794,1,8,0:0:0:0:
288,224,209907,1,0,0:0:0:0:
288,224,210132,1,8,0:0:0:0:
288,224,210583,1,0,0:0:0:0:
288,224,210809,1,8,0:0:0:0:
288,224,211034,1,8,0:0:0:0:
288,224,211260,1,0,0:0:0:0:
288,224,211373,1,0,0:0:0:0:
288,224,211485,1,0,0:0:0:0:
288,224,211598,1,8,0:0:0:0:
288,224,211711,1,0,0:0:0:0:
288,224,211936,1,8,0:0:0:0:
256,224,212162,1,0,0:0:0:0:
288,224,212388,1,0,0:0:0:0:
288,224,212614,1,8,0:0:0:0:
288,224,212839,1,8,0:0:0:0:
288,224,213065,1,0,0:0:0:0:
288,224,213178,1,8,0:0:0:0:
288,224,213290,1,8,0:0:0:0:
288,224,213403,1,8,0:0:0:0:
288,224,213516,1,0,0:0:0:0:
288,224,213741,1,8,0:0:0:0:
288,224,213967,1,0,0:0:0:0:
288,224,214192,1,0,0:0:0:0:
288,224,214418,1,8,0:0:0:0:
288,224,214643,1,8,0:0:0:0:
288,224,214869,1,0,0:0:0:0:
288,224,214982,1,0,0:0:0:0:
288,224,215094,1,0,0:0:0:0:
288,224,215207,1,8,0:0:0:0:
288,224,215320,1,0,0:0:0:0:
288,224,215545,1,8,0:0:0:0:
256,224,215771,1,0,0:0:0:0:
256,224,215997,1,0,0:0:0:0:
256,224,216222,1,8,0:0:0:0:
256,224,216448,1,8,0:0:0:0:
256,224,216673,1,0,0:0:0:0:
256,224,216786,1,0,0:0:0:0:
256,224,216899,1,8,0:0:0:0:
256,224,217125,1,0,0:0:0:0:
256,224,217350,1,0,0:0:0:0:
256,224,217576,1,0,0:0:0:0:
256,224,217801,1,12,0:0:0:0:
