osu file format v9

[General]
AudioFilename: Ms.Parallel World.mp3
AudioLeadIn: 1000
PreviewTime: 72568
Countdown: 1
SampleSet: Soft
StackLeniency: 0.7
Mode: 1
LetterboxInBreaks: 1

[Editor]
DistanceSpacing: 0
BeatDivisor: 4
GridSize: 4

[Metadata]
Title:Miss Parallel World
Artist:Soutaisei Riron
Creator:[Shalon]
Version:Taiko Oni
Source:
Tags:KRZY C R E A M dksslqj parareru Yakushimaru Etsuko

[Difficulty]
HPDrainRate:5
CircleSize:7
OverallDifficulty:5
ApproachRate:5
SliderMultiplier:1.4
SliderTickRate:1

[Events]
//Background and Video events
0,0,"BackGround.jpg"
//Break Periods
//Storyboard Layer 0 (Background)
//Storyboard Layer 1 (Fail)
//Storyboard Layer 2 (Pass)
//Storyboard Layer 3 (Foreground)
//Storyboard Sound Samples
//Background Colour Transformations
3,100,163,162,255

[TimingPoints]
520,451.127819548872,4,2,0,75,1,0
58715,-133.333333333333,4,2,0,75,0,0
70783,-133.333333333333,4,2,0,75,0,0
72700,-100,4,2,0,80,0,1
86910,-100,4,2,0,75,0,0
116459,-133.333333333333,4,2,0,75,0,0
130332,-100,4,2,0,80,0,1
158978,-100,4,2,0,65,0,0
159768,-133.333333333333,4,2,0,65,0,0
188076,-100,4,2,0,80,0,1
195407,-76.9230769230769,4,2,0,80,0,1
202625,-62.5,4,2,0,80,0,1
209843,-52.6315789473684,4,2,0,80,0,1
217061,-52.6315789473684,4,2,0,80,0,0
217963,-100,4,2,0,80,0,0

[Colours]
Combo1 : 0,64,128
Combo2 : 0,255,255
Combo3 : 0,128,255
Combo4 : 0,128,192

[HitObjects]
256,188,520,1,0
256,188,632,1,0
256,188,745,1,0
256,188,971,1,2
256,188,1196,1,0
256,188,1422,1,0
256,188,1535,1,0
256,188,1647,1,0
256,188,1873,1,2
256,188,2098,1,0
256,188,2324,1,0
256,188,2437,1,0
256,188,2550,1,2
256,188,2775,1,0
256,188,2888,1,0
256,188,3001,1,2
256,188,3226,1,0
256,188,3677,1,6
256,188,4129,1,0
256,188,4241,1,0
256,188,4354,1,2
256,188,4580,1,2
256,188,4805,1,0
256,188,5031,1,0
256,188,5144,1,0
256,188,5256,1,2
256,188,5482,1,2
256,188,5707,1,0
256,188,5933,1,0
256,188,6046,1,0
256,188,6159,1,0
256,188,6384,1,0
256,188,6497,1,0
256,188,6610,1,0
256,188,6835,1,0
256,188,7286,1,6
256,188,7512,1,0
256,188,7738,1,0
256,188,7850,1,0
256,188,7963,1,0
256,188,8189,1,2
256,188,8414,1,0
256,188,8640,1,0
256,188,8753,1,0
256,188,8865,1,0
256,188,9091,1,2
256,188,9316,1,0
256,188,9542,1,0
256,188,9655,1,0
256,188,9768,1,2
256,188,9993,1,0
256,188,10106,1,0
256,188,10219,1,2
256,188,10444,1,0
256,188,10895,1,6
256,188,11121,1,0
256,188,11347,1,0
256,188,11459,1,0
256,188,11572,1,2
256,188,11798,1,2
256,188,12023,1,0
256,188,12249,1,0
256,188,12362,1,0
256,188,12474,1,2
256,188,12700,1,2
256,188,12926,1,0
256,188,13151,1,0
256,188,13264,1,0
256,188,13377,1,0
256,188,13602,1,0
256,188,13715,1,0
256,188,13828,1,0
256,188,14053,1,0
256,188,14504,1,6
256,188,14956,1,0
256,188,15294,1,0
256,188,15407,1,2
256,188,15858,1,2
256,188,16309,1,2
256,188,16760,1,0
256,188,16873,1,0
256,188,17098,1,0
256,188,17211,1,2
256,188,17437,1,0
256,188,17662,1,0
256,188,17775,1,0
256,188,17888,1,0
256,188,18113,1,2
256,188,18339,1,2
256,188,18452,1,2
256,188,18565,1,0
256,188,18790,1,0
256,188,19016,1,2
256,188,19467,1,0
256,188,19580,1,0
256,188,19692,1,0
256,188,19918,1,2
256,188,20369,1,0
256,188,20595,1,0
256,188,20820,1,2
256,188,21271,1,0
256,188,21384,1,0
256,188,21497,1,0
256,188,21723,1,2
256,188,22174,1,0
256,188,22512,1,0
256,188,22625,1,2
256,188,23076,1,2
256,188,23527,1,2
256,188,23978,1,0
256,188,24091,1,0
256,188,24316,1,0
256,188,24429,1,2
256,188,24880,1,0
256,188,24993,1,0
256,188,25106,1,0
256,188,25332,1,2
256,188,25557,1,2
256,188,25670,1,2
256,188,25783,1,0
256,188,26008,1,0
256,188,26234,1,2
256,188,26685,1,0
256,188,26798,1,0
256,188,26910,1,0
256,188,27136,1,2
256,188,27587,1,0
256,188,27813,1,0
256,188,28038,1,2
256,188,28489,1,0
256,188,28715,1,0
256,188,28828,1,0
256,188,28941,1,2
256,188,29053,1,2
256,188,29166,1,0
256,188,29279,1,0
256,188,29392,1,0
256,188,29617,1,0
256,188,29843,1,2
256,188,30294,1,0
256,188,30407,1,0
256,188,30519,1,0
256,188,30745,1,2
256,188,31196,1,0
256,188,31309,1,0
256,188,31422,1,2
256,188,31647,1,0
256,188,31760,1,0
256,188,31873,1,2
256,188,32098,1,0
256,188,32550,1,6
256,188,33001,1,0
256,188,33113,1,0
256,188,33226,1,2
256,188,33452,1,2
256,188,33677,1,0
256,188,33903,1,0
256,188,34016,1,0
256,188,34129,1,2
256,188,34354,1,2
256,188,34580,1,0
256,188,34805,1,0
256,188,34918,1,0
256,188,35031,1,0
256,188,35256,1,0
256,188,35369,1,0
256,188,35482,1,0
256,188,35707,1,0
256,188,36159,1,6
256,188,36384,1,0
256,188,36610,1,0
256,188,36723,1,0
256,188,36835,1,0
256,188,37061,1,2
256,188,37286,1,0
256,188,37512,1,0
256,188,37625,1,0
256,188,37738,1,0
256,188,37963,1,2
256,188,38189,1,0
256,188,38414,1,0
256,188,38527,1,0
256,188,38640,1,2
256,188,38865,1,0
256,188,38978,1,0
256,188,39091,1,2
256,188,39316,1,0
256,188,39768,1,6
256,188,39993,1,0
256,188,40219,1,0
256,188,40332,1,0
256,188,40444,1,2
256,188,40670,1,2
256,188,40895,1,0
256,188,41121,1,0
256,188,41234,1,0
256,188,41347,1,2
256,188,41572,1,2
256,188,41798,1,0
256,188,42023,1,0
256,188,42136,1,0
256,188,42249,1,0
256,188,42474,1,0
256,188,42587,1,0
256,188,42700,1,0
256,188,42926,1,0
256,188,43377,1,6
256,188,43828,1,0
256,188,44166,1,0
256,188,44279,1,2
256,188,44730,1,2
256,188,45181,1,2
256,188,45632,1,0
256,188,45745,1,0
256,188,45971,1,0
256,188,46083,1,2
256,188,46309,1,0
256,188,46535,1,0
256,188,46647,1,0
256,188,46760,1,0
256,188,46986,1,2
256,188,47211,1,2
256,188,47324,1,2
256,188,47437,1,0
256,188,47662,1,0
256,188,47888,1,2
256,188,48339,1,0
256,188,48452,1,0
256,188,48565,1,0
256,188,48790,1,2
256,188,49241,1,0
256,188,49467,1,0
256,188,49692,1,2
256,188,50144,1,0
256,188,50256,1,0
256,188,50369,1,0
256,188,50595,1,2
256,188,51046,1,2
256,188,51384,1,2
256,188,51497,1,0
256,188,51948,1,2
256,188,52399,1,2
256,188,52850,1,2
256,188,52963,1,2
256,188,53076,1,0
256,188,53189,1,2
256,188,53301,1,0
256,188,53527,1,0
256,188,53753,1,0
256,188,53978,1,2
256,188,54204,1,0
256,188,54429,1,2
256,188,54542,1,2
256,188,54655,1,0
256,188,54880,1,0
256,188,54993,1,0
256,188,55106,1,2
256,188,55557,1,0
256,188,56008,1,2
256,188,56459,1,0
256,188,56685,1,0
256,188,56910,1,2
256,188,57136,1,0
256,188,57249,1,0
256,188,57362,1,2
256,188,57587,1,4
256,188,57813,1,4
256,188,58038,1,0
256,188,58264,1,0
256,188,58489,1,0
256,188,58941,1,2
256,188,59392,1,0
256,188,59843,1,2
256,188,60068,1,0
256,188,60294,1,0
256,188,60745,1,2
256,188,60971,1,2
256,188,61196,1,0
256,188,61422,1,2
256,188,61873,1,0
256,188,62098,1,0
256,188,62550,1,2
256,188,63001,1,0
256,188,63452,1,0
256,188,63677,1,0
256,188,63903,1,0
256,188,64354,1,6
256,188,64805,1,0
256,188,65031,1,2
256,188,65256,1,0
256,188,65482,1,0
256,188,65707,1,0
256,188,66159,1,2
256,188,66610,1,0
256,188,67061,1,0
256,188,67286,1,2
256,188,67512,1,2
256,188,67963,1,6
256,188,68414,1,2
256,188,68527,1,2
256,188,68640,1,2
256,188,68865,1,0
256,188,69091,1,0
256,188,69316,1,0
256,188,69768,1,2
256,188,70219,1,0
256,188,70444,1,2
256,188,70557,1,2
256,188,70670,1,2
256,188,70895,1,4
256,188,72700,1,0
256,188,72813,1,0
256,188,72926,1,0
256,188,73151,1,2
256,188,73377,1,0
256,188,73602,1,0
256,188,73715,1,0
256,188,73828,1,0
256,188,74053,1,2
256,188,74279,1,0
256,188,74504,1,0
256,188,74617,1,0
256,188,74730,1,2
256,188,74956,1,2
256,188,75181,1,0
256,188,75407,1,0
256,188,75520,1,0
256,188,75632,1,2
256,188,75858,1,2
256,188,76083,1,0
256,188,76309,1,2
256,188,76422,1,2
256,188,76535,1,0
256,188,76760,1,2
256,188,76986,1,0
256,188,77211,1,2
256,188,77324,1,2
256,188,77437,1,0
256,188,77662,1,2
256,188,77888,1,0
256,188,78113,1,0
256,188,78339,1,0
256,188,78452,1,0
256,188,78565,1,2
256,188,78790,1,0
256,188,79016,1,2
256,188,79241,1,0
256,188,79354,1,0
256,188,79467,1,2
256,188,79918,1,0
256,188,80031,1,0
256,188,80144,1,0
256,188,80369,1,2
256,188,80595,1,0
256,188,80820,1,0
256,188,80933,1,0
256,188,81046,1,0
256,188,81271,1,2
256,188,81497,1,0
256,188,81723,1,0
256,188,81835,1,0
256,188,81948,1,2
256,188,82174,1,2
256,188,82399,1,0
256,188,82625,1,0
256,188,82738,1,0
256,188,82850,1,2
256,188,83076,1,2
256,188,83301,1,0
256,188,83527,1,2
256,188,83640,1,2
256,188,83753,1,0
256,188,83978,1,2
256,188,84204,1,0
256,188,84429,1,2
256,188,84542,1,2
256,188,84655,1,0
256,188,84880,1,2
256,188,85106,1,0
256,188,85332,1,0
256,188,85557,1,0
256,188,85670,1,0
256,188,85783,1,2
256,188,86008,1,0
256,188,86234,1,2
256,188,86459,1,0
256,188,86572,1,0
256,188,86685,1,2
256,188,86910,1,2
256,188,87023,1,2
256,188,87136,1,0
256,188,87587,1,2
256,188,88038,1,0
256,188,88151,1,0
256,188,88264,1,0
256,188,88489,1,2
256,188,88715,1,0
256,188,88941,1,0
256,188,89053,1,0
256,188,89166,1,2
256,188,89392,1,0
256,188,89504,1,0
256,188,89617,1,2
256,188,89843,1,0
256,188,90068,1,0
256,188,90294,1,6
256,188,90520,1,0
256,188,90745,1,0
256,188,90858,1,0
256,188,90971,1,2
256,188,91196,1,2
256,188,91422,1,0
256,188,91647,1,0
256,188,91760,1,0
256,188,91873,1,2
256,188,92098,1,2
256,188,92324,1,0
256,188,92550,1,0
256,188,92662,1,0
256,188,92775,1,0
256,188,93001,1,2
256,188,93113,1,2
256,188,93226,1,2
256,188,93452,1,0
256,188,93677,1,0
256,188,93903,1,6
256,188,94129,1,0
256,188,94354,1,0
256,188,94467,1,0
256,188,94580,1,0
256,188,94805,1,2
256,188,95031,1,0
256,188,95144,1,0
256,188,95256,1,0
256,188,95482,1,0
256,188,95595,1,0
256,188,95707,1,2
256,188,95933,1,0
256,188,96159,1,0
256,188,96271,1,0
256,188,96384,1,2
256,188,96610,1,0
256,188,96723,1,0
256,188,96835,1,2
256,188,97061,1,0
256,188,97286,1,0
256,188,97512,1,6
256,188,97738,1,0
256,188,97963,1,0
256,188,98076,1,0
256,188,98189,1,2
256,188,98414,1,2
256,188,98640,1,0
256,188,98865,1,0
256,188,98978,1,0
256,188,99091,1,2
256,188,99316,1,2
256,188,99542,1,0
256,188,99768,1,0
256,188,99880,1,0
256,188,99993,1,0
256,188,100219,1,2
256,188,100332,1,2
256,188,100444,1,2
256,188,100670,1,0
256,188,100895,1,0
256,188,101121,1,6
256,188,101347,1,0
256,188,101572,1,0
256,188,101685,1,0
256,188,101910,1,0
256,188,102023,1,2
256,188,102474,1,2
256,188,102926,1,2
256,188,103377,1,0
256,188,103489,1,0
256,188,103715,1,0
256,188,103828,1,2
256,188,104053,1,0
256,188,104279,1,0
256,188,104392,1,0
256,188,104504,1,0
256,188,104730,1,2
256,188,104956,1,2
256,188,105068,1,2
256,188,105181,1,0
256,188,105407,1,0
256,188,105632,1,2
256,188,106083,1,0
256,188,106196,1,0
256,188,106309,1,0
256,188,106535,1,2
256,188,106986,1,0
256,188,107211,1,0
256,188,107437,1,2
256,188,107888,1,0
256,188,108001,1,0
256,188,108113,1,0
256,188,108339,1,2
256,188,108790,1,0
256,188,109129,1,0
256,188,109241,1,2
256,188,109692,1,2
256,188,110144,1,2
256,188,110595,1,0
256,188,110707,1,0
256,188,110933,1,0
256,188,111046,1,2
256,188,111497,1,0
256,188,111610,1,0
256,188,111723,1,0
256,188,111948,1,2
256,188,112174,1,2
256,188,112286,1,2
256,188,112399,1,0
256,188,112625,1,0
256,188,112850,1,2
256,188,113301,1,0
256,188,113414,1,0
256,188,113527,1,0
256,188,113753,1,2
256,188,114204,1,0
256,188,114429,1,0
256,188,114655,1,2
256,188,115106,1,0
256,188,115332,1,0
256,188,115444,1,0
256,188,115557,1,2
256,188,115670,1,2
256,188,115783,1,0
256,188,116008,1,4
256,188,116234,1,0
256,188,116685,1,2
256,188,117136,1,0
256,188,117587,1,2
256,188,117813,1,0
256,188,118038,1,0
256,188,118489,1,2
256,188,118715,1,2
256,188,118941,1,0
256,188,119166,1,2
256,188,119617,1,0
256,188,119843,1,0
256,188,120294,1,2
256,188,120745,1,0
256,188,121196,1,0
256,188,121422,1,0
256,188,121647,1,0
256,188,122098,1,6
256,188,122550,1,0
256,188,122775,1,2
256,188,123001,1,0
256,188,123226,1,0
256,188,123452,1,0
256,188,123903,1,2
256,188,124354,1,0
256,188,124805,1,0
256,188,125031,1,2
256,188,125256,1,2
256,188,125707,1,6
256,188,126159,1,2
256,188,126271,1,2
256,188,126384,1,2
256,188,126610,1,0
256,188,126835,1,0
256,188,127061,1,0
256,188,127512,1,2
256,188,127963,1,0
256,188,128189,1,2
256,188,128301,1,2
256,188,128414,1,2
256,188,128640,1,4
256,188,130444,1,0
256,188,130557,1,0
256,188,130670,1,0
256,188,130895,1,2
256,188,131121,1,0
256,188,131347,1,0
256,188,131459,1,0
256,188,131572,1,0
256,188,131798,1,2
256,188,132023,1,0
256,188,132249,1,0
256,188,132362,1,0
256,188,132474,1,2
256,188,132700,1,2
256,188,132926,1,0
256,188,133151,1,0
256,188,133264,1,0
256,188,133377,1,2
256,188,133602,1,2
256,188,133828,1,0
256,188,134053,1,2
256,188,134166,1,2
256,188,134279,1,0
256,188,134504,1,2
256,188,134730,1,0
256,188,134956,1,2
256,188,135068,1,2
256,188,135181,1,0
256,188,135407,1,2
256,188,135632,1,0
256,188,135858,1,0
256,188,136083,1,0
256,188,136196,1,0
256,188,136309,1,2
256,188,136535,1,0
256,188,136760,1,2
256,188,136986,1,0
256,188,137098,1,0
256,188,137211,1,2
256,188,137662,1,0
256,188,137775,1,0
256,188,137888,1,0
256,188,138113,1,2
256,188,138339,1,0
256,188,138565,1,0
256,188,138677,1,0
256,188,138790,1,0
256,188,139016,1,2
256,188,139241,1,0
256,188,139467,1,0
256,188,139580,1,0
256,188,139692,1,2
256,188,139918,1,2
256,188,140144,1,0
256,188,140369,1,0
256,188,140482,1,0
256,188,140595,1,2
256,188,140820,1,2
256,188,141046,1,0
256,188,141271,1,2
256,188,141384,1,2
256,188,141497,1,0
256,188,141723,1,2
256,188,141948,1,0
256,188,142174,1,2
256,188,142286,1,2
256,188,142399,1,0
256,188,142625,1,2
256,188,142850,1,0
256,188,143076,1,0
256,188,143301,1,0
256,188,143414,1,0
256,188,143527,1,2
256,188,143753,1,0
256,188,143978,1,2
256,188,144204,1,0
256,188,144316,1,0
256,188,144429,1,2
256,188,144880,1,0
256,188,145106,1,0
256,188,145219,1,0
256,188,145332,1,2
256,188,145557,1,2
256,188,145783,1,0
256,188,146008,1,2
256,188,146121,1,2
256,188,146234,1,0
256,188,146459,1,2
256,188,146685,1,0
256,188,146910,1,0
256,188,147023,1,0
256,188,147136,1,2
256,188,147362,1,2
256,188,147587,1,0
256,188,147813,1,2
256,188,147926,1,2
256,188,148038,1,2
256,188,148264,1,2
256,188,148489,1,0
256,188,148715,1,0
256,188,148828,1,0
256,188,148941,1,2
256,188,149166,1,2
256,188,149392,1,0
256,188,149617,1,2
256,188,149730,1,2
256,188,149843,1,0
256,188,150068,1,2
256,188,150294,1,0
256,188,150407,1,0
256,188,150520,1,0
256,188,150745,1,2
256,188,150971,1,0
256,188,151196,1,2
256,188,151309,1,2
256,188,151422,1,0
256,188,151647,1,2
256,188,151873,1,0
256,188,152098,1,0
256,188,152211,1,0
256,188,152324,1,0
256,188,152550,1,2
256,188,152775,1,0
256,188,153001,1,0
256,188,153113,1,0
256,188,153226,1,0
256,188,153452,1,2
256,188,153677,1,0
256,188,153903,1,0
256,188,154016,1,0
256,188,154129,1,2
256,188,154354,1,2
256,188,154580,1,0
256,188,154805,1,0
256,188,154918,1,0
256,188,155031,1,2
256,188,155256,1,2
256,188,155482,1,0
256,188,155707,1,2
256,188,155820,1,2
256,188,155933,1,0
256,188,156159,1,2
256,188,156384,1,0
256,188,156610,1,2
256,188,156723,1,2
256,188,156835,1,0
256,188,157061,1,2
256,188,157286,1,0
256,188,157512,1,0
256,188,157738,1,0
256,188,157850,1,0
256,188,157963,1,2
256,188,158189,1,0
256,188,158414,1,2
256,188,158527,1,2
256,188,158640,1,2
256,188,158753,1,2
256,188,158865,1,0
256,188,158978,1,0
256,188,159091,1,0
256,188,159204,1,0
256,188,159316,1,0
256,188,159768,1,0
256,188,160219,1,0
256,188,160670,1,0
256,188,161121,1,2
256,188,161572,1,2
256,188,162023,1,2
256,188,162474,1,2
256,188,162926,1,0
256,188,163151,1,0
256,188,163377,1,2
256,188,163828,1,0
256,188,164053,1,0
256,188,164279,1,2
256,188,164730,1,0
256,188,165181,1,0
256,188,165632,1,2
256,188,165858,1,0
256,188,166083,1,2
256,188,166309,1,0
256,188,166535,1,0
256,188,166986,1,0
256,188,167437,1,0
256,188,167888,1,0
256,188,168339,1,2
256,188,168790,1,2
256,188,169241,1,2
256,188,169692,1,2
256,188,170144,1,0
256,188,170369,1,0
256,188,170595,1,2
256,188,170820,1,0
256,188,171046,1,0
256,188,171271,1,2
256,188,171497,1,0
256,188,171723,1,2
256,188,171948,1,2
256,188,172061,1,2
256,188,172174,1,2
256,188,172399,1,2
256,188,172625,1,2
256,188,172850,1,0
256,188,173076,1,2
256,188,173301,1,2
256,188,173527,1,2
256,188,173753,1,0
256,188,174204,1,0
256,188,174655,1,0
256,188,175106,1,0
256,188,175557,1,2
256,188,176008,1,2
256,188,176459,1,2
256,188,176910,1,2
256,188,177362,1,0
256,188,177587,1,0
256,188,177813,1,2
256,188,178264,1,0
256,188,178489,1,0
256,188,178715,1,2
256,188,179166,1,0
256,188,179617,1,0
256,188,180068,1,2
256,188,180294,1,0
256,188,180519,1,2
256,188,180745,1,0
256,188,180971,1,0
256,188,181422,1,0
256,188,181873,1,0
256,188,182324,1,0
256,188,182775,1,2
256,188,183226,1,2
256,188,183677,1,2
256,188,184129,1,2
256,188,184580,1,2
256,188,184805,1,2
256,188,185031,1,0
256,188,185256,1,2
256,188,185482,1,2
256,188,185707,1,0
256,188,185933,1,2
256,188,186046,1,2
256,188,186159,1,2
256,188,186384,1,4
256,188,188189,1,0
256,188,188301,1,0
256,188,188414,1,0
256,188,188640,1,2
256,188,188865,1,0
256,188,189091,1,0
256,188,189204,1,0
256,188,189316,1,0
256,188,189542,1,2
256,188,189768,1,0
256,188,189993,1,0
256,188,190106,1,0
256,188,190219,1,2
256,188,190444,1,2
256,188,190670,1,0
256,188,190895,1,0
256,188,191008,1,0
256,188,191121,1,2
256,188,191347,1,2
256,188,191572,1,0
256,188,191798,1,2
256,188,191910,1,2
256,188,192023,1,0
256,188,192249,1,2
256,188,192474,1,0
256,188,192700,1,2
256,188,192813,1,2
256,188,192926,1,0
256,188,193151,1,2
256,188,193377,1,0
256,188,193602,1,0
256,188,193828,1,0
256,188,193941,1,0
256,188,194053,1,2
256,188,194166,1,0
256,188,194279,1,2
256,188,194504,1,2
256,188,194730,1,0
256,188,194843,1,0
256,188,194956,1,2
256,188,195068,1,2
256,188,195181,1,2
256,188,195407,1,0
256,188,195519,1,0
256,188,195632,1,0
256,188,195858,1,2
256,188,196083,1,0
256,188,196309,1,0
256,188,196422,1,0
256,188,196535,1,0
256,188,196760,1,2
256,188,196986,1,0
256,188,197211,1,0
256,188,197324,1,0
256,188,197437,1,2
256,188,197662,1,2
256,188,197888,1,0
256,188,198113,1,0
256,188,198226,1,0
256,188,198339,1,2
256,188,198565,1,2
256,188,198790,1,0
256,188,199016,1,2
256,188,199129,1,2
256,188,199241,1,0
256,188,199467,1,2
256,188,199692,1,0
256,188,199918,1,2
256,188,200031,1,2
256,188,200144,1,0
256,188,200369,1,2
256,188,200595,1,0
256,188,200820,1,0
256,188,201046,1,0
256,188,201159,1,0
256,188,201271,1,2
256,188,201384,1,0
256,188,201497,1,2
256,188,201723,1,2
256,188,201948,1,2
256,188,202061,1,2
256,188,202174,1,0
256,188,202286,1,0
256,188,202399,1,0
256,188,202625,1,0
256,188,202850,1,0
256,188,202963,1,0
256,188,203076,1,2
256,188,203301,1,2
256,188,203527,1,0
256,188,203753,1,2
256,188,203865,1,2
256,188,203978,1,0
256,188,204204,1,2
256,188,204429,1,0
256,188,204655,1,0
256,188,204768,1,0
256,188,204880,1,2
256,188,205106,1,2
256,188,205332,1,0
256,188,205557,1,2
256,188,205670,1,2
256,188,205783,1,2
256,188,206008,1,2
256,188,206234,1,0
256,188,206459,1,0
256,188,206572,1,0
256,188,206685,1,2
256,188,206910,1,2
256,188,207136,1,0
256,188,207362,1,2
256,188,207474,1,2
256,188,207587,1,0
256,188,207813,1,2
256,188,208038,1,0
256,188,208151,1,0
256,188,208264,1,0
256,188,208377,1,0
256,188,208489,1,2
256,188,208715,1,0
256,188,208941,1,2
256,188,209053,1,2
256,188,209166,1,0
256,188,209279,1,0
256,188,209392,1,2
256,188,209617,1,0
256,188,209843,1,0
256,188,209956,1,0
256,188,210068,1,0
256,188,210294,1,2
256,188,210519,1,0
256,188,210745,1,0
256,188,210858,1,0
256,188,210971,1,0
256,188,211196,1,2
256,188,211422,1,0
256,188,211647,1,0
256,188,211760,1,0
256,188,211873,1,2
256,188,212098,1,2
256,188,212324,1,0
256,188,212550,1,0
256,188,212662,1,0
256,188,212775,1,2
256,188,213001,1,2
256,188,213226,1,0
256,188,213452,1,2
256,188,213565,1,2
256,188,213677,1,0
256,188,213903,1,2
256,188,214129,1,0
256,188,214354,1,2
256,188,214467,1,2
256,188,214580,1,0
256,188,214805,1,2
256,188,215031,1,0
256,188,215256,1,0
256,188,215482,1,0
256,188,215595,1,0
256,188,215707,1,2
256,188,215933,1,0
256,188,216046,1,2
256,188,216159,1,0
256,188,216384,1,2
256,188,216610,1,2
256,188,216835,1,0
256,188,217061,1,4
256,192,217963,12,0,220670
