osu file format v9

[General]
AudioFilename: Ragnarok Online OST - Theme Of Payon.mp3
AudioLeadIn: 0
PreviewTime: -1
Countdown: 0
SampleSet: Soft
StackLeniency: 0.7
Mode: 0
LetterboxInBreaks: 1

[Editor]
DistanceSpacing: 0.8
BeatDivisor: 8
GridSize: 4

[Metadata]
Title:Theme of Payon
Artist:SoundTeMP
Creator:Izumi-sama
Version:Willow Hard
Source:Ragnarok Online
Tags:

[Difficulty]
HPDrainRate:5
CircleSize:5
OverallDifficulty:9
ApproachRate:9
SliderMultiplier:1.4
SliderTickRate:1

[Events]
//Background and Video events
0,0,"wallpaper-443477.jpg"
//Break Periods
2,29281,32000
2,113039,119326
//Storyboard Layer 0 (Background)
//Storyboard Layer 1 (Fail)
//Storyboard Layer 2 (Pass)
//Storyboard Layer 3 (Foreground)
//Storyboard Sound Samples
//Background Colour Transformations
3,100,15,159,33

[TimingPoints]
902.937468251302,665.557404326123,4,2,0,50,1,0
1749,-100,4,2,0,5,0,0
2643,-100,4,2,0,50,0,0
40787,-66.6666666666667,4,2,0,5,0,1
56709,-100,4,2,0,50,0,0
80769,-100,4,1,0,50,0,1
88590,-100,4,2,0,50,0,0

[Colours]
Combo1 : 255,199,81
Combo2 : 193,255,203
Combo3 : 128,255,128
Combo4 : 255,163,70

[HitObjects]
64,112,666,6,0,B|96:112,3,17.5
176,112,1583,1,0
240,112,1916,1,0
296,112,2249,1,0
344,160,2583,5,0
312,224,2916,2,2,B|224:224,2,70
48,64,4583,5,0
112,64,4916,1,2
352,48,5583,2,4,B|352:192,1,140
304,192,6583,1,0
256,200,6916,1,6
256,192,7083,12,10,8248
168,192,8916,5,0
296,192,9249,1,0
416,192,9583,1,0
416,72,10583,2,0,B|344:72,1,70
240,72,11249,1,0
184,72,11583,1,2
32,192,12583,5,0
96,192,12916,2,0,B|112:192,4,17.5
160,192,13583,2,2,B|240:192,1,70
304,192,14249,1,0
424,192,14583,1,0
424,320,14916,1,6
40,56,16583,5,0
80,96,16749,1,0
40,152,16916,1,0
80,240,17249,1,2
192,240,17583,1,0
256,56,18623,5,0
128,56,18956,1,0
128,184,19289,1,0
256,184,19623,1,2
48,64,20620,6,0,B|128:64|112:64,1,70
128,120,21285,2,0,B|48:120,1,70
32,192,21951,1,0
128,192,22283,2,0,B|160:192,4,17.5
232,192,22949,1,2
424,192,23666,1,0
432,80,24613,2,0,B|352:80,1,70
128,80,25611,5,2
384,296,26610,1,2
336,296,26942,2,0,B|192:296,1,140
256,192,28166,12,4,29081
268,180,32600,5,0
380,180,32932,1,0
456,360,33598,2,0,B|368:360|368:360|344:328|344:328|256:328,1,210
200,328,34929,2,0,B|200:184,3,140
256,192,37499,12,0,38747
120,192,40919,6,0,B|152:192,7,26.2499992176891
160,192,41585,6,0,B|200:192,12,26.2499992176891
216,192,42666,2,0,B|260:192,3,26.2499992176891
264,192,42999,2,0,B|296:192,3,26.2499992176891
312,192,43332,2,0,B|344:192,15,26.2499992176891
336,192,44666,1,0
336,132,44912,2,0,B|308:132,7,26.2499992176891
284,132,45578,6,0,B|256:132,7,26.2499992176891
236,132,46327,2,0,B|128:132,2,104.999996870756
256,192,47249,12,0,48331
224,164,48999,5,0
320,168,49571,2,0,B|360:168,10,26.2499992176891
372,168,50487,2,0,B|420:168,3,26.2499992176891
368,200,50821,2,0,B|368:232,3,26.2499992176891
404,200,51154,2,0,B|436:200,4,26.2499992176891
440,212,51571,2,0,B|440:248,11,26.2499992176891
488,200,52650,5,0
488,156,52899,2,0,B|332:156|328:156|328:156|328:88|328:88|280:88|280:88|280:156|280:156|240:156|240:156|240:88|240:88|212:88|212:88|212:156|212:156,1,524.999984353781
212,208,54896,2,0,B|212:248,19,26.2499992176891
120,260,56724,2,2,B|148:260,1,26.2499992176891
444,260,57556,1,0
164,68,58638,5,0
256,64,58971,1,0
352,68,59305,1,0
448,72,59638,1,0
396,292,60550,5,0
280,292,60883,1,0
148,288,61217,1,0
144,176,61550,1,0
280,176,61883,1,0
420,184,62217,2,0,B|460:184|460:184|456:36|456:36|352:36,1,280
32,332,64630,5,0
136,332,64963,2,0,B|284:332,1,140
308,40,66541,1,0
208,40,66874,1,2
48,264,67541,1,4
448,260,68207,6,0,B|328:260,1,105
280,260,68872,1,6
156,260,69200,5,2
168,144,69533,1,2
288,144,69866,1,4
424,144,70200,1,8
424,40,70533,1,0
280,44,70866,1,2
132,44,71200,1,8
40,144,71533,5,2
32,264,71866,1,4
112,348,72200,1,2
224,352,72533,1,2
328,352,72866,2,0,B|328:212|328:212|304:212|304:212|304:92,1,280
312,48,74530,2,2,B|96:48|96:48|96:88|96:88|52:88|52:88|244:88,1,490
256,192,77192,12,0,80272
296,148,80936,5,12
80,52,81601,1,0
48,348,82596,1,0
148,308,82929,1,8
300,312,83596,1,4
440,228,84596,1,0
368,200,84929,1,8
216,64,85591,1,4
56,176,86258,5,0
124,176,86591,1,8
180,216,86924,1,8
240,256,87258,1,8
296,220,87591,1,4
168,116,88755,5,0
212,116,88921,2,0,B|360:116,1,140
256,192,89921,12,0,90587
52,88,90921,6,2,B|124:88,1,70
232,88,91585,1,0
320,88,91918,1,2
416,88,92252,1,6
256,192,92916,12,0,95080
80,76,96926,6,0,B|256:76|256:76|256:96|256:96|348:96,1,280
340,160,98593,2,0,B|224:160|224:160|224:96|224:96|224:136,1,210
256,36,100926,1,0
132,196,101593,5,0
256,192,102260,1,0
372,192,102593,1,0
260,300,102926,1,0
368,300,103260,1,0
472,200,103593,1,2
12,196,104926,6,2,B|292:196,1,280
432,200,106593,1,0
424,112,106926,1,0
312,112,107260,1,0
204,112,107593,1,0
100,112,107926,1,0
96,200,108260,2,0,B|208:200,1,105
256,200,108926,5,0
256,192,109260,12,0,112839
64,156,119926,5,0
152,156,120259,1,0
324,160,120926,1,0
448,164,121259,1,0
444,64,121592,5,0
320,60,121926,1,0
176,68,122259,1,0
176,176,122592,1,0
168,300,122926,1,0
316,300,123259,1,0
456,296,123592,1,0
456,184,123926,1,0
456,56,124259,5,0
328,48,124592,1,0
192,56,124926,2,0,B|192:344,1,280
264,336,126509,1,0
312,336,126759,1,0
368,336,127009,1,0
168,136,128939,5,0
52,328,130270,1,0
128,332,130520,1,2
212,332,130770,1,0
304,328,131020,1,0
256,192,133009,12,2,135590
236,196,136260,5,2
408,192,137009,1,2
