osu file format v9

[General]
AudioFilename: Supercooled Girl.mp3
AudioLeadIn: 0
PreviewTime: 1748
Countdown: 1
SampleSet: Soft
StackLeniency: 0.7
Mode: 0
LetterboxInBreaks: 1

[Editor]
DistanceSpacing: 1.2
BeatDivisor: 4
GridSize: 4

[Metadata]
Title:Supercooled Girl
Artist:SoundTeMP
Creator:silklash
Version:Hard
Source:Granado Espada
Tags:ESTi Sword of the New World

[Difficulty]
HPDrainRate:6
CircleSize:4
OverallDifficulty:5
ApproachRate:7
SliderMultiplier:1.5
SliderTickRate:1

[Events]
//Background and Video events
0,0,"background.jpg"
//Break Periods
//Storyboard Layer 0 (Background)
//Storyboard Layer 1 (Fail)
//Storyboard Layer 2 (Pass)
//Storyboard Layer 3 (Foreground)
//Storyboard Sound Samples
//Background Colour Transformations
3,100,163,162,255

[TimingPoints]
1798,428.571428571429,4,2,0,50,1,0
27671,-90.9090909090909,4,2,0,50,0,0
28528,-83.3333333333333,4,2,0,50,0,0

[HitObjects]
256,60,1798,1,0
152,244,2655,1,0
360,244,3512,1,0
360,168,3726,6,0,B|360:80,1,75,2|0
256,200,4155,2,0,B|256:284,1,75,2|0
152,168,4583,2,0,B|152:80,1,75,2|0
256,20,5012,2,0,B|256:104,1,75,2|0
256,168,5440,5,0
220,232,5655,2,0,B|168:304,1,75,2|0
292,232,6083,2,0,B|344:304,1,75
412,348,6512,2,0,B|476:276|364:204|436:120,1,225,2|0
420,60,7369,6,0,B|368:64|352:120,1,75
328,168,7797,1,0
184,212,8226,1,0
128,76,8655,2,0,B|224:16|352:60,1,225,0|2
464,168,9512,2,0,B|368:228|240:184,1,225,0|2
172,180,10369,5,0
136,248,10583,2,0,B|119:283|136:332,1,75,2|0
204,292,11012,2,0,B|224:336|264:356,1,75,2|0
292,280,11440,2,0,B|326:296|372:280,1,75,2|0
408,344,11869,5,2
324,208,12083,1,0
292,140,12297,6,0,B|260:104|276:48,1,75,2|0
344,84,12726,2,0,B|340:36|376:8,1,75,2|0
420,68,13155,2,0,B|456:40|504:72,2,75,2|0|2
456,132,13797,1,0
296,324,14226,5,0
264,324,14440,1,0
228,324,14655,2,0,B|132:312|120:208,1,150,0|0
112,76,15512,2,0,B|180:64|228:116|228:116|252:216|364:200,2,300,0|0|0
64,188,17440,6,0,B|64:272,1,75,2|0
176,340,17869,2,0,B|144:256,1,75,2|0
256,144,18298,2,0,B|256:220,1,75,2|0
256,292,18726,5,2
256,64,18940,1,0
336,44,19155,6,0,B|368:128,1,75,2|0
448,196,19583,2,0,B|448:112,1,75,2|0
368,252,20012,2,0,B|352:300|288:304,1,75,2|0
244,320,20440,1,2
176,292,20655,1,0
88,168,21083,5,0
96,140,21298,1,0
116,116,21512,2,0,B|160:40|264:48,1,150,0|0
448,56,22369,2,0,B|440:128|364:159|364:159|268:136|208:212,2,300,0|0|0
340,44,24298,6,0,B|248:28|176:88,1,150,2|2
128,132,24940,1,0
92,216,25155,2,0,B|160:232|240:184,1,150,2|2
312,140,25798,5,0
396,108,26012,1,2
472,192,26226,1,0
388,200,26440,1,2
340,276,26655,1,0
428,292,26869,2,0,B|416:336|384:364|336:368|304:360,1,150,2|2
240,344,27512,1,0
176,292,27726,2,0,B|192:248|228:216|276:212|320:220,1,164.999995082617,2|2
416,224,28369,1,0
364,120,28583,2,0,B|296:32|180:88,1,180.000004291535,2|2
100,164,29226,5,4
100,196,30083,1,4
100,228,30940,1,4
200,320,31262,5,0
200,320,31369,2,0,B|252:300|260:248,1,90.0000021457673,2|0
260,168,31798,1,0
352,68,32119,1,0
352,68,32226,2,0,B|392:100|392:148,1,90.0000021457673,2|0
392,176,32548,1,0
392,208,32655,2,0,B|392:260|340:296,1,90.0000021457673,0|2
208,328,33083,2,0,B|208:272|256:248,1,90.0000021457673
252,124,33512,2,0,B|172:200,1,90.0000021457673,0|2
44,164,33940,2,0,B|92:160|128:116,1,90.0000021457673
132,80,34262,2,0,B|176:60,1,45.0000010728836
352,68,34798,5,0
424,120,35012,1,0
464,200,35226,2,0,B|480:248|456:292,1,90.0000021457673,0|2
376,256,35655,2,0,B|355:304|300:328,1,90.0000021457673,0|2
164,304,36083,2,0,B|188:212|280:168,1,180.000004291535,0|2
348,116,36726,1,0
280,56,36940,2,0,B|176:52|120:132,1,180.000004291535,0|2
116,216,37583,1,0
192,160,37798,6,0,B|224:124|272:132,1,90.0000021457673,0|2
320,224,38226,2,0,B|288:260|240:252,1,90.0000021457673,0|0
348,88,38655,2,0,B|392:112|392:168,1,90.0000021457673,0|2
164,296,39083,2,0,B|120:272|120:216,1,90.0000021457673
120,192,39405,1,0
120,160,39512,2,0,B|128:104|176:80,1,90.0000021457673,0|2
256,44,39940,2,0,B|256:144,1,90.0000021457673
346,85,40369,2,0,B|384:104|392:160,1,90.0000021457673,0|2
480,288,40798,2,0,B|448:248|376:256,1,90.0000021457673
380,280,41119,2,0,B|324:280,1,45.0000010728836
160,316,41655,5,0
84,268,41869,1,0
48,184,42083,2,0,B|32:136|56:92,1,90.0000021457673,0|2
136,128,42512,2,0,B|156:79|212:56,1,90.0000021457673,0|2
348,80,42940,2,0,B|324:148|440:168|428:256,1,180.000004291535,0|2
396,316,43583,1,0
304,316,43798,2,0,B|300:232|196:272|208:136,1,180.000004291535,0|2
208,84,44440,1,0
300,84,44655,5,0
388,84,44869,2,0,B|388:32|388:36,2,45.0000010728836,0|0|2
344,164,45297,1,0
432,164,45512,1,0
388,244,45726,2,0,B|388:300,2,45.0000010728836,0|0|2
296,244,46155,1,0
208,244,46369,2,0,B|116:244,1,90.0000021457673,0|2
156,164,46797,2,0,B|56:164,1,90.0000021457673,0|2
252,116,47226,2,0,B|352:116,1,90.0000021457673,0|2
304,32,47655,2,0,B|404:32,1,90.0000021457673,0|2
394,32,47976,1,0
394,32,48083,1,0
448,204,48512,5,0
424,292,48726,1,0
348,344,48940,2,0,B|256:344,1,90.0000021457673,0|2
100,300,49369,2,0,B|196:300,1,90.0000021457673,0|2
328,232,49797,2,0,B|368:132|300:64,1,180.000004291535,0|2
216,40,50440,1,0
148,100,50655,2,0,B|112:188|176:268,1,180.000004291535,0|2
252,320,51297,1,0
340,332,51512,6,0,B|388:351|432:328,1,90.0000021457673,0|2
384,252,51940,2,0,B|432:244|448:196,1,90.0000021457673
364,160,52369,2,0,B|396:124|376:76,1,90.0000021457673,0|2
296,116,52797,2,0,B|264:152|284:200,1,90.0000021457673
172,332,53226,6,0,B|123:351|80:328,1,90.0000021457673,0|2
128,252,53655,2,0,B|80:244|64:196,1,90.0000021457673
148,160,54083,2,0,B|116:124|136:76,1,90.0000021457673,0|2
216,116,54512,2,0,B|248:152|228:200,1,90.0000021457673
308,232,54940,6,0,B|297:278|340:316,1,90.0000021457673,0|2
204,152,55369,2,0,B|214:105|172:68,1,90.0000021457673,0|2
360,192,55797,2,0,B|320:220|332:276,1,90.0000021457673,0|2
152,192,56226,2,0,B|192:164|180:108,1,90.0000021457673,0|2
256,192,56655,5,4
256,192,57512,1,4
256,192,57940,5,0
255,212,58047,1,0
254,232,58155,1,0
254,253,58262,1,0
253,273,58369,1,4
312,344,58583,5,0
372,276,58797,1,0
372,188,59012,2,0,B|372:128,1,45.0000010728836,0|2
304,44,59333,2,0,B|304:88,1,45.0000010728836,2|0
256,168,59655,1,0
208,89,59869,2,0,B|208:44,1,45.0000010728836,0|2
140,143,60190,2,0,B|140:188,1,45.0000010728836,2|0
136,280,60512,5,0
212,328,60726,1,0
212,328,60833,2,0,B|256:348|300:328,1,90.0000021457673,2|2
299,328,61155,1,0
376,280,61369,1,0
300,232,61583,1,0
300,232,61690,2,0,B|256:212|212:232,1,90.0000021457673,2|2
213,232,62012,1,0
132,188,62226,6,0,B|140:136|192:104,1,90.0000021457673,0|2
380,188,62655,2,0,B|372:136|320:104,1,90.0000021457673,0|2
256,36,63083,2,0,B|256:136,1,90.0000021457673,0|2
256,216,63512,2,0,B|256:300|256:300|248:308|248:308|264:308|264:308|256:316|256:316|264:328|264:328|248:328|248:328|256:336|256:336|256:356,1,179.999994506836,0|2
168,324,64155,1,0
128,240,64369,2,0,B|100:196|128:152,1,90.0000021457673,0|2
176,80,64797,1,0
212,52,64905,1,0
256,36,65012,1,0
296,52,65119,1,0
332,80,65226,1,0
385,155,65440,6,0,B|412:196|384:240,1,90.0000021457673
440,312,65869,1,0
440,312,65976,2,0,B|364:348|308:280,1,135.000003218651,2|0
256,224,66512,1,0
195,290,66726,1,0
195,290,66833,2,0,B|148:348|72:312,1,135.000003218651,2|0
73,220,67369,6,0,B|132:152,1,90.0000021457673
132,152,67690,1,0
132,152,67797,1,2
192,88,68012,1,0
256,152,68226,1,2
320,88,68440,1,0
380,152,68655,2,0,B|448:232,1,90.0000021457673,2|0
476,308,69083,6,0,B|431:332|387:308,1,90.0000021457673
300,312,69512,2,0,B|255:336|211:312,1,90.0000021457673
122,309,69940,2,0,B|81:332|36:308,1,90.0000021457673
36,216,70369,1,0
36,216,70476,1,0
36,216,70583,2,0,B|120:200|96:132|180:112,1,180.000004291535,2|0
204,112,71119,1,0
232,112,71226,2,0,B|292:112|312:180,1,90.0000021457673,2|0
232,216,71655,1,2
232,216,71762,1,0
232,216,71869,2,0,B|248:272|320:264,1,90.0000021457673
447,250,72297,6,0,B|401:221|411:154,1,90.0000021457673
422,84,72726,1,0
338,116,72940,2,0,B|313:164|258:153,1,90.0000021457673,0|2
173,147,73369,2,0,B|116:134|83:192,1,90.0000021457673,0|2
56,152,73690,1,0
56,152,73798,2,0,B|33:193|60:240,1,90.0000021457673,0|2
216,312,74226,2,0,B|239:271|212:224,1,90.0000021457673,0|2
316,72,74655,2,0,B|284:112|316:156,1,90.0000021457673,0|2
408,216,75083,2,0,B|440:256|408:300,1,90.0000021457673,0|2
380,332,75405,2,0,B|328:332,1,45.0000010728836
172,100,75940,6,0,B|128:120|116:184,1,89.9999972534181
76,248,76369,2,0,B|108:204|196:184|256:232,1,180.000004291535
392,328,77226,1,0
120,328,78083,1,0
256,80,78512,5,0
256,104,78619,1,0
256,128,78726,1,0
256,152,78833,1,0
256,176,78940,2,0,B|256:240,2,45.0000010728836
380,132,79369,5,0
256,332,80226,1,0
132,132,81083,1,0
204,76,81297,5,0
228,64,81405,1,0
252,52,81512,2,0,B|296:52,3,45.0000010728836
312,76,81940,2,0,B|364:76,2,45.0000010728836
256,304,82797,5,0
188,200,83655,1,0
324,200,84512,1,0
384,136,84940,1,4
344,56,85369,5,4
328,68,85476,1,0
308,76,85583,1,0
288,72,85690,1,0
268,60,85797,2,0,B|224:148,1,90.0000021457673,4|0
140,164,86226,6,0,B|144:216|196:228,1,90.0000021457673,2|0
372,232,86655,2,0,B|368:284|316:296,1,90.0000021457673
236,336,87083,2,0,B|128:336,1,90.0000021457673,2|0
120,336,87405,1,0
92,336,87512,2,0,B|56:300|80:236,1,90.0000021457673
168,160,87940,2,0,B|200:200|184:256,1,90.0000021457673,2|0
325,244,88369,2,0,B|312:200|344:160,1,90.0000021457673
437,252,88797,2,0,B|456:300|420:336,1,90.0000021457673,2|0
396,340,89119,2,0,B|348:340,1,45.0000010728836
172,312,89655,6,0,B|136:272|172:216,1,90.0000021457673,0|2
248,264,90083,1,0
248,172,90512,1,0
248,84,90940,2,0,B|312:72|324:172|404:160,1,180.000004291535,0|2
248,264,91797,1,0
96,168,92226,5,0
96,196,92333,1,0
96,224,92440,1,0
96,252,92547,1,0
96,280,92655,2,0,B|104:336|176:336,1,90.0000021457673,0|2
354,334,93083,6,0,B|408:336|416:280,1,90.0000021457673
368,160,93512,2,0,B|320:168|316:228,1,90.0000021457673,0|2
144,160,93940,2,0,B|192:168|196:228,1,90.0000021457673
256,292,94369,2,0,B|272:340|328:344,2,90.0000021457673,0|2|0
256,200,95012,1,0
256,112,95226,2,0,B|240:64|184:60,2,90.0000021457673,0|2|0
336,156,95869,2,0,B|392:156,2,45.0000010728836
176,156,96512,5,0
124,176,96726,1,0
88,216,96940,2,0,B|72:268|104:300,1,90.0000021457673
148,332,97369,2,0,B|196:344|232:312,1,90.0000021457673
320,332,97797,5,0
332,308,97905,1,0
340,284,98012,2,0,B|352:224|312:184,1,90.0000021457673,2|0
412,192,98440,1,0
405,165,98547,1,0
396,142,98655,2,0,B|366:88|310:83,1,90.0000021457673,2|0
252,36,99083,1,0
252,36,99190,1,0
252,36,99297,2,0,B|224:76|252:124,1,90.0000021457673,2|0
304,276,99726,5,0
340,200,99940,2,0,B|284:180|232:224,1,90.0000021457673,2|0
192,276,100369,2,0,B|152:240|172:176,1,90.0000021457673
76,204,100797,2,0,B|56:152|96:108,1,90.0000021457673,2|0
104,96,101119,1,0
124,80,101226,2,0,B|168:48|220:60,1,90.0000021457673
200,148,101655,2,0,B|248:136|300:180,1,90.0000021457673,2|0
332,220,102083,1,0
372,280,102297,1,0
428,236,102512,1,2
452,168,102726,1,0
428,100,102940,1,0
284,80,103369,6,0,B|180:80,1,90.0000021457673,0|2
256,160,103797,2,0,B|136:196,1,90.0000021457673,0|2
248,244,104226,2,0,B|176:316,1,90.0000021457673,0|2
108,356,104655,2,0,B|68:336|72:288|124:260|116:204|72:188,1,180.000004291535,0|2
404,356,105512,2,0,B|444:336|440:288|388:260|396:204|440:188,1,180.000004291535,0|2
444,172,106047,1,0
452,144,106155,1,0
444,116,106262,1,0
424,96,106369,2,0,B|424:48,2,45.0000010728836
348,144,106797,6,0,B|296:172|308:236,1,90.0000021457673,2|0
206,217,107226,2,0,B|216:172|164:144,1,90.0000021457673
72,236,107655,2,0,B|68:284|114:309,1,89.9999972534181,2|0
212,352,108083,2,0,B|256:340|300:352,1,90.0000021457673
398,309,108512,2,0,B|444:284|440:236,1,89.9999972534181,2|0
440,128,108940,6,0,B|448:83|400:52,1,90.0000021457673
380,36,109262,1,0
356,24,109369,1,0
328,24,109476,1,0
304,32,109583,1,0
212,92,109797,1,0
256,192,110012,12,0,113119
