osu file format v11

[General]
AudioFilename: 15. Rose of Sharon.mp3
AudioLeadIn: 0
PreviewTime: 58577
Countdown: 0
SampleSet: Normal
StackLeniency: 0.7
Mode: 0
LetterboxInBreaks: 1

[Editor]
Bookmarks: 3720
DistanceSpacing: 0
BeatDivisor: 4
GridSize: 8

[Metadata]
Title:Rose of Sharon
TitleUnicode:Rose of Sharon
Artist:SoundTeMP
ArtistUnicode:SoundTeMP
Creator:altc3000
Version:Insane
Source:Ragnarok Online
Tags:MMORPG Tsusuko
BeatmapID:175003
BeatmapSetID:58167

[Difficulty]
HPDrainRate:7
CircleSize:4
OverallDifficulty:7
ApproachRate:8
SliderMultiplier:1.59999990463257
SliderTickRate:1

[Events]
//Background and Video events
0,0,"bg_hard.jpg"
//Break Periods
//Storyboard Layer 0 (Background)
//Storyboard Layer 1 (Fail)
//Storyboard Layer 2 (Pass)
//Storyboard Layer 3 (Foreground)
//Storyboard Sound Samples
//Background Colour Transformations
3,100,163,162,255

[TimingPoints]
3788,428.571428571429,4,1,0,50,1,0
32930,-80,4,1,0,50,0,0
34538,-100,4,1,0,50,0,0
39680,-80,4,1,0,50,0,0
55216,-80,4,1,0,22,0,0
55645,-80,4,1,0,30,0,0
56073,-80,4,1,0,50,0,0
58645,-80,4,1,0,50,0,1
72359,-80,4,1,0,50,0,0
86073,-133.333333333333,4,1,0,50,0,0
91109,-80,4,1,0,50,0,0
99788,-80,4,1,0,50,0,1
101395,-133.333333333333,4,1,0,50,0,1
103109,-80,4,1,0,50,0,1
106430,-80,4,1,0,50,0,1
113502,-80,4,1,0,50,0,0

[Colours]
Combo1 : 0,0,255
Combo2 : 255,0,0
Combo3 : 255,255,0
Combo4 : 192,192,192
Combo5 : 255,128,0

[HitObjects]
78,142,3788,2,0,P|58:174|79:207,1,79.9999952316285,0|4,0:0|0:0,0:0:0
78,206,4216,1,8,0:0:0
220,280,4645,2,0,P|252:300|285:279,1,79.9999952316285
284,279,5073,1,8,0:0:0
434,224,5502,2,0,P|454:192|433:159,1,79.9999952316285
433,159,5930,1,8,0:0:0
291,74,6359,2,0,P|259:54|226:75,1,79.9999952316285
226,74,6787,1,8,0:0:0
118,242,7216,6,0,P|126:279|164:287,1,79.9999952316285
163,287,7645,1,8,0:0:0
322,289,8073,2,0,P|360:280|368:243,1,79.9999952316285
368,243,8502,1,8,0:0:0
369,84,8930,2,0,P|359:45|322:38,1,79.9999952316285
324,37,9359,1,8,0:0:0
164,39,9787,2,0,P|125:47|117:84,1,79.9999952316285
116,82,10216,1,8,0:0:0
344,280,10645,6,0,P|400:280|408:208,1,119.999992847443
418,226,11073,1,8,0:0:0
418,226,11287,1,0,0:0:0
413,131,11502,2,0,P|402:76|330:81,1,119.999992847443
346,68,11930,1,8,0:0:0
346,68,12145,1,0,0:0:0
177,71,12359,2,0,P|121:73|116:146,1,119.999992847443
105,128,12787,1,8,0:0:0
105,128,13002,1,0,0:0:0
106,222,13216,2,0,P|111:277|184:278,1,119.999992847443
166,290,13645,1,8,0:0:0
166,290,13859,1,0,0:0:0
136,56,14073,6,0,B|80:128,1,79.9999952316285
86,119,14502,1,8,0:0:0
376,328,14930,2,0,B|424:256,1,79.9999952316285
420,261,15359,1,8,0:0:0
424,136,15787,2,0,B|352:88,1,79.9999952316285
357,91,16216,1,8,0:0:0
96,248,16645,2,0,B|168:304,1,79.9999952316285,4|0,0:0|0:0,0:0:0
159,297,17073,1,12,0:0:0
104,96,17502,6,0,B|71:136|105:175,1,79.9999952316285,4|0,0:0|0:0,0:0:0
155,201,17930,1,0,0:0:0
184,212,18037,1,0,0:0:0
213,224,18145,1,2,0:0:0
397,148,18359,2,0,B|430:188|396:227,1,79.9999952316285,0|0,0:0|0:0,0:0:0
350,259,18788,1,0,0:0:0
321,274,18895,1,0,0:0:0
292,288,19002,1,2,0:0:0
152,64,19216,5,0,0:0:0
183,64,19323,1,0,0:0:0
214,64,19430,1,2,0:0:0
376,128,19645,1,0,0:0:0
344,128,19752,1,0,0:0:0
312,128,19859,1,2,0:0:0
152,192,20073,1,0,0:0:0
183,192,20180,1,0,0:0:0
214,192,20288,1,2,0:0:0
376,256,20502,1,0,0:0:0
344,256,20609,1,0,0:0:0
312,257,20716,1,2,0:0:0
163,247,20930,6,0,B|132:280|165:320,2,79.9999952316285,4|0|0,0:0|0:0|0:0,0:0:0
162,247,21466,1,0,0:0:0
162,247,21573,1,2,0:0:0
320,193,21788,2,0,B|354:226|321:266,2,79.9999952316285
321,194,22323,1,0,0:0:0
321,194,22430,1,2,0:0:0
360,64,22645,5,0,0:0:0
328,64,22752,1,0,0:0:0
296,64,22859,1,2,0:0:0
136,128,23073,1,0,0:0:0
168,128,23180,1,0,0:0:0
200,128,23288,1,2,0:0:0
360,192,23502,1,0,0:0:0
328,192,23609,1,0,0:0:0
296,192,23716,1,2,0:0:0
136,256,23930,1,0,0:0:0
168,256,24038,1,0,0:0:0
200,256,24145,1,2,0:0:0
120,59,24359,6,0,P|119:110,2,39.9999976158142,4|0|2,0:0|0:0|0:0,0:0:0
120,155,24788,1,8,0:0:0
120,155,25002,1,0,0:0:0
383,102,25216,2,0,P|383:152,2,39.9999976158142,4|0|2,0:0|0:0|0:0,0:0:0
383,198,25645,1,8,0:0:0
383,198,25859,1,0,0:0:0
184,272,26073,2,0,P|144:272,2,39.9999976158142,4|0|2,0:0|0:0|0:0,0:0:0
248,271,26502,1,8,0:0:0
248,271,26716,1,0,0:0:0
347,83,26930,2,0,P|386:83,2,39.9999976158142,4|0|2,0:0|0:0|0:0,0:0:0
282,83,27359,1,8,0:0:0
282,83,27573,1,0,0:0:0
217,86,27788,6,0,P|177:50|137:91,1,119.999992847443,4|0,0:0|0:0,0:0:0
137,87,28216,1,8,0:0:0
137,87,28430,1,0,0:0:0
223,170,28645,2,0,P|263:206|303:165,1,119.999992847443,4|0,0:0|0:0,0:0:0
303,169,29073,1,8,0:0:0
303,169,29288,1,0,0:0:0
418,232,29502,5,0,0:0:0
402,260,29609,1,0,0:0:0
378,282,29716,1,0,0:0:0
350,299,29823,1,0,0:0:0
319,309,29930,1,8,0:0:0
286,313,30038,1,0,0:0:0
253,315,30145,1,0,0:0:0
220,310,30252,1,0,0:0:0
188,302,30359,1,4,0:0:0
159,286,30466,1,0,0:0:0
130,270,30573,1,0,0:0:0
109,245,30680,1,0,0:0:0
93,216,30788,1,12,0:0:0
84,184,30895,1,0,0:0:0
80,151,31002,1,0,0:0:0
103,98,31216,6,0,P|157:97,2,39.9999976158142
216,99,31645,1,8,0:0:0
216,99,31859,1,0,0:0:0
400,280,32073,1,0,0:0:0
368,280,32180,1,0,0:0:0
336,280,32288,1,2,0:0:0
256,280,32502,1,8,0:0:0
256,280,32716,1,0,0:0:0
80,280,32930,6,0,B|80:216,3,49.9999970197678
80,231,33359,2,0,B|112:168,3,48.7499982833862,8|0|0|0,0:0|0:0|0:0|0:0,0:0:0
104,184,33788,2,0,B|160:144,3,48.7499982833862
143,155,34216,2,0,B|207:139,2,48.7499982833862,8|0|0,0:0|0:0|0:0,0:0:0
400,96,34645,5,0,0:0:0
368,96,34752,1,0,0:0:0
336,96,34859,1,2,0:0:0
256,96,35073,1,8,0:0:0
256,96,35288,1,0,0:0:0
112,280,35502,1,0,0:0:0
144,280,35609,1,0,0:0:0
176,280,35716,1,2,0:0:0
256,280,35930,1,8,0:0:0
256,280,36145,1,0,0:0:0
320,283,36359,5,0,0:0:0
352,283,36466,1,0,0:0:0
383,278,36573,1,0,0:0:0
413,266,36680,1,0,0:0:0
441,250,36788,1,8,0:0:0
458,222,36895,1,0,0:0:0
467,191,37002,1,0,0:0:0
469,157,37109,1,0,0:0:0
461,125,37216,1,0,0:0:0
444,96,37323,1,0,0:0:0
420,73,37430,1,0,0:0:0
390,60,37538,1,0,0:0:0
357,54,37645,1,8,0:0:0
324,54,37752,1,0,0:0:0
292,55,37859,1,0,0:0:0
228,68,38073,5,0,0:0:0
195,68,38180,1,0,0:0:0
162,68,38288,1,2,0:0:0
96,70,38502,1,8,0:0:0
97,70,38716,1,0,0:0:0
112,256,38930,1,0,0:0:0
144,256,39038,1,0,0:0:0
176,256,39145,1,2,0:0:0
240,256,39359,1,8,0:0:0
240,256,39573,1,0,0:0:0
432,280,39788,6,0,B|432:216|432:208,3,48.7499982833862
432,231,40216,2,0,B|400:168,3,48.7499982833862,8|0|0|0,0:0|0:0|0:0|0:0,0:0:0
408,184,40645,2,0,B|352:144,3,48.7499982833862
368,155,41073,2,0,B|304:139,2,48.7499982833862,8|0|0,0:0|0:0|0:0,0:0:0
248,64,41502,5,0,0:0:0
216,64,41609,1,0,0:0:0
176,64,41716,1,2,0:0:0
112,64,41930,1,8,0:0:0
112,64,42145,1,0,0:0:0
384,256,42359,1,0,0:0:0
352,256,42466,1,0,0:0:0
320,256,42573,1,2,0:0:0
256,256,42788,1,8,0:0:0
256,256,43002,1,0,0:0:0
209,330,43216,5,0,0:0:0
169,328,43323,1,0,0:0:0
129,322,43430,1,0,0:0:0
92,308,43538,1,0,0:0:0
60,283,43645,1,0,0:0:0
38,250,43752,1,0,0:0:0
28,212,43859,1,0,0:0:0
29,172,43966,1,0,0:0:0
44,135,44073,1,0,0:0:0
71,105,44180,1,0,0:0:0
105,84,44287,1,0,0:0:0
143,71,44395,1,0,0:0:0
182,63,44502,1,0,0:0:0
221,58,44609,1,0,0:0:0
261,57,44716,1,0,0:0:0
384,80,44930,5,0,0:0:0
360,104,45037,1,0,0:0:0
336,128,45145,1,2,0:0:0
256,192,45359,1,8,0:0:0
256,192,45573,1,0,0:0:0
128,80,45787,1,0,0:0:0
152,104,45895,1,0,0:0:0
176,128,46002,1,2,0:0:0
256,192,46216,1,8,0:0:0
256,192,46430,1,0,0:0:0
67,48,46645,6,0,P|97:48|113:64,3,49.9999970197678
110,60,47073,2,0,P|120:88|111:108,3,49.9999970197678,8|0|0|0,0:0|0:0|0:0|0:0,0:0:0
112,105,47502,1,0,0:0:0
90,117,47609,1,0,0:0:0
73,135,47716,1,0,0:0:0
61,157,47823,1,0,0:0:0
67,181,47930,1,8,0:0:0
80,202,48037,1,0,0:0:0
99,217,48145,1,0,0:0:0
128,304,48359,5,0,0:0:0
152,280,48466,1,0,0:0:0
176,256,48573,1,2,0:0:0
256,192,48787,1,8,0:0:0
256,192,49002,1,0,0:0:0
384,304,49216,1,0,0:0:0
360,280,49323,1,0,0:0:0
336,256,49430,1,2,0:0:0
256,192,49645,1,8,0:0:0
256,192,49859,1,0,0:0:0
445,48,50073,6,0,P|415:48|399:64,3,49.9999970197678
402,60,50502,2,0,P|392:88|401:108,3,49.9999970197678,8|0|0|0,0:0|0:0|0:0|0:0,0:0:0
400,105,50930,1,0,0:0:0
422,117,51037,1,0,0:0:0
439,135,51145,1,0,0:0:0
451,157,51252,1,0,0:0:0
445,181,51359,1,8,0:0:0
432,202,51466,1,0,0:0:0
413,217,51573,1,0,0:0:0
149,44,51787,6,0,P|94:95,2,49.9999970197678
181,117,52216,1,8,0:0:0
181,117,52430,1,0,0:0:0
370,48,52645,2,0,P|404:85,2,49.9999970197678
331,117,53073,1,8,0:0:0
331,117,53287,1,0,0:0:0
370,335,53502,6,0,P|404:299,2,49.9999970197678
331,267,53930,1,8,0:0:0
331,267,54145,1,0,0:0:0
141,336,54359,2,0,P|107:299,2,49.9999970197678
181,267,54787,1,8,0:0:0
181,267,55002,1,0,0:0:0
64,32,55216,5,8,0:0:0
144,192,55430,1,8,0:0:0
24,152,55645,1,8,0:0:0
184,72,55859,1,8,0:0:0
320,32,56073,1,8,0:0:0
320,32,56180,2,0,P|360:64|416:56,1,99.9999940395356
432,80,56502,1,8,0:0:0
444,108,56609,1,0,0:0:0
444,136,56716,1,0,0:0:0
436,164,56823,1,0,0:0:0
420,188,56930,1,8,0:0:0
404,212,57037,1,0,0:0:0
396,240,57145,1,0,0:0:0
400,268,57252,1,0,0:0:0
416,296,57359,1,8,0:0:0
432,320,57466,1,0,0:0:0
436,348,57573,1,0,0:0:0
420,372,57680,1,0,0:0:0
392,384,57787,1,0,0:0:0
280,324,58002,5,0,0:0:0
280,324,58109,1,0,0:0:0
280,324,58216,1,8,0:0:0
280,324,58430,1,0,0:0:0
184,296,58645,5,4,0:0:0
184,296,58752,1,0,0:0:0
184,296,58859,1,2,0:0:0
376,192,59073,5,8,0:0:0
376,192,59180,1,0,0:0:0
376,192,59287,1,2,0:0:0
184,96,59502,5,0,0:0:0
184,96,59609,1,0,0:0:0
184,96,59716,2,0,B|240:48|278:24,2,99.9999940395356,2|0|0,0:0|0:0|0:0,0:0:0
56,200,60359,5,0,0:0:0
80,208,60466,1,0,0:0:0
104,216,60573,1,2,0:0:0
128,224,60680,2,0,B|208:256,3,48.7499982833862,0|8|0|2,0:0|0:0|0:0|0:0,0:0:0
272,160,61216,6,0,B|264:184|256:224,2,48.7499982833862,0|0|2,0:0|0:0|0:0,0:0:0
424,352,61645,2,0,B|432:328|440:280,2,48.7499982833862,8|0|2,0:0|0:0|0:0,0:0:0
224,336,62073,5,0,0:0:0
201,334,62180,1,0,0:0:0
179,327,62287,1,2,0:0:0
158,317,62395,1,0,0:0:0
141,301,62502,1,8,0:0:0
124,285,62609,1,0,0:0:0
112,265,62716,1,2,0:0:0
104,216,62930,6,0,B|96:163|152:104,1,97.4999965667725,0|2,0:0|0:0,0:0:0
392,200,63359,2,0,B|400:253|344:312,1,97.4999965667725,8|2,0:0|0:0,0:0:0
256,232,63787,2,0,B|256:288,2,48.7499982833862,0|0|2,0:0|0:0|0:0,0:0:0
256,152,64216,2,0,B|256:96,2,48.7499982833862,8|0|2,0:0|0:0|0:0,0:0:0
296,192,64645,2,0,B|352:192,2,48.7499982833862,0|0|2,0:0|0:0|0:0,0:0:0
216,192,65073,2,0,B|160:192,2,48.7499982833862,8|0|2,0:0|0:0|0:0,0:0:0
128,56,65502,5,0,0:0:0
128,56,65609,1,0,0:0:0
128,56,65716,1,2,0:0:0
352,128,65930,5,0,0:0:0
352,128,66037,1,0,0:0:0
352,128,66145,1,2,0:0:0
128,224,66359,5,0,0:0:0
128,224,66466,1,0,0:0:0
128,224,66573,2,0,B|192:256,2,49.9999970197678
80,200,67002,1,2,0:0:0
352,264,67216,1,0,0:0:0
352,264,67323,1,0,0:0:0
352,264,67430,2,0,B|288:296,2,49.9999970197678,2|0|0,0:0|0:0|0:0,0:0:0
400,240,67859,1,2,0:0:0
256,96,68073,1,0,0:0:0
256,96,68180,1,0,0:0:0
256,96,68287,2,0,B|256:168,2,49.9999970197678,2|0|0,0:0|0:0|0:0,0:0:0
256,40,68716,1,2,0:0:0
135,88,68930,5,0,0:0:0
135,88,69037,1,0,0:0:0
135,88,69145,1,2,0:0:0
338,156,69359,5,0,0:0:0
338,156,69466,1,0,0:0:0
338,156,69573,1,2,0:0:0
151,260,69787,5,0,0:0:0
151,260,69895,1,0,0:0:0
151,260,70002,1,2,0:0:0
151,260,70109,1,0,0:0:0
151,260,70216,2,0,P|155:289|174:305,3,49.9999970197678,8|0|2|2,0:0|0:0|0:0|0:0,0:0:0
169,302,70645,2,0,P|196:313|217:304,3,49.9999970197678
238,298,71073,1,8,0:0:0
259,284,71180,1,0,0:0:0
272,263,71287,1,2,0:0:0
274,237,71395,1,0,0:0:0
265,213,71502,5,4,0:0:0
250,192,71609,1,0,0:0:0
239,169,71716,1,2,0:0:0
235,144,71823,1,0,0:0:0
237,119,71930,1,12,0:0:0
249,97,72037,1,0,0:0:0
270,83,72145,1,2,0:0:0
297,78,72252,1,0,0:0:0
321,77,72359,5,4,0:0:0
345,77,72466,1,0,0:0:0
369,77,72573,1,2,0:0:0
418,79,72787,1,8,0:0:0
418,79,73002,1,0,0:0:0
239,169,73216,5,0,0:0:0
263,169,73323,1,0,0:0:0
287,169,73430,1,2,0:0:0
347,169,73645,1,8,0:0:0
347,169,73859,1,0,0:0:0
348,169,74073,5,0,0:0:0
367,191,74180,1,0,0:0:0
375,219,74287,1,0,0:0:0
362,246,74395,1,0,0:0:0
343,269,74502,1,8,0:0:0
315,281,74609,1,0,0:0:0
286,288,74716,1,0,0:0:0
256,287,74823,1,0,0:0:0
228,271,74930,1,0,0:0:0
208,248,75037,1,0,0:0:0
199,219,75145,1,0,0:0:0
199,189,75252,1,0,0:0:0
206,160,75359,1,8,0:0:0
227,139,75466,1,0,0:0:0
254,127,75573,1,0,0:0:0
322,126,75787,6,0,B|377:126,2,49.9999970197678,0|0|2,0:0|0:0|0:0,0:0:0
372,126,76216,1,8,0:0:0
372,126,76430,1,0,0:0:0
272,240,76645,2,0,B|214:239,2,49.9999970197678,0|0|2,0:0|0:0|0:0,0:0:0
223,238,77073,1,8,0:0:0
223,238,77287,1,0,0:0:0
128,64,77502,5,0,0:0:0
120,80,77609,1,0,0:0:0
112,96,77716,1,2,0:0:0
104,184,77930,1,8,0:0:0
104,184,78145,1,0,0:0:0
384,64,78359,1,0,0:0:0
392,80,78466,1,0,0:0:0
400,96,78573,1,2,0:0:0
408,184,78787,1,8,0:0:0
408,184,79002,1,0,0:0:0
328,112,79216,6,0,P|286:244,1,99.9999940395356
176,145,79645,2,0,P|134:277,1,99.9999940395356,8|0,0:0|0:0,0:0:0
74,237,80073,2,0,P|74:175,3,49.9999970197678
75,185,80502,2,0,P|108:132,3,49.9999970197678,8|0|0|0,0:0|0:0|0:0|0:0,0:0:0
101,141,80930,2,0,P|160:96,3,49.9999970197678
143,110,81359,2,0,P|207:84,3,49.9999970197678,8|0|0|0,0:0|0:0|0:0|0:0,0:0:0
191,91,81787,2,0,P|256:80,3,49.9999970197678
240,82,82216,1,8,0:0:0
240,82,82430,1,0,0:0:0
342,191,82645,5,0,0:0:0
295,312,82859,1,0,0:0:0
218,208,83073,1,8,0:0:0
153,321,83287,1,0,0:0:0
56,160,83502,5,0,0:0:0
126,51,83716,1,0,0:0:0
205,153,83930,1,8,0:0:0
277,45,84145,1,0,0:0:0
296,192,84359,6,0,B|360:192,2,49.9999970197678,4|0|0,0:0|0:0|0:0,0:0:0
216,192,84787,2,0,B|160:192,2,49.9999970197678,12|0|0,0:0|0:0|0:0,0:0:0
256,152,85216,2,0,B|256:96,2,49.9999970197678,4|0|0,0:0|0:0|0:0,0:0:0
256,232,85645,2,0,B|256:296,2,49.9999970197678,12|0|0,0:0|0:0|0:0,0:0:0
339,271,86073,5,0,0:0:0
339,271,86287,1,0,0:0:0
339,207,86502,1,8,0:0:0
339,175,86609,1,0,0:0:0
339,135,86716,1,2,0:0:0
189,240,86930,1,0,0:0:0
189,240,87145,1,0,0:0:0
189,176,87359,1,8,0:0:0
189,144,87466,1,0,0:0:0
189,104,87573,1,2,0:0:0
216,48,87787,6,0,B|262:47,3,29.9999993562698
306,48,88216,1,10,0:0:0
306,48,88430,1,2,0:0:0
305,228,88645,2,0,B|261:228,3,29.9999993562698,0|0|2|0,0:0|0:0|0:0|0:0,0:0:0
214,229,89073,1,10,0:0:0
214,229,89287,1,2,0:0:0
214,301,89502,5,0,0:0:0
214,301,89716,1,0,0:0:0
286,302,89930,2,0,P|368:302,1,59.9999987125397,8|0,0:0|0:0,0:0:0
413,303,90359,1,0,0:0:0
413,303,90573,1,0,0:0:0
413,234,90787,2,0,P|413:158,1,59.9999987125397,8|0,0:0|0:0,0:0:0
352,64,91216,6,0,B|304:112,3,48.7499982833862,0|0|2|0,0:0|0:0|0:0|0:0,0:0:0
288,128,91645,2,0,B|240:176,3,48.7499982833862,8|0|2|0,0:0|0:0|0:0|0:0,0:0:0
224,192,92073,2,0,B|176:240,3,48.7499982833862,0|0|2|0,0:0|0:0|0:0|0:0,0:0:0
160,256,92502,2,0,B|120:296,3,48.7499982833862,8|0|2|0,0:0|0:0|0:0|0:0,0:0:0
102,241,92930,5,0,0:0:0
102,209,93037,1,0,0:0:0
102,177,93145,1,2,0:0:0
102,73,93359,1,8,0:0:0
102,73,93573,1,0,0:0:0
338,298,93787,1,0,0:0:0
339,265,93895,1,0,0:0:0
339,233,94002,1,2,0:0:0
339,129,94216,1,8,0:0:0
339,129,94430,1,0,0:0:0
393,45,94645,6,0,P|344:33|293:49,1,99.9999940395356
342,100,95073,2,0,P|296:112|246:99,1,99.9999940395356,8|0,0:0|0:0,0:0:0
233,30,95502,2,0,P|183:17|132:33,1,99.9999940395356
178,86,95930,2,0,P|132:98|82:85,1,99.9999940395356,8|0,0:0|0:0,0:0:0
64,168,96359,5,0,0:0:0
98,167,96466,1,0,0:0:0
132,168,96573,1,2,0:0:0
193,201,96787,1,8,0:0:0
227,201,96895,1,0,0:0:0
261,201,97002,1,2,0:0:0
310,250,97216,1,0,0:0:0
344,252,97323,1,0,0:0:0
378,252,97430,1,2,0:0:0
379,322,97645,1,8,0:0:0
344,323,97752,1,0,0:0:0
309,324,97859,1,2,0:0:0
239,326,98073,6,0,P|180:299,3,49.9999970197678
192,306,98502,2,0,P|141:264,3,49.9999970197678,8|0|0|0,0:0|0:0|0:0|0:0,0:0:0
152,274,98930,2,0,P|123:217,3,49.9999970197678,4|0|0|0,0:0|0:0|0:0|0:0,0:0:0
127,228,99359,2,0,P|115:169,3,49.9999970197678,12|0|0|0,0:0|0:0|0:0|0:0,0:0:0
115,177,99787,6,0,P|115:127,2,49.9999970197678
115,76,100216,1,8,0:0:0
115,76,100430,1,0,0:0:0
417,198,100645,2,0,P|417:149,2,49.9999970197678
416,97,101073,1,8,0:0:0
416,97,101287,1,0,0:0:0
315,57,101502,6,0,P|293:24|229:23|205:63,1,119.999997425079,0|8,0:0|0:0,0:0:0
209,56,102145,1,0,0:0:0
211,314,102359,2,0,P|233:347|297:348|321:308,1,119.999997425079,0|8,0:0|0:0,0:0:0
316,314,103002,1,0,0:0:0
392,248,103216,6,0,B|392:192|392:192|392:208,2,56.2500003576279,0|0|2,0:0|0:0|0:0,0:0:0
392,128,103645,1,10,0:0:0
392,128,103859,1,0,0:0:0
112,208,104073,2,0,B|112:152|112:152|112:168,2,56.2500003576279,0|0|2,0:0|0:0|0:0,0:0:0
112,88,104502,1,10,0:0:0
112,88,104716,1,0,0:0:0
304,56,104930,5,0,0:0:0
288,56,105037,1,0,0:0:0
272,56,105145,1,0,0:0:0
256,56,105252,1,0,0:0:0
240,56,105359,1,8,0:0:0
192,56,105573,1,0,0:0:0
208,288,105787,5,0,0:0:0
224,288,105895,1,0,0:0:0
240,288,106002,1,0,0:0:0
256,288,106109,1,0,0:0:0
272,288,106216,1,8,0:0:0
320,288,106430,1,0,0:0:0
391,252,106645,5,0,0:0:0
414,241,106752,1,0,0:0:0
432,222,106859,2,0,P|453:170|432:130,1,99.9999940395356,0|8,0:0|0:0,0:0:0
436,134,107180,1,0,0:0:0
436,134,107287,1,0,0:0:0
137,124,107502,5,0,0:0:0
114,135,107609,1,0,0:0:0
96,154,107716,2,0,P|74:205|95:245,1,99.9999940395356,0|8,0:0|0:0,0:0:0
92,242,108037,1,0,0:0:0
92,242,108145,1,0,0:0:0
192,288,108359,5,0,0:0:0
216,288,108466,1,0,0:0:0
240,288,108573,1,2,0:0:0
320,216,108787,1,8,0:0:0
296,216,108895,1,0,0:0:0
272,216,109002,1,2,0:0:0
192,144,109216,1,0,0:0:0
216,144,109323,1,0,0:0:0
240,144,109430,1,2,0:0:0
320,80,109645,1,8,0:0:0
296,80,109752,1,0,0:0:0
272,80,109859,1,2,0:0:0
152,28,110073,5,0,0:0:0
16,104,110287,1,0,0:0:0
176,120,110502,1,8,0:0:0
40,196,110716,1,0,0:0:0
72,276,110930,2,0,P|52:332,1,49.9999970197678
152,360,111252,1,0,0:0:0
172,332,111359,1,8,0:0:0
204,320,111466,1,0,0:0:0
240,324,111573,1,0,0:0:0
272,340,111680,1,0,0:0:0
296,364,111787,5,0,0:0:0
304,328,111895,1,0,0:0:0
332,308,112002,1,0,0:0:0
368,304,112109,1,0,0:0:0
400,316,112216,1,8,0:0:0
436,312,112323,1,0,0:0:0
464,292,112430,1,0,0:0:0
476,260,112537,1,0,0:0:0
492,228,112645,5,4,0:0:0
460,212,112752,1,0,0:0:0
436,188,112859,1,0,0:0:0
424,156,112966,1,0,0:0:0
428,120,113073,5,12,0:0:0
388,108,113180,1,0,0:0:0
352,92,113287,1,0,0:0:0
320,68,113395,1,0,0:0:0
296,36,113502,1,4,0:0:0
