osu file format v11

[General]
AudioFilename: 15. Rose of Sharon.mp3
AudioLeadIn: 0
PreviewTime: 58577
Countdown: 0
SampleSet: Normal
StackLeniency: 0.7
Mode: 0
LetterboxInBreaks: 1

[Editor]
Bookmarks: 3720
DistanceSpacing: 1
BeatDivisor: 4
GridSize: 4

[Metadata]
Title:Rose of Sharon
TitleUnicode:Rose of Sharon
Artist:SoundTeMP
ArtistUnicode:SoundTeMP
Creator:altc3000
Version:Easy
Source:Ragnarok Online
Tags:MMORPG Tsusuko
BeatmapID:185184
BeatmapSetID:58167

[Difficulty]
HPDrainRate:2
CircleSize:3
OverallDifficulty:2
ApproachRate:3
SliderMultiplier:0.800000005960464
SliderTickRate:1

[Events]
//Background and Video events
0,0,"bg_hard.jpg"
//Break Periods
//Storyboard Layer 0 (Background)
//Storyboard Layer 1 (Fail)
//Storyboard Layer 2 (Pass)
//Storyboard Layer 3 (Foreground)
//Storyboard Sound Samples
//Background Colour Transformations
3,100,163,162,255

[TimingPoints]
3788,428.571428571429,4,1,0,50,1,0
51573,-133.333333333333,4,1,0,50,0,0
58645,-100,4,1,0,50,0,1
61859,-66.6666666666667,4,1,0,50,0,1
65288,-100,4,1,0,50,0,1
72359,-100,4,1,0,50,0,0
99788,-100,4,1,0,50,0,1
106430,-100,4,1,0,50,0,1
113502,-100,4,1,0,50,0,0

[Colours]
Combo1 : 0,0,255
Combo2 : 255,0,0
Combo3 : 255,255,0
Combo4 : 192,192,192
Combo5 : 255,128,0

[HitObjects]
40,192,3788,2,0,P|128:120|208:192,1,240.000001788139,0|8,0:0|0:0,0:0:0
128,208,5503,2,0,P|207:279|295:207,1,240.000001788139,0|8,0:0|0:0,0:0:0
216,192,7217,2,0,P|304:120|384:192,1,240.000001788139,0|8,0:0|0:0,0:0:0
304,208,8931,2,0,P|383:279|471:207,1,240.000001788139,0|8,0:0|0:0,0:0:0
446,129,10645,5,0,0:0:0
286,128,11503,1,8,0:0:0
256,285,12360,1,0,0:0:0
96,280,13217,1,8,0:0:0
96,120,14074,6,0,P|184:48|264:120,1,240.000001788139,0|8,0:0|0:0,0:0:0
263,199,15788,2,0,P|342:270|430:198,1,240.000001788139,0|8,0:0|0:0,0:0:0
414,121,17503,5,4,0:0:0
256,92,18360,1,8,0:0:0
96,93,19217,2,0,P|56:207|90:323,1,240.000001788139,0|8,0:0|0:0,0:0:0
165,298,20931,5,0,0:0:0
324,314,21788,1,8,0:0:0
483,301,22646,2,0,P|547:237|547:149|475:93,1,240.000001788139,0|8,0:0|0:0,0:0:0
399,64,24360,6,0,P|384:120,2,40.0000002980232,0|0|8,0:0|0:0|0:0,0:0:0
319,57,25217,2,0,P|304:104,2,40.0000002980232,0|0|8,0:0|0:0|0:0,0:0:0
239,65,26074,5,0,0:0:0
85,109,26931,1,8,0:0:0
130,262,27788,6,0,P|210:262,2,80.0000005960464,0|8|0,0:0|0:0|0:0,0:0:0
128,344,29074,1,8,0:0:0
208,344,29503,6,0,P|290:344,2,80.0000005960464,0|8|4,0:0|0:0|0:0,0:0:0
208,264,30788,1,4,0:0:0
253,198,31217,5,0,0:0:0
253,38,32074,1,8,0:0:0
412,42,32931,2,0,P|412:132,1,80.0000005960464,0|8,0:0|0:0,0:0:0
332,114,33788,2,0,P|332:211,1,80.0000005960464,0|8,0:0|0:0,0:0:0
412,195,34646,5,0,0:0:0
337,336,35503,1,8,0:0:0
177,334,36360,2,0,P|178:248,1,80.0000005960464,0|8,0:0|0:0,0:0:0
98,263,37217,2,0,P|98:176,1,80.0000005960464,0|8,0:0|0:0,0:0:0
99,102,38074,5,0,0:0:0
255,68,38931,1,8,0:0:0
406,103,39788,2,0,P|510:103|454:175,1,240.000001788139,0|8,0:0|0:0,0:0:0
388,214,41503,5,0,0:0:0
257,308,42360,1,8,0:0:0
103,261,43217,2,0,P|47:245|23:197|23:149|47:101|111:93,1,240.000001788139,0|4,0:0|0:0,0:0:0
188,71,44931,6,0,P|268:71,1,80.0000005960464,0|8,0:0|0:0,0:0:0
317,133,45788,2,0,P|413:133,1,80.0000005960464,0|8,0:0|0:0,0:0:0
432,204,46645,1,0,0:0:0
296,288,47503,1,8,0:0:0
144,237,48360,6,0,P|104:205,2,40.0000002980232,0|0|8,0:0|0:0|0:0,0:0:0
74,277,49217,2,0,P|26:245,2,40.0000002980232,0|0|8,0:0|0:0|0:0,0:0:0
141,320,50074,1,0,0:0:0
256,208,50931,1,8,0:0:0
256,192,51788,12,0,54360,0:0:0
334,230,55217,5,0,0:0:0
284,263,55645,1,8,0:0:0
224,264,56074,1,0,0:0:0
175,229,56503,1,8,0:0:0
123,198,56931,2,8,P|123:166|139:134,1,60.0000027358533,0|8,0:0|0:0,0:0:0
166,90,57788,2,8,P|197:89|230:106,1,60.0000027358533,0|8,0:0|0:0,0:0:0
277,41,58645,6,0,P|341:33|381:73|381:137|341:185|261:161,1,240.000001788139,0|8,0:0|0:0,0:0:0
217,111,60360,2,0,P|153:90|113:138|113:202|153:242|217:234,1,240.000001788139,0|8,0:0|0:0,0:0:0
326,271,62074,6,0,P|382:207,2,60.0000027358533,0|0|8,0:0|0:0|0:0,0:0:0
401,177,62931,2,0,P|353:113,2,60.0000027358533,0|0|8,0:0|0:0|0:0,0:0:0
313,95,63788,6,0,P|249:95,2,60.0000027358533,0|0|8,0:0|0:0|0:0,0:0:0
202,142,64645,2,8,P|162:198,2,60.0000027358533,0|0|8,0:0|0:0|0:0,0:0:0
121,145,65503,5,0,0:0:0
89,71,65931,1,8,0:0:0
167,53,66360,2,0,P|183:37|231:37|255:53,1,80.0000005960464,0|8,0:0|0:0,0:0:0
314,85,67217,5,0,0:0:0
359,150,67645,1,8,0:0:0
341,228,68074,2,0,P|325:244|277:244|253:228,1,80.0000005960464,0|8,0:0|0:0,0:0:0
249,155,68931,5,0,0:0:0
249,314,69788,1,8,0:0:0
256,192,70003,12,4,72360,0:0:0
392,192,73217,1,8,0:0:0
280,77,74074,1,0,0:0:0
209,115,74503,1,8,0:0:0
55,68,75360,1,8,0:0:0
56,147,75788,5,0,0:0:0
121,292,76645,1,8,0:0:0
277,257,77503,1,0,0:0:0
328,196,77931,1,8,0:0:0
450,92,78788,1,8,0:0:0
452,172,79217,5,0,0:0:0
311,248,80074,1,8,0:0:0
249,100,80931,1,0,0:0:0
168,103,81360,1,8,0:0:0
63,223,82217,1,8,0:0:0
119,279,82645,6,0,P|196:295|281:280,1,160.000001192093
435,271,84360,2,0,P|451:194|436:109,1,160.000001192093
282,77,86074,6,0,P|228:26|157:20|133:90|181:166,1,240.000001788139,0|8,0:0|0:0,0:0:0
261,164,87788,2,0,P|308:239|285:309|214:303|160:253,1,240.000001788139,0|8,0:0|0:0,0:0:0
94,205,89503,5,8,0:0:0
164,61,90360,1,8,0:0:0
282,168,91217,1,8,0:0:0
199,304,92074,1,8,0:0:0
357,280,92931,6,0,P|418:263|451:208|420:152|356:151|311:203,1,240.000001788139,0|8,0:0|0:0,0:0:0
232,184,94645,2,0,P|187:236|123:235|92:179|125:124|186:107,1,240.000001788139,0|8,0:0|0:0,0:0:0
200,28,96360,5,8,0:0:0
359,32,97217,1,8,0:0:0
361,191,98074,1,8,0:0:0
201,192,98931,1,8,0:0:0
316,302,99788,5,4,0:0:0
155,304,100645,1,8,0:0:0
133,146,101503,6,0,P|227:146,1,80.0000005960464,0|8,0:0|0:0,0:0:0
234,223,102360,2,0,P|331:223,1,80.0000005960464,0|8,0:0|0:0,0:0:0
324,143,103217,5,0,0:0:0
324,302,104074,1,8,0:0:0
164,284,104931,6,0,P|87:229,1,80.0000005960464,8|0,0:0|0:0,0:0:0
116,159,105788,2,0,P|184:91,1,80.0000005960464,8|0,0:0|0:0,0:0:0
246,70,106645,5,0,0:0:0
381,155,107503,1,8,0:0:0
308,297,108360,5,0,0:0:0
265,229,108788,1,8,0:0:0
224,298,109217,1,0,0:0:0
181,230,109645,1,8,0:0:0
84,158,110074,5,0,0:0:0
135,96,110503,1,8,0:0:0
183,159,110931,1,0,0:0:0
234,97,111360,1,8,0:0:0
278,163,111788,5,0,0:0:0
341,211,112217,1,8,0:0:0
276,258,112645,1,0,0:0:0
211,210,113074,1,8,0:0:0
90,210,113503,5,4,0:0:0
