osu file format v9

[General]
AudioFilename: 25.mp3
AudioLeadIn: 0
PreviewTime: 53948
Countdown: 0
SampleSet: Soft
StackLeniency: 0.7
Mode: 0
LetterboxInBreaks: 0

[Editor]
DistanceSpacing: 1.6
BeatDivisor: 4
GridSize: 4

[Metadata]
Title:Plateau
Artist:SoundTeMP
Creator:Ruish
Version:Hard
Source:Ragnarok Online
Tags:geffen fields mmorpg RO gravity Lee Seock-Jin OnosakiHito

[Difficulty]
HPDrainRate:6
CircleSize:4
OverallDifficulty:5
ApproachRate:7
SliderMultiplier:2
SliderTickRate:1

[Events]
//Background and Video events
0,0,"ro-city-geffen.jpg"
//Break Periods
2,84506,98644
//Storyboard Layer 0 (Background)
//Storyboard Layer 1 (Fail)
//Storyboard Layer 2 (Pass)
//Storyboard Layer 3 (Foreground)
//Storyboard Sound Samples
//Background Colour Transformations
3,100,163,162,255

[TimingPoints]
496,476.758045292014,4,2,0,35,1,0
13845,474.683544303797,4,2,0,35,1,0
17405,-100,4,2,0,39,0,0
21677,-100,4,2,0,44,0,0
21914,500,4,2,0,44,1,0
22881,483.870967741935,4,2,0,44,1,0
23829,476.190476190476,4,2,0,44,1,0
53828,-100,4,2,0,50,0,0
75971,-100,4,2,0,39,0,0
82400,-100,4,2,0,15,0,0
84186,-100,4,2,0,10,0,0
99543,-100,4,2,0,39,0,0
100505,476.190476190476,4,2,0,39,1,0
108838,-100,4,2,0,35,0,0
112647,-100,4,2,0,40,0,0
113481,-100,4,2,0,42,0,0
113719,-100,4,2,0,46,0,0
113957,-100,4,2,0,53,0,0
128362,-100,4,2,0,39,0,0
130020,476.190476190476,4,2,0,44,1,0
136924,-100,4,2,0,52,0,0
145258,-100,4,2,0,25,0,0
147857,571.428571428571,4,2,0,25,1,0
148142,705.882352941176,4,2,0,25,1,0
148837,923.076923076923,4,2,0,10,1,0

[Colours]
Combo1 : 217,158,218
Combo2 : 130,205,84
Combo3 : 151,205,223
Combo4 : 252,186,247

[HitObjects]
68,156,14557,2,0,B|172:156,1,100
68,156,15031,1,0
168,156,15269,1,2
68,156,15506,1,0
128,236,15743,2,0,B|228:236,1,100
232,276,16099,2,0,B|332:276,1,100
372,276,16455,1,0
424,192,16693,1,0
424,192,16930,1,0
364,112,17167,1,2
364,112,17405,2,0,B|260:112,1,100
276,324,18117,6,0,B|192:340|144:272,1,150,2|0
116,244,18591,2,0,B|96:232|96:200,1,50
96,160,18829,2,0,B|128:116|184:112,1,100,0|2
280,100,19303,1,0
348,172,19541,1,0
280,100,19778,1,0
256,196,20015,1,2
300,284,20253,1,0
480,196,20727,1,0
468,296,20965,1,2
380,344,21202,1,0
180,120,21677,5,0
336,320,22164,1,0
456,88,22664,1,0
332,312,23364,6,0,B|228:344|140:280,1,200,2|0
408,164,24543,2,0,B|360:164,1,50
324,152,24781,2,0,B|268:152,1,50
244,136,25019,2,0,B|208:112|160:116|132:152|132:192,1,150
132,188,25495,1,0
132,188,25733,1,0
256,332,26210,1,2
256,84,26924,5,0
256,244,27162,1,2
256,164,27400,1,0
256,164,27520,1,0
136,272,27877,6,0,B|176:240,2,50,0|0|2
152,224,28234,2,0,B|120:184,2,50,0|0|0
144,176,28591,2,0,B|184:144,2,50
144,128,28948,2,0,B|144:76,1,50
244,60,29305,5,0
340,88,29543,1,0
402,170,29782,1,0
382,269,30020,1,0
302,332,30258,1,0
302,332,30377,1,0
204,324,30615,6,0,B|108:304,1,100
75,274,30972,1,2
66,232,31091,2,0,B|112:144,1,100
256,92,31686,1,0
476,272,32401,5,0
476,104,32639,1,0
208,112,33829,6,0,B|208:216,1,100,2|0
40,320,34543,2,0,B|40:216,1,100,0|2
40,184,34901,1,0
40,144,35020,1,0
40,104,35139,1,0
192,112,35496,5,0
224,88,35615,1,0
264,80,35734,1,2
304,88,35853,1,0
336,112,35972,1,0
360,144,36091,1,0
368,184,36210,1,0
356,224,36329,2,0,B|312:312|204:308|158:210,1,250
464,72,37638,6,0,B|424:164|312:196,1,200,2|0
256,112,38353,1,0
232,136,38471,2,0,B|196:168,1,50
168,192,38710,2,0,B|108:188|72:232|104:288,1,150,0|0
196,332,39305,2,0,B|236:368|292:356,1,100,0|0
380,312,39782,2,0,B|436:300|456:252,1,100
295,134,40496,5,2
176,185,40734,1,0
300,288,40972,1,0
208,112,41448,5,2
193,270,41686,1,0
337,202,41924,1,0
152,324,42163,5,0
152,324,42401,2,0,B|312:288|384:192|256:68|128:192|200:288|356:324,1,500,2|0
452,264,43829,5,0
456,164,44067,1,0
400,80,44305,2,0,B|304:60,2,100
360,172,45020,1,0
356,272,45258,1,0
108,308,45734,6,0,B|32:216|104:120,1,200,0|2
188,176,46448,2,0,B|248:168|252:104,1,100
251,110,46805,2,0,B|276:40|328:40,1,100
316,40,47163,2,0,B|380:136|324:236,1,200,2|0
148,316,48115,6,0,B|72:248|124:184,1,150,2|0
122,185,48591,2,0,B|204:112|148:56,1,150
256,88,50019,6,0,B|252:112|228:132|120:128|76:188|112:296|192:340|348:344|404:280|420:188|364:124|296:116,1,600
256,192,51925,12,0,53353
256,192,53829,5,4
224,100,54067,1,0
312,48,54305,1,0
396,104,54544,1,0
396,104,54663,1,0
396,104,54782,1,2
356,192,55020,1,0
256,192,55258,1,0
156,188,55496,2,0,B|100:248|152:332|232:308,1,200
324,268,56209,5,0
256,192,56448,1,0
280,96,56686,1,2
280,96,56925,2,0,B|343:21|420:42|420:42|486:15|445:73|445:73|444:140,1,300,0|2
400,224,57877,5,0
336,308,58115,1,0
336,308,58353,1,0
236,304,58590,2,0,B|204:264|172:292|148:252,1,100,2|0
80,184,59067,1,0
140,104,59306,2,0,B|176:72|204:124|236:104,1,100,2|0
336,100,59782,5,0
420,156,60020,1,0
332,204,60258,2,0,B|324:264,2,50,0|0|2
420,252,60734,1,0
372,340,60972,2,0,B|340:308|308:344|280:308,1,100
184,292,61448,6,0,B|84:232|168:196|84:128,1,200,4|0
184,92,62163,2,0,B|236:92,1,50
276,92,62401,2,0,B|332:92,1,50,0|0
364,80,62639,2,0,B|368:124|420:104|432:144,1,100,0|2
364,304,63114,2,2,B|368:260|420:280|432:240,1,100
284,312,63591,2,0,B|212:356|140:308|164:224,1,200
256,32,65020,5,0
256,352,65496,1,0
256,120,65734,1,0
256,264,65972,1,0
256,120,66210,1,2
256,264,66448,1,0
256,192,66686,1,0
256,192,66924,1,0
256,192,67044,12,0,68830
256,140,69067,5,4
36,344,69782,1,0
136,344,70020,2,0,B|244:344,1,100,2|0
188,256,70496,1,0
88,256,70734,2,0,B|88:156,1,100,0|2
180,64,71210,1,0
280,60,71448,1,0
360,120,71687,1,0
360,120,71806,1,0
360,120,71925,1,2
392,216,72163,1,0
360,312,72401,2,0,B|252:324,1,100
168,284,72877,5,4
408,104,73591,1,0
320,152,73829,1,2
320,152,73948,1,0
236,208,74187,1,0
236,208,74306,2,0,B|140:264,1,100
84,184,74782,1,0
136,96,75020,1,0
236,84,75258,1,0
328,120,75496,2,0,B|320:172,2,50
396,192,75972,5,0
256,332,76448,2,0,B|152:343|60:285,1,200
120,204,77163,1,0
60,124,77401,1,0
260,124,77877,6,0,B|320:204,1,100
372,288,78353,1,0
224,316,78590,1,2
108,224,78828,1,0
112,72,79067,1,0
288,316,79543,5,2
404,224,79781,1,0
400,72,80020,1,0
344,200,80496,6,0,B|316:252|352:304,1,100,2|0
256,176,80972,2,0,B|204:148|152:184,1,100
312,116,81448,2,0,B|340:64|304:12,1,100,2|0
400,140,81925,2,0,B|452:168|504:132,1,100
256,188,82638,5,2
256,268,83114,1,0
256,344,83590,1,0
256,44,84306,5,0
200,60,99544,5,2
128,128,99782,1,0
100,156,99900,2,0,B|60:196,1,50
116,336,100496,5,2
188,268,100743,1,0
220,240,100862,2,0,B|256:200,1,50
424,88,101457,5,2
424,188,101695,2,0,B|424:140,1,50
424,138,101933,1,2
324,140,102171,1,0
324,240,102409,1,2
324,140,102647,5,0
188,80,103005,2,0,B|140:80,1,50
116,112,103243,1,0
92,144,103362,2,0,B|92:244,2,100,0|0|2
176,144,104076,1,0
176,244,104314,6,0,B|176:344,2,100
256,304,105028,1,0
352,328,105266,1,0
428,260,105505,2,0,B|428:212,1,50
416,176,105743,6,0,B|404:112,2,66.6666666666667
348,184,106219,2,0,B|307:217|253:211,1,100
220,204,106576,1,0
168,112,106933,1,0
168,112,107171,1,0
256,64,107528,5,0
256,64,107647,1,2
400,104,108124,1,0
428,200,108362,1,0
428,200,108600,1,2
344,256,108838,5,0
248,288,109076,2,0,B|156:236|132:124,1,200,0|2
196,100,109790,5,0
316,28,110028,2,0,B|392:100|360:216,1,200,0|2
32,308,110981,5,0
68,156,111219,2,0,B|164:200|264:152,1,200
208,236,112647,5,0
92,124,112885,2,0,B|200:96|288:156,1,200,0|2
416,76,113600,5,0
464,228,113838,1,0
332,320,114076,5,0
300,344,114195,1,0
260,348,114314,1,2
220,340,114433,1,0
184,320,114552,1,0
168,284,114671,1,0
164,244,114790,2,0,B|108:212|104:148|156:108|216:128,1,200,4|2
436,192,115981,6,0,B|436:144,1,50
436,192,116219,2,0,B|384:180,1,50,2|0
436,192,116457,2,0,B|400:228,1,50
256,184,116933,2,0,B|256:136,1,50
256,92,117171,2,0,B|256:36,1,50,2|0
308,36,117409,1,0
348,36,117528,1,0
388,36,117647,1,0
472,88,117885,1,0
388,140,118124,1,2
416,236,118362,6,0,B|320:280|208:252,1,200
124,284,119076,2,0,B|84:240,1,50
64,216,119314,1,0
64,116,119552,2,0,B|108:80,1,50
136,60,119790,1,0
244,76,120028,1,2
280,92,120147,1,0
316,76,120266,1,0
352,92,120385,1,0
392,64,120505,1,0
392,64,120624,2,0,B|432:132|432:132|400:200|400:200,1,150
401,196,121219,1,0
288,32,121695,6,0,B|288:92,1,50
288,120,121933,2,0,B|288:176,1,50,2|0
288,208,122171,1,0
264,240,122290,1,0
232,264,122409,2,0,B|168:260,1,50,4|0
148,240,122647,1,0
124,208,122766,1,0
124,168,122885,1,2
32,132,123124,1,0
32,92,123243,1,0
32,52,123362,1,0
132,40,123600,6,0,B|156:84|100:80|124:140,1,100,0|2
256,188,124076,1,0
112,352,124314,2,0,B|88:308|144:312|120:252,1,100,0|2
348,152,125028,6,0,B|304:72|196:72|140:136|140:232|216:268,1,350,2|0
248,288,125981,1,0
284,304,126100,1,0
324,312,126219,1,2
364,304,126338,1,0
396,276,126457,1,0
412,240,126576,1,0
408,200,126695,1,2
384,168,126814,2,0,B|416:124,1,50
364,128,127052,2,0,B|324:68,2,50
384,84,127409,2,0,B|404:32,2,50
300,136,127885,2,0,B|240:136,2,50
356,192,128362,5,0
356,192,128600,1,0
256,192,128838,1,0
256,192,128957,1,0
256,192,129076,1,0
156,196,129314,1,0
156,196,129552,1,0
276,264,129790,1,0
236,264,129909,1,0
256,296,130020,5,4
356,284,130258,1,0
432,220,130496,1,0
356,284,130734,1,0
256,300,130972,1,0
212,276,131091,1,0
168,252,131210,1,0
76,212,131448,1,0
120,124,131686,2,0,B|192:55,1,100,2|0
292,68,132162,1,0
192,56,132400,1,2
232,148,132639,6,0,B|280:168|240:192|296:224,1,100
348,304,133115,1,0
464,224,133353,1,2
400,256,133591,2,0,B|352:234|384:204|334:185,1,100,0|4
304,84,134067,1,0
204,84,134305,1,0
108,64,134543,5,0
108,104,134662,1,0
108,144,134781,1,0
108,296,135020,1,0
108,256,135139,1,0
108,216,135258,1,2
8,212,135496,2,0,B|112:216,1,100
208,216,135972,1,0
140,144,136210,1,0
196,64,136448,1,0
196,64,136567,1,0
196,64,136686,1,0
288,104,136924,6,0,B|336:104,1,50
360,136,137162,2,0,B|380:192,1,50
376,224,137400,2,0,B|356:288,1,50,2|0
332,300,137639,1,0
332,300,137877,1,0
256,236,138115,2,0,B|256:176,1,50
256,148,138353,2,0,B|256:100,1,50
112,144,138829,6,0,B|112:192,1,50
112,232,139067,1,2
144,328,139305,2,0,B|196:300|196:340|248:328,1,100
340,328,139781,1,0
440,328,140020,1,2
440,328,140139,1,0
428,228,140377,2,0,B|392:120|252:176|240:76,1,250,0|2
44,104,141448,6,0,B|44:152|92:188,1,100
172,136,141924,2,0,B|216:160|220:220,1,100,2|0
220,260,142281,1,0
220,300,142400,1,0
348,308,142639,2,0,B|392:280|412:228,1,100,0|2
348,84,143115,5,2
48,192,143591,1,0
352,288,144067,1,0
128,60,144543,5,0
256,288,145258,6,0,B|256:232,4,50
336,96,146210,1,0
296,96,146329,1,0
256,96,146448,1,0
216,96,146567,1,0
176,96,146686,1,0
148,192,146924,6,0,B|92:164|96:108,1,100,2|0
64,260,147520,1,0
164,304,147857,1,0
364,192,148142,2,0,B|420:164|416:108,1,100,2|0
316,52,148837,1,0
172,204,149298,5,0
172,204,149413,1,0
172,204,149529,2,0,B|184:280|256:324|320:280|332:204,1,250
