osu file format v9

[General]
AudioFilename: 25.mp3
AudioLeadIn: 0
PreviewTime: 53948
Countdown: 0
SampleSet: Soft
StackLeniency: 0.7
Mode: 0
LetterboxInBreaks: 0

[Editor]
Bookmarks: 84305,99543
DistanceSpacing: 1.1
BeatDivisor: 2
GridSize: 4

[Metadata]
Title:Plateau
Artist:SoundTeMP
Creator:Ruish
Version:Easy
Source:Ragnarok Online
Tags:geffen fields mmorpg RO gravity Lee Seock-Jin OnosakiHito

[Difficulty]
HPDrainRate:1
CircleSize:3
OverallDifficulty:2
ApproachRate:2
SliderMultiplier:1
SliderTickRate:1

[Events]
//Background and Video events
0,0,"ro-city-geffen.jpg"
//Break Periods
2,84505,97983
//Storyboard Layer 0 (Background)
//Storyboard Layer 1 (Fail)
//Storyboard Layer 2 (Pass)
//Storyboard Layer 3 (Foreground)
//Storyboard Sound Samples
//Background Colour Transformations
3,100,163,162,255

[TimingPoints]
496,476.758045292014,4,2,0,35,1,0
13845,474.683544303797,4,2,0,35,1,0
17405,-100,4,2,0,39,0,0
21677,-100,4,2,0,44,0,0
21914,500,4,2,0,44,1,0
22881,483.870967741935,4,2,0,44,1,0
23829,476.190476190476,4,2,0,44,1,0
53828,-100,4,2,0,50,0,0
75971,-100,4,2,0,39,0,0
82400,-100,4,2,0,15,0,0
84186,-100,4,2,0,10,0,0
99543,-100,4,2,0,39,0,0
100505,476.190476190476,4,2,0,39,1,0
108838,-100,4,2,0,35,0,0
112647,-100,4,2,0,40,0,0
114314,-100,4,2,0,53,0,0
128362,-100,4,2,0,39,0,0
130020,476.190476190476,4,2,0,44,1,0
136924,-100,4,2,0,52,0,0
147857,571.428571428571,4,2,0,35,1,0
148142,705.882352941176,4,2,0,35,1,0
148837,923.076923076923,4,2,0,5,1,0

[Colours]
Combo1 : 217,158,218
Combo2 : 130,205,84
Combo3 : 151,205,223
Combo4 : 252,186,247

[HitObjects]
104,48,14794,2,0,B|60:80|60:148,1,100,0|2
164,100,15743,1,0
256,36,16218,1,0
256,148,16693,1,0
260,284,17405,5,0
404,204,18117,6,0,B|316:164|200:164|112:204,1,300,2|0
108,312,20015,2,0,B|200:352|312:352|400:312,1,300,0|0
452,220,21914,2,0,B|452:168|412:132,1,99.9999999999999,0|2
312,168,22881,1,0
376,260,23364,1,0
156,108,24543,1,0
156,108,24781,1,0
156,108,25019,2,0,B|212:56|296:72,1,150,2|0
396,116,26209,6,0,B|436:192|392:260,1,150,2|0
340,276,27162,2,0,B|284:276,2,50,2|0|0
260,204,28114,2,0,B|196:204,4,50,2|0|0|0|2
156,60,30495,6,0,B|156:160,3,99.9999999999999,0|2|0|2
256,208,32400,1,0
256,208,32638,1,0
472,64,33829,6,0,B|472:168,1,99.9999999999999,2|0
472,220,34543,2,0,B|472:276,3,50,0|2|0|0
364,268,35733,2,0,B|364:212,4,50,2|0|0|0|2
100,300,37638,6,2,B|44:244|44:180|100:124,1,200,2|2
132,168,38828,2,0,B|188:224|252:224|308:168,1,200
440,108,40495,6,0,B|408:156|456:156|428:208,1,99.9999999999999,2|0
336,260,41448,2,0,B|316:216|364:216|340:164,1,99.9999999999999,2|0
244,116,42400,2,0,B|166:99|110:177|152:242,1,200,2|2
256,288,43828,5,0
368,288,44305,1,0
368,180,44781,1,0
260,180,45257,1,0
188,96,45733,6,0,B|104:152,1,99.9999999999999,0|2
104,208,46448,1,0
104,264,46686,2,0,B|128:340|224:340|256:264,1,200,0|0
340,336,48114,6,0,B|384:188|260:188|340:48,1,300,2|0
228,80,50019,6,0,B|144:140,1,99.9999999999999,2|0
56,200,50971,1,2
92,240,51209,2,0,B|172:304,2,99.9999999999999,0|0|0
180,176,52638,2,0,B|336:176,1,150
256,96,53828,5,0
256,372,55019,2,0,B|256:304,2,50,0|0|0
256,264,55971,2,0,B|256:212,2,50
200,168,56924,6,0,B|144:216|124:168|68:232,1,150,0|2
80,284,57876,1,0
120,320,58114,2,0,B|224:320,1,99.9999999999999,0|2
332,320,59067,2,0,B|440:320,1,99.9999999999999,0|2
424,212,60019,5,0
364,120,60495,1,0
304,212,60971,1,2
260,112,61448,6,0,B|192:104|124:168|140:236,1,200,4|2
188,264,62638,2,0,B|244:264,2,50
292,228,63590,2,0,B|356:228,2,50,0|2|0
176,64,65019,5,0
340,64,65733,1,0
312,172,66209,1,2
200,172,66686,2,0,B|196:272,1,99.9999999999999,0|2
256,188,69067,5,0
136,76,69781,2,0,B|228:36|288:36|380:76,1,250,0|2
364,184,71448,5,0
256,180,71924,1,0
148,180,72400,1,0
256,180,72876,5,0
136,292,73590,2,0,B|228:332|288:332|380:292,1,250,0|2
380,184,75257,2,0,B|380:84,2,99.9999999999999,0|2|0
284,132,76686,6,0,B|184:132,1,99.9999999999999,2|0
128,132,77400,1,0
28,176,77876,1,0
144,292,78590,2,0,B|200:292,2,50,2|0|0
204,200,79543,5,2
284,276,80019,1,0
364,352,80495,5,2
404,316,80733,2,0,B|404:216,2,99.9999999999999
320,244,82162,1,0
256,156,82638,6,0,B|256:52,1,99.9999999999999
148,64,83590,1,0
148,64,83828,1,0
148,176,84305,5,0
200,172,99543,6,0,B|200:72,1,99.9999999999999,2|0
256,76,100257,1,0
312,76,100505,2,0,B|312:176,1,99.9999999999999,2|0
256,176,101219,1,0
256,232,101457,6,0,B|256:292,2,50,0|0|2
204,328,102409,2,0,B|304:328,1,99.9999999999999,0|2
392,264,103362,2,0,B|396:160,1,99.9999999999999,0|2
396,108,104076,1,0
396,52,104314,2,0,B|284:52,1,100
240,52,105028,1,0
80,96,105743,5,2
140,188,106219,2,0,B|124:248|172:292|232:276,1,150
264,240,107171,2,0,B|280:180|232:136|172:152,1,150
179,150,108124,1,0
56,228,108838,6,0,B|36:176|72:136,1,99.9999999999999
164,76,109790,2,0,B|215:53|258:88,1,99.9999999999999
136,204,110981,6,0,B|104:252|124:300,1,99.9999999999999
400,300,112647,2,0,B|419:253|387:205,1,99.9999999999999
196,96,114076,5,0
196,96,114314,1,2
196,96,114552,2,0,B|168:148|200:204|260:204,1,150,0|2
388,300,115981,2,0,B|388:244,3,50,0|2|0|0
48,192,118362,6,0,B|104:232|104:164|176:220|176:220|196:164|196:164|220:216|220:216|248:172|248:172|272:200|272:200|292:176|292:176|312:200|312:200|332:176|332:176|348:200|348:200|404:160|404:240|472:192,1,599.999999999999
420,288,121695,5,0
256,288,122409,1,0
96,64,123600,5,0
260,64,124314,1,0
136,176,125028,6,0,B|176:276|340:276|384:172,1,300
256,72,127171,2,0,B|256:176,2,99.9999999999999,0|2|0
148,96,128600,5,2
124,204,129076,1,0
200,284,129552,1,2
256,192,130020,1,0
416,236,130734,5,0
384,192,130972,2,0,B|320:140|392:112|316:60,1,150,2|0
160,100,132400,1,2
160,100,132639,1,0
160,100,132877,2,0,B|96:152|168:180|92:232,1,150
104,284,133829,5,0
268,276,134543,1,0
316,248,134781,2,0,B|337:168|392:222|408:132,1,150
148,120,136924,6,0,B|148:168,2,50,0|2|0
148,64,137639,2,0,B|260:64,1,99.9999999999999,0|2
396,136,138829,5,0
392,244,139305,2,0,B|284:244,1,99.9999999999999
236,244,140020,2,0,B|164:244,2,50,2|0|0
72,88,141448,6,0,B|16:132|16:216|80:264,1,200
128,276,142639,1,0
233,309,143115,1,0
297,218,143591,1,0
231,129,144067,1,0
125,164,144543,1,0
256,192,145258,12,0,150683
