osu file format v9

[General]
AudioFilename: M.I.S.A.mp3
AudioLeadIn: 0
PreviewTime: 68726
Countdown: 0
SampleSet: Soft
StackLeniency: 0.7
Mode: 0
LetterboxInBreaks: 1

[Editor]
DistanceSpacing: 0.2
BeatDivisor: 4
GridSize: 4

[Metadata]
Title:M.I.S.A
Artist:SoundTeMP
Creator:silklash
Version:Insane
Source:Granado Espada
Tags:ESTi Sword of the New World

[Difficulty]
HPDrainRate:7
CircleSize:4
OverallDifficulty:7
ApproachRate:8
SliderMultiplier:1.3
SliderTickRate:2

[Events]
//Background and Video events
0,0,"granado-espada-wallpaper-016.jpg"
//Break Periods
2,65507,67985
2,100650,102271
//Storyboard Layer 0 (Background)
//Storyboard Layer 1 (Fail)
//Storyboard Layer 2 (Pass)
//Storyboard Layer 3 (Foreground)
//Storyboard Sound Samples
//Background Colour Transformations
3,100,163,162,255

[TimingPoints]
3593,428.571428571429,4,2,1,60,1,0
68735,-80,4,2,1,70,0,0
97235,-80,4,2,1,60,0,0
99164,-80,4,2,1,65,0,0
99593,-80,4,2,1,70,0,0
123593,-66.6666666666667,4,2,1,70,0,0
147593,-66.6666666666667,4,2,1,60,0,0
148022,-66.6666666666667,4,2,1,65,0,0
148450,-66.6666666666667,4,2,1,70,0,0
148879,-66.6666666666667,4,2,1,75,0,0
149308,-66.6666666666667,4,2,1,80,0,0
149736,-66.6666666666667,4,2,1,85,0,0
150165,-66.6666666666667,4,2,1,90,0,0
151021,-66.6666666666667,4,2,1,90,0,1
185307,-66.6666666666667,4,2,1,90,0,0
185414,-66.6666666666667,4,2,1,50,0,0

[Colours]
Combo1 : 128,0,128
Combo2 : 0,128,128
Combo3 : 0,128,255
Combo4 : 0,64,128

[HitObjects]
84,56,30593,1,0
56,168,31021,2,0,B|31:250|121:258|121:258|129:357|220:325,1,260
456,168,32735,2,0,B|481:250|391:258|391:258|383:357|292:325,1,260
366,103,34450,2,0,B|322:176|256:115|256:115|177:175|149:89,2,260,0|2|0
472,192,37021,5,0
472,192,37450,1,0
472,192,37878,2,0,B|497:274|407:282|407:282|399:381|308:349,1,260
40,192,39593,2,0,B|15:274|105:282|105:282|113:381|204:349,1,260
368,96,41307,2,0,B|323:22|257:84|257:84|178:23|150:110,2,260
256,204,43878,1,0
412,68,44735,6,0,B|440:220|344:196|340:316,1,260
256,156,46021,1,0
100,68,46450,2,0,B|72:220|168:196|172:316,1,260,0|0
256,156,47735,1,0
148,288,48164,2,0,B|180:344|256:376|336:344|364:288,2,260
256,48,51164,5,0
96,64,51592,2,0,B|32:176|32:176|96:304,1,260
416,64,53307,2,0,B|480:176|480:176|416:304,1,260
256,240,54592,1,0
256,240,55021,6,0,B|224:176|160:224|144:144,2,130
256,240,56735,2,0,B|288:176|352:224|368:144,2,130
136,44,58450,2,0,B|104:108|40:60|24:140,2,130
376,44,60164,2,0,B|408:108|472:60|488:140,2,130
256,192,61878,12,0,65307
160,168,68735,5,0
200,72,68950,1,0
200,72,69057,1,2
304,52,69271,1,2
304,52,69378,1,0
400,100,69592,1,0
456,192,69807,1,0
456,192,69914,2,2,B|456:232|456:232|420:256,1,81.2499987892807
400,268,70235,1,0
304,224,70450,6,2,B|268:238|268:238|268:280,1,81.2499987892807,0|0
268,304,70771,1,2
164,328,70985,1,2
164,328,71092,1,0
100,244,71307,6,2,B|72:168|152:112,1,121.874998183921,0|2
272,68,71950,1,2
376,92,72164,2,2,B|436:124|436:200,1,121.874998183921,0|2
360,328,72807,1,2
360,328,73021,5,0
360,328,73235,2,0,B|304:328,1,40.6249993946403,0|2
160,308,73664,1,0
160,308,73878,1,0
160,308,74092,2,0,B|108:264,1,40.6249993946403,0|2
248,176,74521,1,0
228,72,74735,1,0
124,88,74950,1,0
124,88,75057,1,0
124,88,75164,2,0,B|84:104|84:104|84:144,1,81.2499987892807,2|0
84,248,75592,5,0
160,324,75807,1,0
160,324,75914,1,2
264,312,76128,1,2
264,312,76235,1,0
324,232,76450,1,0
368,136,76664,1,0
368,136,76771,2,2,B|385:90|355:61,1,81.2499987892807
336,44,77092,1,0
260,120,77307,6,2,B|252:71|208:65,1,81.2499987892807,0|0
184,60,77628,1,2
92,108,77842,1,2
92,108,77950,1,0
72,212,78164,5,0
144,352,78485,1,2
300,328,78807,1,2
372,252,79021,5,0
332,100,79342,1,2
176,80,79664,1,2
72,80,79878,1,0
72,184,80092,2,0,B|72:236,1,40.6249993946403,0|2
300,316,80521,5,0
404,316,80735,1,0
404,212,80950,2,0,B|404:172,1,40.6249993946403,0|2
308,44,81378,1,0
204,36,81592,1,0
140,120,81807,1,0
140,120,81914,1,0
140,120,82021,2,0,B|100:136|100:136|100:176,1,81.2499987892807,2|0
100,280,82450,6,0,B|92:320|116:368|172:364,1,121.874998183921
188,316,82878,2,2,B|308:316,1,121.874998183921
336,364,83307,2,0,B|381:367|405:319|392:272,1,121.874998183921
384,224,83735,1,2
288,176,83950,1,2
196,124,84164,6,0,B|188:84|212:36|268:40,1,121.874998183921
284,88,84592,2,2,B|404:88,1,121.874998183921
432,40,85021,2,0,B|477:37|501:85|488:132,1,121.874998183921
480,180,85450,1,2
480,180,85664,1,2
412,260,85878,5,0
356,172,86092,1,0
308,264,86307,1,2
256,172,86521,1,2
236,68,86735,1,0
252,56,86842,1,0
268,44,86950,1,2
380,44,87164,1,0
396,56,87271,1,0
412,68,87378,1,2
352,156,87592,5,2
252,124,87807,1,0
272,228,88021,1,0
172,192,88235,1,2
84,252,88450,1,0
96,268,88557,1,0
108,284,88664,1,2
200,336,88878,1,0
220,336,88985,1,0
240,336,89092,1,2
340,268,89307,6,0,B|404:211|404:211|391:131,2,162.499997578561,2|0|2
221,94,90592,1,0
61,228,91021,2,0,B|22:151|22:151|64:82,2,162.499997578561,2|0|2
221,94,92307,1,0
344,260,92735,5,0
239,287,92950,1,0
216,185,93164,1,2
316,159,93378,1,2
316,287,93592,5,0
212,258,93807,1,0
243,158,94021,1,2
342,186,94235,1,2
261,301,94450,5,0
185,223,94664,1,2
262,152,94878,1,0
335,226,95092,1,2
200,316,95307,5,0
180,300,95414,1,0
160,284,95521,1,2
144,268,95628,1,2
128,252,95735,1,0
140,232,95842,1,0
152,212,95950,1,2
164,192,96057,1,2
176,172,96164,5,4
388,56,96592,1,4
396,296,97021,1,4
320,200,97235,1,0
284,316,97450,1,2
208,220,97664,1,2
152,328,97878,5,0
132,316,97985,1,0
112,300,98092,1,2
104,136,98307,1,0
120,116,98414,1,0
136,96,98521,1,2
260,200,98735,1,0
264,224,98842,1,0
270,249,98950,1,2
275,274,99057,1,2
280,300,99164,1,0
256,310,99271,1,0
235,317,99378,1,2
214,323,99485,1,2
192,328,99592,5,4
108,100,100021,5,4
320,42,100235,1,4
399,247,100450,1,4
41,344,103021,5,0
41,39,103878,1,0
470,39,104735,1,0
468,344,105592,1,0
468,344,106021,1,0
468,344,106450,1,4
148,296,106878,5,4
151,76,107092,1,4
370,58,107307,1,4
88,104,108807,5,0
108,116,108914,1,0
128,128,109021,1,2
152,140,109128,1,2
176,152,109235,1,2
276,220,109450,1,0
172,284,109664,1,0
88,196,109878,5,0
156,96,110092,1,0
172,80,110200,2,2,B|216:36|296:52,1,121.874998183921
388,116,110735,1,0
380,236,110950,1,0
364,252,111057,2,2,B|320:296|240:280,1,121.874998183921
132,248,111592,5,0
112,232,111700,1,0
92,216,111807,1,2
72,200,111914,2,2,B|72:144|72:144|128:96,1,121.874998183921
228,156,112450,1,0
336,208,112664,1,2
436,136,112878,2,2,B|472:88|412:48,1,81.2499987892807
308,56,113307,5,0
188,52,113521,1,0
164,56,113628,2,2,B|102:66|69:141,1,121.874998183921
64,252,114164,1,0
164,320,114378,1,0
188,320,114485,2,2,B|249:309|276:232,1,121.874998183921
360,156,115021,5,0
444,240,115235,1,0
360,325,115450,1,2
275,240,115664,1,2
360,156,115878,1,0
272,72,116092,1,0
248,68,116200,2,2,B|170:55|129:126,1,121.874998183921
88,220,116735,5,0
144,328,116950,1,0
144,328,117057,1,2
268,324,117271,1,0
268,324,117378,1,2
380,272,117592,1,0
380,248,117700,1,0
380,224,117807,1,2
380,200,117914,1,2
324,92,118128,1,2
324,92,118235,1,0
204,100,118450,5,0
184,116,118557,1,0
164,132,118664,1,2
160,252,118878,1,0
180,268,118985,1,0
200,284,119092,1,2
320,284,119307,1,0
340,268,119414,1,0
360,252,119521,1,2
372,132,119735,1,0
352,116,119842,1,0
332,100,119950,1,2
252,192,120164,5,0
154,262,120378,1,0
84,165,120592,1,2
184,92,120807,1,2
252,192,121021,1,0
350,262,121235,1,0
420,165,121450,1,2
320,92,121664,1,2
208,40,121878,5,0
184,48,121985,1,0
164,64,122092,1,2
152,84,122200,1,2
144,108,122307,1,0
152,132,122414,1,0
164,152,122521,1,2
184,168,122628,1,2
200,188,122735,5,0
176,196,122842,1,0
156,212,122950,1,2
144,232,123057,1,2
136,256,123164,1,0
144,280,123271,1,0
156,300,123378,1,2
176,316,123485,1,2
196,324,123592,5,0
332,272,123807,1,0
332,272,123914,1,2
404,144,124128,1,0
404,144,124235,1,0
404,144,124342,1,0
404,144,124450,2,2,B|341:127|330:200|254:169,1,146.24999564141
132,228,124985,1,0
132,228,125092,1,2
244,324,125307,5,2
380,268,125521,1,0
404,248,125628,1,2
420,104,125842,1,0
396,84,125950,1,2
252,56,126164,1,2
132,136,126378,1,2
216,256,126592,1,2
340,176,126807,1,2
432,64,127021,5,0
432,64,127128,1,0
432,64,127235,1,2
448,208,127450,1,0
344,312,127664,1,0
316,316,127771,1,0
288,320,127878,1,2
144,308,128092,1,2
120,288,128200,1,0
112,140,128414,1,0
124,112,128521,1,2
264,64,128735,6,2,B|308:88|308:88|308:140,1,97.4999970942737
264,136,129057,2,0,B|196:140|192:232,1,97.4999970942737
196,224,129378,1,0
196,252,129485,1,0
196,280,129592,2,2,B|220:344|304:320,1,97.4999970942737
304,324,129914,1,0
404,216,130128,1,0
404,188,130235,1,2
404,160,130342,1,2
404,132,130450,5,0
404,132,130771,1,0
404,132,131092,1,2
216,76,131307,1,0
216,76,131628,1,0
216,76,131950,1,2
152,260,132164,1,0
152,260,132485,1,0
152,260,132807,1,2
336,324,133021,1,0
336,324,133342,1,0
336,324,133664,1,2
348,128,133878,5,0
244,48,134092,1,0
212,48,134200,1,2
88,128,134414,1,0
76,156,134521,1,0
76,184,134628,1,2
88,208,134735,1,2
200,304,134950,1,0
228,312,135057,1,2
364,264,135271,1,0
388,244,135378,1,0
404,220,135485,1,2
412,192,135592,6,0,B|389:130|323:163|305:83,1,146.24999564141
168,56,136128,1,0
168,56,136235,1,2
108,188,136450,1,0
276,332,136771,1,0
348,124,137092,1,2
204,64,137307,5,0
160,204,137521,1,0
168,232,137628,2,2,B|192:308|276:312,1,97.4999970942737
260,312,137950,1,0
284,168,138164,1,0
356,40,138378,1,0
384,48,138485,2,2,B|440:52|446:118,1,97.4999970942737
444,144,138807,1,0
380,276,139021,5,0
360,256,139128,1,0
340,232,139235,1,0
320,212,139342,2,2,B|228:108,1,97.4999970942737
236,116,139664,2,0,B|208:72|136:100,1,97.4999970942737
120,108,139985,1,0
96,128,140092,1,0
80,152,140200,2,2,B|36:212|120:272,1,97.4999970942737
104,268,140521,1,0
224,352,140735,5,0
368,332,140950,1,0
388,312,141057,2,2,B|428:280|428:280|428:224,1,97.4999970942737
428,204,141378,1,0
368,72,141592,5,0
224,68,141807,1,0
200,84,141914,2,2,B|160:112|160:112|160:172,1,97.4999970942737
160,188,142235,1,0
280,272,142450,5,0
408,200,142664,1,0
332,76,142878,1,2
204,144,143092,1,0
80,224,143307,1,2
80,252,143414,1,2
92,280,143521,1,2
224,340,143735,1,0
252,344,143842,1,0
280,340,143950,1,2
308,328,144057,1,2
332,312,144164,6,0,B|380:284|364:228,1,97.4999970942737
296,248,144485,2,2,B|277:193|322:162,1,97.4999970942737
348,148,144807,1,0
208,80,145021,2,0,B|152:48|72:88,1,97.4999970942737
52,36,145342,2,2,B|20:96|72:156,1,97.4999970942737
64,156,145664,1,0
208,80,145878,6,0,B|238:133|215:172,1,97.4999970942737
247,235,146200,2,2,B|200:264|155:233,1,97.4999970942737
128,220,146521,1,0
208,80,146735,2,0,B|261:49|300:72,1,97.4999970942737
363,41,147057,2,2,B|400:84|361:132,1,97.4999970942737
348,156,147378,1,0
224,228,147593,6,0,B|188:205|188:159|224:132,1,97.4999970942737
368,204,148021,2,2,B|403:229|403:275|366:298,1,97.4999970942737
252,180,148450,2,0,B|275:142|319:143|347:179,1,97.4999970942737
280,324,148878,2,2,B|254:358|209:358|186:321,1,97.4999970942737
276,188,149307,6,0,B|313:211|312:255|276:283,1,97.4999970942737
132,212,149735,2,2,B|97:186|97:141|134:118,1,97.4999970942737
240,40,150164,1,0
360,124,150378,1,0
304,260,150593,1,2
304,260,150700,1,0
304,260,150807,1,2
156,260,151021,5,4
128,248,151128,1,0
108,228,151235,1,2
96,200,151343,1,2
96,172,151450,1,0
104,144,151557,1,0
124,124,151664,1,2
152,112,151771,1,2
184,112,151878,2,0,B|256:100|256:196,1,97.4999970942737
252,192,152200,2,2,B|236:264|332:264,1,97.4999970942737
328,260,152521,2,0,B|384:260,1,48.7499985471368
404,260,152735,6,0,B|467:262|451:190,1,97.4999970942737
452,168,153057,2,2,B|454:104|384:116,1,97.4999970942737
360,116,153378,1,0
332,116,153485,1,0
304,116,153593,1,2
156,116,153807,1,2
152,260,154021,1,2
151,290,154128,1,0
151,320,154235,1,0
296,320,154450,5,0
444,320,154664,1,0
444,172,154878,1,2
296,172,155093,1,2
296,320,155307,1,0
444,320,155521,1,0
444,172,155735,1,2
296,172,155950,5,2
276,148,156057,1,0
256,124,156164,1,2
112,108,156378,1,2
88,124,156485,1,0
88,268,156700,1,0
112,284,156807,1,2
260,272,157021,1,0
396,220,157235,1,0
416,196,157343,1,2
396,52,157557,1,2
368,40,157664,1,0
224,64,157878,6,0,B|160:52|136:112,1,97.4999970942737
132,128,158200,1,2
256,208,158414,1,0
256,208,158521,1,0
288,352,158735,2,2,B|352:364|376:304,1,97.4999970942737
384,288,159057,1,2
256,208,159271,1,0
256,208,159378,1,0
400,176,159593,6,0,B|412:111|352:88,1,97.4999970942737
336,80,159914,1,2
256,208,160128,1,0
256,208,160235,1,0
140,296,160450,1,2
116,280,160557,1,0
92,260,160664,1,2
68,240,160771,2,2,B|72:104,1,97.4999970942737
72,112,161093,5,2
196,32,161307,1,2
340,52,161521,1,0
364,68,161628,1,2
436,200,161843,1,0
448,228,161950,1,0
448,256,162057,1,2
432,280,162164,1,2
288,308,162378,1,0
264,292,162485,2,2,B|200:256|232:184,1,97.4999970942737
224,184,162807,1,0
124,80,163021,6,0,B|140:140|80:172,1,97.4999970942737
60,172,163343,1,2
56,320,163557,1,0
84,328,163664,2,0,B|156:352|212:304,1,97.4999970942737,0|2
204,308,163985,1,2
224,288,164093,1,2
200,144,164307,1,0
324,220,164521,1,2
348,80,164735,6,0,B|392:32,2,48.7499985471368
328,100,165057,2,2,B|300:136|252:144|200:128|184:88,1,146.24999564141
176,88,165485,1,0
156,68,165593,1,0
128,56,165700,1,0
100,68,165807,1,0
80,92,165914,2,2,B|51:127|54:175|81:223|124:229,1,146.24999564141
349,80,166450,6,0,B|397:35,2,48.7499985471368
329,100,166771,2,2,B|293:127|285:176|300:228|341:244,1,146.24999564141
340,252,167200,1,0
360,272,167307,1,0
373,299,167414,1,0
361,328,167521,1,0
336,348,167628,2,2,B|300:376|252:373|204:346|198:303,1,146.24999564141
284,148,168164,6,2,B|316:96,2,48.7499985471368
192,320,168593,2,0,B|200:376,2,48.7499985471368
152,128,169021,2,2,B|132:72,2,48.7499985471368
60,300,169450,2,0,B|28:348,2,48.7499985471368
80,136,169878,5,2
232,68,170093,1,2
388,124,170307,1,2
456,276,170521,1,2
456,276,170735,5,2
308,348,170950,1,2
144,288,171164,1,2
80,136,171378,1,2
224,56,171593,6,0,B|288:24|340:72,1,97.4999970942737
372,120,171914,2,2,B|328:148|276:119,1,97.4999970942737
252,132,172235,1,0
228,148,172343,1,0
204,164,172450,2,0,B|155:136|111:164,1,97.4999970942737
60,232,172771,2,2,B|112:264|150:232,1,97.4999970942737
180,232,173093,1,0
304,344,173307,6,0,B|240:376|188:328,1,97.4999970942737
156,280,173628,2,2,B|200:252|251:280,1,97.4999970942737
276,268,173950,1,0
300,252,174057,1,0
324,236,174164,2,0,B|372:263|416:235,1,97.4999970942737
468,168,174485,2,2,B|416:136|377:167,1,97.4999970942737
348,168,174807,1,0
188,128,175021,6,0,B|68:92,1,97.4999970942737
120,164,175343,2,2,B|4:212,1,97.4999970942737
96,252,175664,2,0,B|52:288,1,48.7499985471368
132,316,175878,2,2,B|112:360,2,48.7499985471368
292,264,176307,1,0
244,108,176521,1,0
80,84,176735,6,2,B|20:192,1,97.4999970942737
168,208,177164,2,2,B|148:320,1,97.4999970942737
344,208,177593,2,2,B|361:303,1,97.4999970942737
428,88,178021,2,2,B|475:173,1,97.4999970942737
404,324,178450,5,0
442,181,178664,1,0
299,142,178878,1,2
261,285,179093,1,2
100,240,179307,1,0
61,97,179521,1,0
204,58,179735,1,2
242,201,179950,1,2
328,60,180164,5,0
356,64,180271,1,0
384,76,180378,1,2
400,100,180485,1,2
404,128,180593,1,0
388,152,180700,1,0
364,168,180807,1,2
332,176,180914,1,2
304,184,181021,2,0,B|248:224,1,48.7499985471368,2|2
288,228,181235,2,0,B|264:280,1,48.7499985471368,0|0
296,276,181450,2,2,B|296:336,1,48.7499985471368,2|2
324,324,181664,2,2,B|364:364,1,48.7499985471368,0|0
424,312,181878,6,0,B|440:240,3,48.7499985471368,0|0|2|2
340,256,182307,2,0,B|264:204,3,48.7499985471368,0|0|2|2
356,168,182735,2,0,B|352:92,3,48.7499985471368,0|0|2|0
272,132,183164,2,0,B|224:88,3,48.7499985471368,0|0|2|0
184,164,183593,5,0
184,172,183700,1,0
184,180,183807,1,0
184,188,183914,1,0
184,196,184021,1,0
184,204,184128,1,0
184,212,184235,1,0
184,220,184343,1,0
184,228,184450,1,0
184,236,184557,1,0
184,244,184664,1,0
184,252,184771,1,0
184,260,184878,1,0
184,268,184985,1,0
184,276,185093,1,0
184,284,185200,1,0
184,292,185307,1,2
256,192,185414,12,0,188735
