osu file format v9

[General]
AudioFilename: M.I.S.A.mp3
AudioLeadIn: 0
PreviewTime: 68726
Countdown: 0
SampleSet: Soft
StackLeniency: 0.7
Mode: 0
LetterboxInBreaks: 1

[Editor]
DistanceSpacing: 1
BeatDivisor: 4
GridSize: 4

[Metadata]
Title:M.I.S.A
Artist:SoundTeMP
Creator:silklash
Version:Hard
Source:Granado Espada
Tags:ESTi Sword of the New World

[Difficulty]
HPDrainRate:6
CircleSize:4
OverallDifficulty:5
ApproachRate:7
SliderMultiplier:1.3
SliderTickRate:2

[Events]
//Background and Video events
0,0,"granado-espada-wallpaper-016.jpg"
//Break Periods
2,65507,67835
2,100650,102121
2,107507,108978
//Storyboard Layer 0 (Background)
//Storyboard Layer 1 (Fail)
//Storyboard Layer 2 (Pass)
//Storyboard Layer 3 (Foreground)
//Storyboard Sound Samples
//Background Colour Transformations
3,100,163,162,255

[TimingPoints]
3593,428.571428571429,4,2,1,60,1,0
68735,-80,4,2,1,70,0,0
68736,-80,4,2,1,70,0,0
151021,-66.6666666666667,4,2,1,90,0,1
185307,-66.6666666666667,4,2,1,90,0,0
185414,-66.6666666666667,4,2,1,50,0,0

[Colours]
Combo1 : 128,0,128
Combo2 : 0,128,128
Combo3 : 0,128,255
Combo4 : 0,64,128

[HitObjects]
256,192,30593,1,0
376,148,31021,2,0,B|348:116|348:76|372:44|412:32|452:44|476:76|476:116|448:148,1,260
136,236,32735,2,0,B|164:268|164:308|140:340|100:352|60:340|36:308|36:268|64:236,1,260
80,40,34450,2,0,B|76:120|140:128|192:76|240:88|232:144|200:192|176:260|252:244|288:200|320:192|360:200|376:236|380:272|352:320|440:352,1,520
380,232,37021,5,0
256,192,37450,1,0
136,148,37878,2,0,B|164:116|164:76|140:44|100:32|60:44|36:76|36:116|64:148,1,260
376,236,39593,2,0,B|348:268|348:308|372:340|412:352|452:340|476:308|476:268|448:236,1,260
432,40,41307,2,0,B|436:120|372:128|320:76|272:88|280:144|312:192|336:260|260:244|224:200|192:192|152:200|136:236|132:272|168:324|72:352,1,520
64,136,44735,6,0,B|80:80|128:80|148:128|148:168|164:204|196:224|248:220|252:208|264:180|264:168,1,260
256,192,46021,1,0
448,136,46450,2,0,B|432:80|384:80|364:128|364:168|348:204|316:224|264:220|260:208|248:180|248:168,1,260
256,320,47735,1,0
164,228,48164,2,0,B|184:148|256:128|328:148|348:228,2,260
256,68,51164,5,0
256,316,51592,1,0
256,192,53307,5,0
64,191,55021,6,0,B|72:128|160:88|248:128|256:192,1,260
447,192,56735,2,0,B|440:256|352:296|264:256|256:192,1,260
40,44,58450,6,0,B|120:48|68:120|148:120,2,130
472,44,60164,2,0,B|392:48|444:120|364:120,2,130
256,192,61878,12,0,65307
256,56,68735,5,0
92,56,69164,1,0
184,188,69592,1,0
184,188,69807,2,2,B|212:204|244:224,2,40.6249993946403
60,332,70450,5,0
224,332,70878,1,0
132,200,71307,1,0
132,200,71521,2,2,B|104:184|72:164,2,40.6249993946403
296,160,72164,6,0,B|396:120,1,81.2499987892807
356,172,72485,2,2,B|484:168,1,121.874998183921
468,288,73021,2,0,B|376:348,1,81.2499987892807
392,292,73342,2,2,B|244:316,1,121.874998183921
192,288,73878,5,0
124,244,74092,1,0
192,200,74307,1,2
260,244,74521,1,2
340,244,74735,1,0
340,244,74842,1,0
340,244,74950,1,0
340,244,75057,2,2,B|408:204|432:152,1,121.874998183921
420,84,75592,5,0
256,76,76235,1,0
176,76,76450,1,2
140,316,77092,1,2
220,316,77307,1,0
176,76,77950,1,0
96,76,78164,1,0
96,76,78271,1,0
96,76,78378,1,2
96,76,78485,2,2,B|44:132|56:192,1,121.874998183921
76,264,79021,5,0
168,344,79342,1,2
280,300,79664,1,2
296,220,79878,5,0
204,140,80200,1,2
92,184,80521,1,2
76,264,80735,5,0
168,344,81057,1,2
280,300,81378,1,2
356,276,81592,1,0
372,264,81700,1,0
388,252,81807,1,2
404,240,81914,2,2,B|452:212|444:164|408:132,1,121.874998183921
372,68,82450,5,0
292,48,82664,1,0
252,60,82771,2,2,B|184:80|152:132|148:136,1,121.874998183921
160,208,83307,1,0
240,228,83521,1,0
280,216,83628,2,2,B|348:196|380:144|384:140,1,121.874998183921
412,72,84164,6,0,B|488:108|468:192,1,121.874998183921
464,208,84592,2,2,B|428:284|344:264,1,121.874998183921
328,264,85021,2,0,B|252:228|272:144,1,121.874998183921
268,167,85450,1,2
268,167,85664,1,2
268,167,85878,5,0
148,60,86307,1,0
52,192,86735,1,2
176,296,87164,1,2
336,264,87592,6,0,B|412:228|392:144,1,121.874998183921
388,128,88021,2,2,B|352:52|268:72,1,121.874998183921
252,72,88450,2,0,B|176:108|196:192,1,121.874998183921
192,168,88878,1,2
192,168,89092,1,2
192,168,89307,5,0
116,192,89521,1,0
116,192,89628,1,2
316,228,90164,1,0
392,256,90378,1,0
392,256,90485,1,2
188,252,91021,5,0
112,276,91235,1,0
112,276,91342,1,2
312,312,91878,1,0
388,340,92092,1,0
388,340,92200,1,2
344,140,92735,5,0
188,96,93164,1,0
132,248,93592,1,2
284,308,94021,1,2
396,188,94450,5,0
352,120,94664,1,0
280,156,94878,1,2
232,88,95092,1,2
172,136,95307,1,0
152,56,95521,1,0
84,100,95735,1,2
84,100,95842,1,2
84,100,95950,1,2
84,100,96057,1,2
84,100,96164,5,4
160,244,96592,1,4
268,124,97021,1,4
144,248,97878,6,0,B|152:296|176:328|208:352|256:368|304:352|336:328|360:296|368:248,1,324.999995157123,0|0
256,216,99592,5,4
168,80,100021,1,4
256,36,100235,1,4
340,84,100450,1,4
68,196,103021,5,0
256,44,103878,1,0
444,196,104735,1,0
256,340,105592,1,0
256,60,106450,5,4
168,196,106878,1,4
256,280,107092,1,4
344,196,107307,1,4
72,140,109878,5,0
152,140,110092,1,0
152,140,110200,2,2,B|204:100|204:100|248:140,1,121.874998183921
324,148,110735,1,0
324,220,110950,1,0
324,220,111057,2,2,B|272:260|272:260|228:220,1,121.874998183921
148,216,111592,5,0
244,348,112021,1,0
400,308,112450,1,0
400,308,112557,1,0
400,308,112664,1,2
432,232,112878,1,0
432,232,112985,1,0
432,232,113092,1,2
412,152,113307,5,0
372,80,113521,1,0
340,56,113628,2,2,B|280:24|224:56,1,121.874998183921
144,88,114164,1,0
84,140,114378,1,0
64,176,114485,2,2,B|32:236|64:292,1,121.874998183921
132,336,115021,5,0
296,336,115450,1,2
208,200,115878,1,0
208,160,115985,1,0
208,120,116092,1,2
288,120,116307,1,0
288,160,116414,1,0
288,200,116521,1,2
252,272,116735,6,0,B|184:280|124:344,2,121.874998183921,0|0|2
252,272,117592,2,0,B|244:204|180:144,2,121.874998183921,0|0|2
252,272,118450,2,0,B|320:264|380:200,2,121.874998183921,0|0|2
252,272,119307,2,0,B|260:340|324:400,2,121.874998183921,0|0|2
180,232,120164,5,0
120,80,120592,1,0
272,24,121021,1,2
336,172,121450,1,2
416,316,121878,5,0
336,328,122092,1,0
276,276,122307,1,2
212,324,122521,1,2
160,260,122735,1,0
160,240,122842,1,0
160,220,122950,1,2
160,200,123057,1,2
160,180,123164,1,0
160,160,123271,1,0
160,140,123378,1,2
160,120,123485,1,2
160,100,123592,5,4
300,64,123914,2,2,B|408:140,1,121.874998183921
392,232,124450,1,2
244,240,124771,1,0
116,168,125092,1,0
108,264,125307,6,2,B|0:344,2,121.874998183921
208,264,126164,1,0
356,264,126485,1,0
280,140,126807,1,2
184,132,127021,5,0
52,192,127342,1,0
168,280,127664,1,2
240,344,127878,5,0
388,340,128200,1,0
304,220,128521,1,2
400,204,128735,5,0
444,64,129057,1,0
300,96,129378,1,2
200,88,129592,6,0,B|172:52|104:76,1,81.2499987892807
92,96,129914,2,2,B|80:160|128:216,1,121.874998183921
180,272,130450,5,0
324,288,130771,1,0
260,156,131092,1,2
432,64,131307,5,0
408,208,131628,1,0
300,108,131950,1,2
108,64,132164,5,0
132,208,132485,1,0
240,108,132807,1,2
260,296,133021,5,0
260,296,133342,1,0
260,296,133664,1,2
180,244,133878,5,0
256,184,134092,1,0
256,184,134200,1,2
364,284,134521,5,0
436,220,134735,1,0
412,124,134950,1,0
412,124,135057,1,2
292,44,135378,5,0
196,24,135592,1,0
108,72,135807,1,0
108,72,135914,1,2
72,212,136235,5,0
128,292,136450,1,0
128,292,136557,1,0
128,292,136664,1,2
128,292,136771,2,2,B|184:332|272:328,1,121.874998183921
336,300,137307,5,0
451,141,137735,1,0
292,26,138164,1,2
177,184,138592,1,2
336,300,139021,5,0
305,106,139450,1,0
112,138,139878,1,2
142,331,140307,1,2
328,268,140735,5,0
328,268,140950,1,0
372,180,141164,1,2
372,180,141378,1,2
284,136,141592,1,0
284,136,141807,1,0
344,60,142021,1,2
344,60,142235,1,2
248,40,142450,6,0,B|196:20|140:60,1,81.2499987892807
148,52,142771,1,2
68,176,143092,1,2
164,152,143307,6,0,B|144:204|184:260,1,81.2499987892807
176,252,143628,1,2
292,160,143950,1,2
380,120,144164,5,0
432,204,144378,1,0
432,204,144485,2,2,B|460:280|376:340,1,121.874998183921
316,352,145021,1,0
220,332,145235,1,0
220,332,145342,2,2,B|160:288|176:216,1,121.874998183921
152,132,145878,5,0
284,68,146200,2,2,B|340:32|400:72,1,121.874998183921
452,136,146735,5,0
404,248,147057,1,0
284,272,147378,1,2
256,192,147593,12,4,151021
312,128,151343,5,0
168,96,151664,2,2,B|112:88|72:152,1,97.4999970942737
160,260,152200,1,0
308,260,152521,1,2
352,172,152735,5,2
308,84,152950,1,0
308,84,153057,2,2,B|364:40|428:84,1,97.4999970942737
399,68,153378,1,0
460,144,153593,5,2
456,240,153807,1,0
456,240,153914,2,2,B|408:292|336:252,1,97.4999970942737
367,265,154235,1,0
280,224,154450,5,0
288,68,154771,1,0
160,140,155093,1,2
68,168,155307,5,0
6,301,155628,1,0
152,300,155950,1,2
248,300,156164,5,0
392,332,156485,1,0
344,196,156807,1,2
356,100,157021,5,0
480,24,157343,1,0
488,172,157664,1,2
432,252,157878,2,0,B|404:336|300:308,1,146.24999564141
196,228,158521,5,0
196,228,158735,2,2,B|224:140|320:168,1,146.24999564141
312,312,159378,5,0
312,312,159593,2,0,B|284:400|188:372,1,146.24999564141
80,292,160235,5,0
80,292,160450,2,2,B|108:204|204:232,1,146.24999564141
332,188,161093,5,0
332,188,161307,2,0,B|324:104|408:72,2,146.24999564141,0|0|2
332,188,162164,2,0,B|385:122|467:159,2,146.24999564141,0|0|2
332,188,163021,2,0,B|416:180|448:264,2,146.24999564141,0|0|2
332,188,163878,2,0,B|397:241|360:323,2,146.24999564141,0|0|2
240,156,164735,5,0
436,156,165164,1,0
432,352,165593,1,2
236,352,166021,1,2
52,292,166450,5,0
148,288,166664,1,0
100,208,166878,1,2
204,204,167093,1,2
148,124,167307,1,0
244,120,167521,1,0
188,40,167735,1,2
284,32,167950,1,2
380,24,168164,6,0,B|438:52|448:108|431:162|336:183,1,194.999994188547
180,168,169021,2,2,B|120:171|98:224|103:281|159:314,1,194.999994188547
348,328,169878,5,0
348,328,169985,1,0
348,328,170093,1,2
412,252,170307,1,0
412,252,170521,1,2
352,176,170735,1,0
352,176,170843,1,0
352,176,170950,1,2
416,100,171164,1,0
416,100,171378,1,2
344,36,171593,5,0
248,36,171807,1,0
248,36,171914,2,2,B|96:36,1,146.24999564141
48,120,172450,5,0
144,120,172664,1,0
144,120,172771,2,2,B|300:120,1,146.24999564141
344,204,173307,5,0
248,204,173521,1,0
248,204,173628,2,2,B|96:204,1,146.24999564141
48,288,174164,5,0
144,288,174378,1,0
144,288,174485,2,2,B|300:288,1,146.24999564141
388,292,175021,5,0
400,196,175235,1,0
400,196,175343,1,0
400,196,175450,1,2
344,116,175664,1,0
268,180,175878,5,0
192,120,176093,1,0
192,120,176200,1,0
192,120,176307,1,2
108,168,176521,1,0
140,260,176735,5,2
236,268,176950,1,0
284,268,177057,2,2,B|336:268|368:200,1,97.4999970942737
380,172,177378,1,0
436,92,177593,5,2
340,84,177807,1,0
292,84,177914,2,2,B|240:84|208:152,1,97.4999970942737
196,180,178235,1,0
124,248,178450,6,0,B|60:220|80:136,1,97.4999970942737
108,80,178878,1,2
200,52,179093,1,2
344,88,179307,6,0,B|408:116|388:200,1,97.4999970942737
360,256,179735,1,2
268,284,179950,1,2
192,224,180164,6,0,B|172:160,3,48.7499985471368,0|0|2|2
212,140,180593,2,0,B|292:108,3,48.7499985471368,0|0|2|2
296,152,181021,2,0,B|328:232,3,48.7499985471368,0|0|2|2
288,236,181450,2,0,B|208:268,3,48.7499985471368,2|2|2|2
256,192,181878,12,0,185307
256,192,185414,12,0,188735
