osu file format v9

[General]
AudioFilename: M.I.S.A.mp3
AudioLeadIn: 0
PreviewTime: 68726
Countdown: 0
SampleSet: Soft
StackLeniency: 0.7
Mode: 0
LetterboxInBreaks: 1

[Editor]
DistanceSpacing: 1
BeatDivisor: 4
GridSize: 8

[Metadata]
Title:M.I.S.A
Artist:SoundTeMP
Creator:silklash
Version:Easy
Source:Granado Espada
Tags:ESTi Sword of the New World

[Difficulty]
HPDrainRate:2
CircleSize:3
OverallDifficulty:2
ApproachRate:3
SliderMultiplier:1
SliderTickRate:2

[Events]
//Background and Video events
0,0,"granado-espada-wallpaper-016.jpg"
//Break Periods
2,65507,67286
2,100650,101572
2,107507,108429
//Storyboard Layer 0 (Background)
//Storyboard Layer 1 (Fail)
//Storyboard Layer 2 (Pass)
//Storyboard Layer 3 (Foreground)
//Storyboard Sound Samples
//Background Colour Transformations
3,100,163,162,255

[TimingPoints]
3593,428.571428571429,4,2,1,60,1,0
68735,-100,4,2,1,70,0,0
79021,-100,4,2,1,20,0,0
80950,-100,4,2,1,70,0,0
97878,-100,4,2,1,30,0,0
99164,-100,4,2,1,70,0,0
123593,-100,4,2,1,70,0,0
151021,-100,4,2,1,90,0,1
185307,-100,4,2,1,90,0,0
185414,-100,4,2,1,50,0,0

[Colours]
Combo1 : 128,0,128
Combo2 : 0,128,128
Combo3 : 0,128,255
Combo4 : 0,64,128

[HitObjects]
176,272,30593,1,0
108,192,31021,2,0,B|120:144|148:104|200:72|256:56|312:72|364:104|392:144|404:192,2,400
336,112,37450,5,0
404,192,37878,2,0,B|392:240|364:280|312:312|256:328|200:312|148:280|120:240|108:192,2,400
256,52,44735,5,0
408,312,46021,1,0
408,312,46450,1,0
108,312,47735,1,0
108,312,48164,1,0
288,56,49450,5,0
288,56,49878,2,0,B|388:92|388:92|340:204,1,225
296,264,51164,1,0
296,264,51592,2,0,B|196:228|196:228|244:116,1,225
404,244,53307,6,0,B|357:326|261:206|209:301,1,200
96,120,55021,2,0,B|142:202|238:82|290:177,1,200
472,112,56735,2,0,B|384:140|460:260|352:280,1,200
172,320,58450,5,0
67,144,59307,1,0
239,41,60164,1,0
342,213,61021,1,0
256,192,61878,12,0,65307
292,232,68735,6,0,B|341:199|382:108|251:-27|119:108|160:199|212:232,2,400
384,256,72592,2,0,B|308:336|252:316|196:336|120:256,1,300
120,156,74307,2,0,B|196:76|252:96|308:76|384:156,1,300
300,212,76021,1,0
200,212,76450,1,2
256,24,77307,5,0
208,112,77735,1,0
308,112,78164,1,2
256,192,79021,12,0,80735
256,192,81592,5,0
72,120,82450,2,2,B|120:96|168:120,1,100,2|0
136,208,83307,2,0,B|184:232|240:208,1,100
304,144,84164,2,0,B|360:160|392:216|360:272|304:288,1,200,2|2
224,344,85450,1,0
128,312,85878,6,0,B|104:264|128:216,1,100,0|0
216,248,86735,2,0,B|240:200|216:144,1,100,0|8
152,80,87592,2,2,B|168:24|224:-8|280:24|296:80,1,200
392,232,89307,5,0
208,304,90164,1,0
128,120,91021,1,2
312,40,91878,1,2
448,192,92735,5,0
384,272,93164,1,2
304,336,93592,2,2,B|192:336,1,100,0|8
104,336,94450,1,0
104,236,94878,1,2
204,236,95307,2,0,B|204:124,1,100
276,68,96164,5,4
372,40,96592,1,4
436,116,97021,1,4
328,284,97878,2,0,B|305:339|256:371|201:339|184:283,1,200
256,96,99592,5,4
256,200,100021,1,4
256,296,100450,1,4
256,320,103021,5,0
96,192,103878,1,0
256,72,104735,1,0
416,192,105592,1,0
256,320,106450,5,4
256,216,106878,1,4
256,112,107307,1,4
160,64,109878,6,0,B|112:64|112:64|80:64|48:96|48:128|48:128|48:184,1,200,2|2
48,280,111164,1,8
144,280,111592,2,0,B|192:280|192:280|224:280|256:248|256:216|256:216|256:160,1,200,2|2
256,64,112878,1,0
356,64,113307,6,0,B|404:64|404:64|436:64|468:96|468:128|468:128|468:184,1,200,2|2
468,280,114592,1,8
368,280,115021,2,0,B|320:280|320:280|288:280|256:248|256:216|256:216|256:160,1,200,2|2
256,64,116307,1,0
340,116,116735,6,0,B|388:172|300:244|356:308,1,200,2|2
157,306,118450,2,0,B|212:244|124:172|172:116,1,200,2|2
364,72,120164,5,0
364,72,121021,1,0
380,272,121878,1,0
280,272,122307,1,0
188,236,122735,1,2
144,148,123164,1,2
228,92,123592,6,0,B|312:116|380:60,2,150,0|0|2
272,184,125307,2,0,B|188:208|120:152,2,150,0|0|2
336,264,127021,5,0
264,77,127878,1,0
77,148,128735,1,2
149,335,129592,1,2
348,324,130450,6,0,B|292:300|244:340,2,100,0|0|2
292,132,132164,2,0,B|348:108|396:148,2,100,0|0|2
116,224,133878,5,0
180,296,134307,1,0
252,224,134735,2,2,B|324:304,1,100
380,224,135592,1,0
444,296,136021,1,0
512,220,136450,2,2,B|444:144,1,100
372,72,137307,6,0,B|164:72,1,200,0|2
68,240,139021,2,0,B|268:240,1,200,0|2
100,128,140735,6,0,B|100:328,1,200,0|2
268,224,142450,2,0,B|268:24,1,200,0|2
468,48,144164,5,0
468,248,145021,1,2
268,248,145878,1,0
268,48,146735,1,2
96,148,147593,5,0
140,240,148021,1,2
200,160,148450,1,0
156,68,148878,1,8
256,192,149307,12,4,151021
256,192,151878,5,0
152,192,152307,1,8
56,192,152735,2,0,B|56:304|56:304|160:304,1,200,2|2
244,304,154021,1,0
344,304,154450,6,0,B|464:128,3,200,0|2|2|0
264,72,157878,5,0
92,175,158735,1,2
195,346,159593,1,0
367,243,160450,1,2
448,64,161307,6,0,B|256:152,3,200,0|2|2|0
72,88,164735,5,0
72,192,165164,1,0
160,144,165593,1,2
352,88,166450,5,0
352,192,166878,1,0
264,144,167307,1,2
212,336,168164,5,0
164,248,168593,1,0
264,252,169021,1,2
200,56,169878,5,0
200,56,170307,1,0
200,56,170735,1,2
400,60,171593,6,0,B|464:144|432:252,1,200,0|2
352,308,172878,1,0
260,272,173307,2,0,B|192:176|228:80,1,200,0|2
132,48,174593,1,0
84,136,175021,6,0,B|80:240|80:240|152:312,1,200,0|2
216,376,176307,1,0
296,312,176735,2,0,B|363:244|363:244|359:140,1,200,0|2
168,80,178450,6,0,B|216:40|264:80,1,100
212,164,179307,2,0,B|212:268,1,100,2|2
304,304,180164,2,0,B|352:344|400:304,1,100
352,216,181021,2,0,B|352:112,1,100,2|2
256,192,181878,12,0,185307
256,192,185414,12,0,188735
