osu file format v6

[General]
AudioFilename: Believe in myself.mp3
AudioLeadIn: 0
PreviewTime: 23149
Countdown: 1
SampleSet: Soft
StackLeniency: 0.7
Mode: 0
LetterboxInBreaks: 1

[Editor]
DistanceSpacing: 0.800000011920929
BeatDivisor: 4
GridSize: 8

[Metadata]
Title:Believe in myself
Artist:SoundTeMP
Creator:Cursed Moon
Version:Normal
Source:Ragnarok Online
Tags:Ragnarok Online SoundTeMP

[Difficulty]
HPDrainRate:7
CircleSize:5
OverallDifficulty:7
SliderMultiplier:1.4
SliderTickRate:2

[Events]
//Background and Video events
0,0,"Background.jpg"
//Break Periods
2,17385,21526
2,37625,49357
//Storyboard Layer 0 (Background)
//Storyboard Layer 1 (Fail)
//Storyboard Layer 2 (Pass)
//Storyboard Layer 3 (Foreground)
//Storyboard Sound Samples
//Background Colour Transformations
3,100,163,162,255

[TimingPoints]
10860,722.89156626506,4,2,0,100,1,0

[HitObjects]
112,179,10860,5,0
138,179,11040,1,0
168,176,11221,1,0
192,176,11402,1,0
216,176,11582,1,2
264,208,11944,5,0
320,216,12305,1,0
368,192,12667,1,0
398,170,12847,1,0
456,120,13390,1,0
416,64,13751,5,0
386,94,13932,1,0
352,128,14113,1,0
320,160,14293,1,0
280,192,14474,1,2
192,264,15016,1,0
158,299,15197,1,0
248,336,15558,2,0,B|304:352,1,35,0|0
371,168,16643,2,0,B|426:180,3,35,0|0|0|0
88,56,22426,5,0
128,96,22606,1,0
176,136,22787,1,0
216,176,22968,1,0
256,216,23149,1,2
312,232,23510,5,0
360,208,23872,1,0
408,176,24233,1,0
434,153,24414,1,0
496,104,24956,1,0
416,64,25317,5,0
386,97,25498,1,0
360,128,25679,1,0
328,160,25859,1,0
296,192,26040,1,2
224,256,26402,2,0,B|168:319,1,70
152,377,27125,2,0,B|192:385,2,35,0|0|2
290,337,28209,1,0
367,333,28570,1,0
392,302,28751,1,0
374,183,28932,6,0,B|266:210|226:154,1,140
200,128,30016,2,0,B|160:168,1,35
144,232,30739,1,0
200,232,31100,1,0
256,208,31462,12,0,34715
200,152,35438,5,0
296,200,36161,5,0
312,136,36522,2,0,B|255:103,1,35,0|0
256,104,36884,1,0
220,122,37064,1,0
192,147,37245,2,0,B|159:205,1,35,0|0
48,40,50257,6,0,B|80:72,1,35
272,56,51703,2,0,B|240:84,1,35
174,212,53149,2,0,B|171:231,1,17.5,0|0
320,328,54594,6,0,B|360:296,1,35,0|0
464,144,56040,2,0,B|431:110,1,35,0|0
302,242,57486,2,0,B|285:285,1,35
128,144,58932,2,0,B|163:112,1,35
360,280,60378,2,0,B|322:246,1,35
345,86,61823,2,0,B|388:114,1,35,0|0
416,128,63269,6,0,B|374:156,1,35,0|0
248,288,64715,2,0,B|288:322,1,35
433,225,66161,2,0,B|390:270,1,35,0|0
248,320,67606,2,0,B|290:347,1,35
381,208,69052,2,0,B|346:180,1,35,0|0
440,25,70498,2,0,B|480:58,1,35
336,136,71944,2,0,B|369:117,1,35
208,232,73390,6,0,B|244:202,1,35,0|0
56,192,74835,2,0,B|21:190,2,17.5,0|0|0
216,96,76281,2,0,B|219:130,2,17.5,0|0|0
280,280,77727,6,0,B|317:323,1,35
384,128,79173,2,0,B|352:166,1,35
192,256,80619,2,0,B|191:227,2,17.5,0|0|0
272,80,82064,2,0,B|313:80,1,35,0|0
96,64,83510,6,0,B|115:96,1,35
24,264,84956,2,0,B|65:283,1,35
233,259,86402,2,0,B|211:280,2,17.5
384,136,87847,2,0,B|340:160,1,35
184,224,89293,2,0,B|160:250,1,35
344,320,90739,6,0,B|296:320,1,35
440,168,92185,2,0,B|416:184,2,17.5
213,59,93631,2,0,B|253:51,1,35,0|0
254,191,94715,1,4
144,160,95438,5,0
184,112,95799,1,0
248,104,96161,1,0
312,120,96522,1,0
340,149,96703,1,0
256,208,98329,12,0,101221
184,248,101944,5,0
264,248,102486,1,0
131,112,103751,5,0
168,112,103932,2,0,B|230:159|158:215,1,105
131,201,104655,1,0
259,126,105378,2,0,B|307:86|379:134,1,105
368,192,106281,5,0
256,96,107004,2,0,B|425:171|341:335|133:351|93:207|130:97|261:95,1,560
293,201,110619,1,0
284,134,110980,2,0,B|240:112,1,35
172,95,111703,1,0
168,168,112064,1,0
168,280,112787,1,6
272,320,113510,1,0
352,296,114052,2,0,B|432:283|424:195,1,105
413,168,114956,1,0
256,208,115679,12,0,118570
160,80,119293,5,0
272,72,120016,1,0
296,128,120378,1,0
240,160,120739,1,0
192,200,121100,2,0,B|180:242,2,35,0|0|0
276,242,122185,1,0
326,275,122546,2,0,B|374:323,1,35
419,210,123631,1,0
352,256,124173,5,0
272,232,124715,1,0
256,208,124896,1,0
254,56,126161,5,0
255,134,126522,1,0
255,219,126884,2,0,B|256:264,2,35,0|0|4
