osu file format v6

[General]
AudioFilename: Believe in myself.mp3
AudioLeadIn: 0
PreviewTime: 23149
Countdown: 1
SampleSet: Soft
StackLeniency: 0.7
Mode: 0
LetterboxInBreaks: 1

[Editor]
DistanceSpacing: 0.800000011920929
BeatDivisor: 4
GridSize: 8

[Metadata]
Title:Believe in myself
Artist:SoundTeMP
Creator:Cursed Moon
Version:Easy
Source:Ragnarok Online
Tags:Ragnarok Online SoundTeMP

[Difficulty]
HPDrainRate:6
CircleSize:5
OverallDifficulty:6
SliderMultiplier:1.4
SliderTickRate:2

[Events]
//Background and Video events
0,0,"Background.jpg"
//Break Periods
2,37806,49207
2,102686,105954
//Storyboard Layer 0 (Background)
//Storyboard Layer 1 (Fail)
//Storyboard Layer 2 (Pass)
//Storyboard Layer 3 (Foreground)
//Storyboard Sound Samples
//Background Colour Transformations
3,100,163,162,255

[TimingPoints]
10860,722.89156626506,4,2,0,100,1,0

[HitObjects]
157,114,10860,1,0
268,84,11582,1,2
328,176,12305,1,0
192,272,13390,1,0
185,207,13751,5,0
256,120,14474,1,2
320,176,15016,2,0,B|365:214,1,35,0|4
377,148,15558,2,0,B|409:124,2,35,0|0|0
432,192,16643,6,0,B|504:248|440:336,3,140,0|0|0|0
400,216,19534,1,0
320,296,20257,5,0
202,261,21161,2,0,B|130:221,2,70,0|0|0
224,184,22426,5,0
128,120,23149,1,0
240,96,23872,1,0
392,160,24956,1,0
386,225,25317,5,0
340,312,26040,1,0
248,256,26763,1,0
215,202,27125,1,0
215,47,28209,2,0,B|97:124,1,105,0|0
135,216,29655,1,0
288,280,30739,1,0
256,208,31462,12,0,34715
248,128,35438,5,0
320,96,36161,2,4,B|536:216|320:288|320:288,1,280,0|4
96,72,50257,5,0
320,80,51703,1,0
200,272,53149,1,0
408,192,54594,1,0
184,200,56040,1,0
400,272,57486,5,0
408,48,58932,1,0
192,112,60378,1,0
64,296,61823,1,0
56,72,63269,5,0
280,48,64715,1,0
504,72,66161,1,0
488,296,67606,1,0
272,352,69052,5,0
56,280,70498,1,0
184,96,71944,1,0
384,192,73390,1,0
168,144,74835,5,0
392,112,76281,1,0
391,315,77727,5,0
176,256,79173,1,0
152,32,80619,5,0
320,184,82064,1,0
480,24,83510,5,0
424,240,84956,1,0
240,112,86402,1,0
88,280,87847,1,0
40,64,89293,5,0
240,160,90739,1,0
456,96,92185,1,0
392,312,93631,1,0
256,192,94715,1,4
168,120,95438,5,0
280,96,96161,2,0,B|312:120,3,35,0|0|0|0
295,225,97606,1,0
256,208,98329,12,0,101221
288,88,101944,5,0
224,176,102486,1,0
200,128,107004,5,0
312,120,107727,1,0
339,183,108088,2,0,B|352:216,1,35
360,344,109173,1,0
288,248,109896,5,0
240,216,110257,1,0
208,168,110619,1,0
208,112,110980,2,0,B|256:88,1,35
309,93,111703,2,0,B|357:157,1,70
216,120,112787,5,0
328,144,113510,1,0
360,224,114052,2,0,B|392:280|344:320,1,105
256,208,115679,12,0,118570
328,104,119293,1,0
328,216,120016,1,0
297,157,120378,5,0
241,132,120739,1,0
192,152,121100,2,0,B|152:176,2,35,0|0|0
272,208,122185,1,0
176,328,123269,2,0,B|128:256,1,70
192,208,124173,5,0
272,176,124715,2,0,B|296:152|328:184,1,35
336,208,125257,1,0
216,136,126161,5,0
272,128,126522,1,0
328,136,126884,2,0,B|376:168,2,35
