osu file format v11

[General]
AudioFilename: 307 A Witch On A Diet.mp3
AudioLeadIn: 500
PreviewTime: 55847
Countdown: 0
SampleSet: Normal
StackLeniency: 0.7
Mode: 0
LetterboxInBreaks: 1

[Editor]
DistanceSpacing: 0.7
BeatDivisor: 2
GridSize: 4

[Metadata]
Title:A Witch on a Diet
TitleUnicode:
Artist:SoundTeMP
ArtistUnicode:
Creator:silklash
Version:Normal
Source:Granado Espada
Tags:Kim Junsung ESTi Sword of the New World
BeatmapID:164747
BeatmapSetID:48708

[Difficulty]
HPDrainRate:3
CircleSize:3
OverallDifficulty:3
ApproachRate:4
SliderMultiplier:1.2
SliderTickRate:1

[Events]
//Background and Video events
0,0,"GE.jpg"
//Break Periods
2,24411,31618
2,81138,89436
2,147682,155435
//Storyboard Layer 0 (Background)
//Storyboard Layer 1 (Fail)
//Storyboard Layer 2 (Pass)
//Storyboard Layer 3 (Foreground)
//Storyboard Sound Samples
//Background Colour Transformations
3,100,163,162,255

[TimingPoints]
1302,363.636363636364,3,1,0,60,1,0
8938,-100,3,1,0,65,0,0
10029,-100,3,1,0,70,0,0
11120,-100,3,1,0,75,0,0
14756,-100,3,1,0,60,0,0
15847,-100,3,1,0,70,0,0
16938,-100,3,1,0,80,0,0
17665,-100,3,1,0,70,0,0
24211,-100,3,2,0,30,0,0
32938,-100,3,1,0,70,0,0
40938,-100,3,1,0,60,0,0
42029,-100,3,1,0,70,0,0
43120,-100,3,1,0,80,0,0
53665,-100,3,2,0,80,0,0
55847,-100,3,1,0,70,0,1
63483,-100,3,1,0,80,0,1
64574,-100,3,1,0,90,0,1
65665,-100,3,1,0,100,0,1
80938,-100,3,1,0,100,0,0
91847,-100,3,1,0,60,0,0
92574,363.636363636364,4,1,0,60,1,0
98392,-100,4,2,0,80,0,0
99119,-100,4,1,0,60,0,0
99846,-100,4,2,0,80,0,0
100574,-100,4,1,0,65,0,0
102755,-100,4,1,0,70,0,0
104210,-100,4,1,0,75,0,0
105664,-100,4,1,0,80,0,0
108574,-100,4,1,0,70,0,0
110392,-100,4,1,0,75,0,0
111846,-100,4,1,0,80,0,0
113301,-100,4,1,0,85,0,0
120392,-100,4,1,0,70,0,0
134755,-100,4,1,0,85,0,0
135483,-100,4,1,0,100,0,0
136210,-100,4,1,0,70,0,0
138028,-100,4,1,0,80,0,0
139483,-100,4,1,0,85,0,0
140937,-100,4,1,0,90,0,0
147846,-133.333333333333,4,2,0,50,0,0
156574,-100,4,1,0,80,0,1
158028,-100,4,1,0,85,0,1
159483,-100,4,1,0,90,0,1
160937,-100,4,1,0,95,0,1
162392,-100,4,1,0,100,0,1
175483,-100,4,1,0,100,0,0

[Colours]
Combo1 : 255,150,0
Combo2 : 170,74,77
Combo3 : 5,5,240
Combo4 : 240,5,5

[HitObjects]
152,116,1302,1,0,0:0:0
228,80,1665,2,0,B|296:72|332:132,1,120,2|10,0:0|0:0,0:0:0
360,208,2392,1,0,0:0:0
352,292,2756,2,0,B|272:276|276:188,1,120,2|10,0:0|0:0,0:0:0
208,164,3483,2,0,B|156:132|88:148,2,120,0|2|10,0:0|0:0|0:0,0:0:0
164,236,4574,2,0,B|216:268|284:252,2,120,0|2|10,0:0|0:0|0:0,0:0:0
100,180,5665,2,0,B|148:124|208:168|268:196|324:140,1,240,2|8,0:0|0:0,0:0:0
272,76,6756,2,0,B|206:110|236:178|249:243|182:285,1,240,2|8,0:0|0:0,0:0:0
100,264,7847,5,0,0:0:0
48,196,8211,2,0,B|84:140|80:72,1,120,2|10,0:0|0:0,0:0:0
156,44,8938,1,0,0:0:0
232,80,9302,2,0,B|288:100|356:76,1,120,2|10,0:0|0:0,0:0:0
432,72,10029,2,0,B|448:164|360:172|324:184|320:280,1,240,2|8,0:0|0:0,0:0:0
392,312,11120,2,0,B|348:376|260:376|212:296|248:224,1,240,2|8,0:0|0:0,0:0:0
192,180,12211,2,0,B|136:152|76:184,2,120,0|8|8,0:0|0:0|0:0,0:0:0
212,100,13302,6,0,B|264:124|264:124|320:100,1,120,0|2,0:0|0:0,0:0:0
400,64,14029,1,8,0:0:0
440,136,14392,2,0,B|440:256,2,120,0|2|10,0:0|0:0|0:0,0:0:0
360,176,15483,2,0,B|360:308,2,120,0|2|10,0:0|0:0|0:0,0:0:0
300,116,16574,1,0,0:0:0
240,176,16938,2,0,B|180:176,2,60,2|0|10,0:0|0:0|0:0,0:0:0
272,252,17665,6,0,B|224:312|100:312|56:252,1,240,2|8,0:0|0:0,0:0:0
56,168,18756,2,0,B|104:108|228:108|272:168,1,240,2|8,0:0|0:0,0:0:0
344,208,19847,2,0,B|396:256|464:220|500:144|444:90,1,240,2|8,0:0|0:0,0:0:0
368,56,20938,1,2,0:0:0
292,88,21302,1,2,0:0:0
216,56,21665,1,10,0:0:0
140,88,22029,1,4,0:0:0
256,192,22211,12,0,24211,0:0:0
196,92,32938,5,0,0:0:0
132,148,33302,1,2,0:0:0
136,232,33665,2,0,B|156:288|156:288|216:312,1,120,10|0,0:0|0:0,0:0:0
252,324,34211,1,0,0:0:0
292,336,34392,2,2,B|356:340|400:288,1,120,2|10,0:0|0:0,0:0:0
432,212,35120,1,2,0:0:0
392,136,35483,2,2,B|336:84|240:108,1,120,2|10,0:0|0:0,0:0:0
196,108,36211,1,2,0:0:0
124,148,36574,2,2,B|92:208|124:268,1,120,2|10,0:0|0:0,0:0:0
148,344,37302,5,0,0:0:0
216,296,37665,1,2,0:0:0
284,344,38029,1,10,0:0:0
348,292,38392,2,0,B|396:252|396:252|464:252,2,120,0|2|10,0:0|0:0|0:0,0:0:0
272,232,39483,6,0,B|240:172|240:172|120:172|120:172|84:124,1,240,0|8,0:0|0:0,0:0:0
56,52,40574,1,2,0:0:0
56,52,40756,1,0,0:0:0
56,52,40938,2,2,B|184:52,1,120,2|8,0:0|0:0,0:0:0
256,84,41665,1,2,0:0:0
320,136,42029,2,2,B|352:192|320:252,1,120,2|8,0:0|0:0,0:0:0
256,300,42756,1,2,0:0:0
192,252,43120,2,2,B|160:192|192:136,1,120,2|8,0:0|0:0,0:0:0
108,88,43847,6,0,B|48:192|48:192|116:304,1,240,0|8,0:0|0:0,0:0:0
192,344,44938,1,4,0:0:0
288,344,45302,2,0,B|288:224,1,120,2|10,0:0|0:0,0:0:0
288,128,46029,1,0,0:0:0
368,76,46392,2,0,B|368:200,1,120,2|10,0:0|0:0,0:0:0
288,248,47120,1,0,0:0:0
200,204,47483,2,0,B|92:268,1,120,2|10,0:0|0:0,0:0:0
56,176,48211,1,0,0:0:0
100,92,48574,2,0,B|40:76,2,60,2|0|10,0:0|0:0|0:0,0:0:0
192,60,49302,5,0,0:0:0
264,120,49665,2,0,B|380:184,1,120,2|10,0:0|0:0,0:0:0
412,252,50392,2,2,B|316:332|316:332|300:284|248:256|184:264,1,240,2|8,0:0|0:0,0:0:0
160,312,51483,2,2,B|136:276|140:228|156:192|196:168|248:168|296:200,1,240,2|8,0:0|0:0,0:0:0
348,140,52574,2,2,B|314:107|268:88|196:88|148:104|116:140,1,240,2|8,0:0|0:0,0:0:0
84,204,53665,5,0,0:0:0
96,288,54029,2,0,P|140:344|188:340,1,120
264,316,54756,1,0,0:0:0
252,232,55120,2,0,P|208:176|160:180,1,120
84,204,55847,5,0,0:0:0
88,120,56211,2,2,B|108:52|180:52,1,120,0|10,0:0|0:0,0:0:0
260,48,56938,1,2,0:0:0
300,52,57120,1,0,0:0:0
344,60,57302,2,2,B|404:72|404:72|431:127,1,120,2|8,0:0|0:0,0:0:0
348,144,58029,1,2,0:0:0
268,164,58392,2,2,B|294:216|294:216|354:228,1,120,2|8,0:0|0:0,0:0:0
312,304,59120,1,2,0:0:0
244,352,59483,2,2,B|217:299|217:299|157:287,1,120,2|8,0:0|0:0,0:0:0
124,212,60211,6,0,B|72:244|72:244|72:324,2,120,0|2|10,0:0|0:0|0:0,0:0:0
176,148,61302,2,0,B|124:120|124:120|68:148,2,120,0|2|10,0:0|0:0|0:0,0:0:0
236,204,62392,6,0,B|248:268|312:288|312:288|384:252|372:184,1,240,0|10,0:0|0:0,0:0:0
376,108,63483,2,0,B|312:68,1,60
284,60,63847,2,2,B|232:32|232:32|136:76,1,120,2|8,0:0|0:0,0:0:0
112,112,64574,2,0,B|112:180,1,60
112,216,64938,2,2,B|112:272|112:272|160:320,1,120,2|8,0:0|0:0,0:0:0
192,240,65665,2,0,B|244:292,1,60
264,312,66029,2,2,B|292:336|292:336|372:272,1,120,2|8,0:0|0:0,0:0:0
380,192,66756,2,0,B|484:88,2,120,0|10|10,0:0|0:0|0:0,0:0:0
284,176,67847,5,4,0:0:0
220,248,68211,2,0,B|104:284,1,120,2|10,0:0|0:0,0:0:0
72,192,68938,1,0,0:0:0
156,148,69302,2,0,B|232:44,1,120,2|10,0:0|0:0,0:0:0
324,48,70029,1,0,0:0:0
416,76,70392,2,0,B|416:208,1,120,2|10,0:0|0:0,0:0:0
364,276,71120,1,0,0:0:0
272,300,71483,2,0,B|224:344,2,60,2|0|10,0:0|0:0|0:0,0:0:0
208,228,72211,5,0,0:0:0
116,196,72574,2,0,B|148:144|148:144|220:132,1,120,2|10,0:0|0:0,0:0:0
288,84,73302,2,2,B|360:84|408:84|408:84|448:94|456:128|456:128|456:184,1,240,2|8,0:0|0:0,0:0:0
456,276,74392,2,2,B|372:276|372:276|352:228|292:204|228:216,1,240,2|8,0:0|0:0,0:0:0
276,304,75483,2,2,B|224:314|164:290|144:242|144:242|144:140,1,240,2|8,0:0|0:0,0:0:0
220,96,76574,1,4,0:0:0
256,192,76756,12,4,80938,0:0:0
256,192,90756,12,4,91847,0:0:0
160,60,92574,5,4,0:0:0
160,60,92755,2,2,B|292:60|292:60,1,120,2|0,0:0|0:0,0:0:0
320,32,93301,2,0,B|372:60|376:136,1,120,2|10,0:0|0:0,0:0:0
364,228,94028,5,2,0:0:0
308,292,94392,1,2,0:0:0
228,316,94755,2,2,B|168:332|108:316,1,120,2|8,0:0|0:0,0:0:0
110,316,95483,5,2,0:0:0
52,252,95847,1,2,0:0:0
108,188,96210,2,2,B|172:164|240:188,1,120,2|8,0:0|0:0,0:0:0
225,183,96937,5,2,0:0:0
292,128,97301,1,2,0:0:0
356,72,97664,2,2,B|400:128|356:196,1,120,2|8,0:0|0:0,0:0:0
332,264,98392,6,0,B|272:240|208:272,1,120
128,224,99119,2,0,B|172:180|172:180|156:120,1,120,2|10,0:0|0:0,0:0:0
252,124,99846,2,0,B|316:144|380:108,1,120
448,60,100574,2,0,B|472:116|472:116|444:168,1,120,2|10,0:0|0:0,0:0:0
400,256,101301,5,0,0:0:0
400,256,101483,2,2,B|276:256,1,120,2|0,0:0|0:0,0:0:0
232,256,102028,2,0,B|156:256|112:192,1,120,2|2,0:0|0:0,0:0:0
108,116,102755,5,2,0:0:0
164,40,103119,1,2,0:0:0
262,43,103483,2,2,B|334:49|345:127,1,120,2|8,0:0|0:0,0:0:0
328,212,104210,5,2,0:0:0
399,276,104574,1,2,0:0:0
409,180,104937,2,2,B|376:109|292:131,1,120,2|8,0:0|0:0,0:0:0
215,133,105664,5,2,0:0:0
128,175,106028,1,2,0:0:0
81,259,106392,2,2,B|112:321|185:328,1,120,2|8,0:0|0:0,0:0:0
222,329,106937,1,0,0:0:0
270,329,107119,6,0,B|333:329,2,60
360,292,107846,2,0,B|432:292,2,60
416,148,108937,6,0,B|356:176,1,60,10|0,0:0|0:0,0:0:0
316,192,109301,2,0,B|248:212|180:192,1,120,2|10,0:0|0:0,0:0:0
104,168,110028,1,0,0:0:0
92,264,110392,6,0,B|160:264|200:320,1,120,10|2,0:0|0:0,0:0:0
284,272,111119,1,10,0:0:0
328,184,111483,1,0,0:0:0
328,184,111846,2,0,B|372:128|328:52,1,120,10|2,0:0|0:0,0:0:0
256,124,112574,1,10,0:0:0
174,71,112937,5,0,0:0:0
174,70,113301,2,0,B|140:128|184:184,1,120,10|2,0:0|0:0,0:0:0
200,276,114028,2,0,B|260:264|260:264|316:276,1,120,10|0,0:0|0:0,0:0:0
400,228,114755,2,0,B|424:280|424:280|400:336,2,120,10|2|10,0:0|0:0|0:0,0:0:0
352,148,115846,5,0,0:0:0
352,148,116210,2,2,B|284:180|236:124,1,120,10|0,0:0|0:0,0:0:0
228,36,116937,2,0,B|156:44|148:116,1,120,10|0,0:0|0:0,0:0:0
144,208,117664,1,10,0:0:0
188,292,118028,2,0,B|244:320|304:292,1,120,0|10,0:0|0:0,0:0:0
364,216,118755,2,0,B|308:188|248:216,1,120,0|10,0:0|0:0,0:0:0
180,148,119483,1,0,0:0:0
256,92,119846,1,8,0:0:0
256,92,120028,1,8,0:0:0
256,92,120210,5,4,0:0:0
332,148,120574,1,8,0:0:0
360,240,120937,2,0,B|336:304|264:320,1,120,0|8,0:0|0:0,0:0:0
196,260,121664,2,0,B|160:212|160:212|160:152,2,120,0|8|0,0:0|0:0|0:0,0:0:0
256,184,122755,1,8,0:0:0
324,116,123119,2,0,B|364:68|364:68|432:68,2,120,0|8|0,0:0|0:0|0:0,0:0:0
256,48,124210,1,8,0:0:0
188,116,124574,2,0,B|148:68|148:68|80:68,2,120,0|8|0,0:0|0:0|0:0,0:0:0
104,160,125664,1,8,0:0:0
36,228,126028,6,0,B|72:260|108:268|142:262|168:248|196:216|232:188|270:185|308:192|339:202|368:236,1,360,0|0,0:0|0:0,0:0:0
284,284,127483,2,0,B|284:368,2,60
372,324,128210,2,0,B|436:324,2,60,0|0|4,0:0|0:0|0:0,0:0:0
432,248,128937,5,4,0:0:0
432,248,129119,2,2,B|436:176|380:140,1,120,2|0,0:0|0:0,0:0:0
344,120,129664,2,0,B|296:80|232:88,1,120,2|10,0:0|0:0,0:0:0
140,96,130392,5,2,0:0:0
140,192,130755,1,10,0:0:0
140,288,131119,2,2,B|196:320|256:288,1,120,2|8,0:0|0:0,0:0:0
352,284,131846,1,2,0:0:0
352,188,132209,1,10,0:0:0
352,92,132573,2,2,B|296:60|236:92,1,120,2|8,0:0|0:0,0:0:0
200,120,133119,1,0,0:0:0
164,152,133301,2,0,B|112:152|112:152|92:140|92:140|44:140,2,120,2|10|2,0:0|0:0|0:0,0:0:0
228,224,134392,1,8,0:0:0
316,264,134755,5,0,0:0:0
316,264,135119,1,0,0:0:0
376,192,135483,2,0,B|376:132,3,60
256,48,136574,6,2,B|180:56|160:140,1,120,2|0,0:0|0:0,0:0:0
176,212,137301,2,2,B|252:204|272:120,1,120,10|0,0:0|0:0,0:0:0
344,84,138028,2,0,B|384:128|384:128|384:204,2,120,2|2|10,0:0|0:0|0:0,0:0:0
296,168,139119,1,0,0:0:0
232,240,139483,2,0,B|192:284|192:284|116:284,2,120,2|2|10,0:0|0:0|0:0,0:0:0
324,264,140574,1,0,0:0:0
412,224,140937,2,2,B|412:104,1,120,2|2,0:0|0:0,0:0:0
324,60,141664,1,10,0:0:0
232,80,142028,5,0,0:0:0
172,152,142392,2,0,B|128:152|128:152|119:144|119:144|120:160|120:160|112:152|112:152|72:152,2,120,2|2|10,0:0|0:0|0:0,0:0:0
256,196,143483,1,0,0:0:0
304,284,143846,2,0,B|376:244|348:160,1,120,2|0,0:0|0:0,0:0:0
356,136,144392,2,0,B|356:64,2,60,0|10|0,0:0|0:0|0:0,0:0:0
216,160,145301,6,2,B|176:176|168:228|200:280|200:280|96:328,1,240,2|8,0:0|0:0,0:0:0
88,228,146392,2,0,B|76:156|144:96,1,120,0|0,0:0|0:0,0:0:0
204,64,147119,2,0,B|268:64,2,60
168,84,156755,6,0,B|168:212,1,120,2|0,0:0|0:0,0:0:0
168,252,157301,2,0,B|180:320|268:332,1,120,2|10,0:0|0:0,0:0:0
328,268,158028,2,0,B|384:268|384:268|380:280|380:280|440:280,2,120,2|2|2,0:0|0:0|0:0,0:0:0
264,196,159119,1,8,0:0:0
260,100,159483,5,2,0:0:0
164,116,159846,1,2,0:0:0
104,192,160210,2,2,B|88:264|152:308,1,120,2|8,0:0|0:0,0:0:0
184,320,160755,1,0,0:0:0
232,320,160937,2,0,B|296:320|296:320|364:360,2,120,2|2|2,0:0|0:0|0:0,0:0:0
212,228,162028,1,8,0:0:0
212,132,162392,6,0,B|212:104|212:72,7,60,4|0|4|0|4|0|4|0,0:0|0:0|0:0|0:0|0:0|0:0|0:0|0:0,0:0:0
356,52,164210,6,0,B|400:96,1,60,2|0,0:0|0:0,0:0:0
428,132,164574,2,0,B|460:192|444:256,1,120,2|10,0:0|0:0,0:0:0
276,332,165664,6,2,B|252:296|304:260|268:212,1,120,2|0,0:0|0:0,0:0:0
248,172,166210,2,0,B|232:136|184:132,2,60,0|10|0,0:0|0:0|0:0,0:0:0
360,80,167119,6,2,B|384:116|332:152|368:200,1,120,2|0,0:0|0:0,0:0:0
388,240,167665,2,0,B|404:276|452:280,2,60,0|10|0,0:0|0:0|0:0,0:0:0
244,228,168574,6,2,B|228:208|204:208|180:328|116:216,1,120,2|0,0:0|0:0,0:0:0
104,224,169119,2,0,B|72:204|68:164,2,60,0|10|0,0:0|0:0|0:0,0:0:0
204,120,170028,6,0,B|256:76,1,60,2|0,0:0|0:0,0:0:0
272,124,170392,2,0,B|336:96,1,60,2|0,0:0|0:0,0:0:0
332,148,170755,2,0,B|392:168,1,60,10|0,0:0|0:0,0:0:0
376,312,171483,6,2,B|348:288|348:288|320:328|248:316,1,120,2|0,0:0|0:0,0:0:0
228,320,172028,1,0,0:0:0
180,316,172210,2,0,B|112:284,1,60,10|0,0:0|0:0,0:0:0
100,148,172937,6,2,B|136:84|200:82|200:82|248:120|332:88,1,240,2|8,0:0|0:0,0:0:0
396,48,174028,2,0,B|432:116|372:172,1,120,2|10,0:0|0:0,0:0:0
304,216,174755,2,0,B|236:216,2,60,2|0|10,0:0|0:0|0:0,0:0:0
388,264,175483,1,4,0:0:0
