osu file format v12

[General]
AudioFilename: 307 A Witch On A Diet.mp3
AudioLeadIn: 500
PreviewTime: 55847
Countdown: 0
SampleSet: Normal
StackLeniency: 0.7
Mode: 0
LetterboxInBreaks: 1

[Editor]
DistanceSpacing: 1.5
BeatDivisor: 4
GridSize: 4

[Metadata]
Title:A Witch on a Diet
TitleUnicode:
Artist:SoundTeMP
ArtistUnicode:
Creator:silklash
Version:Insane
Source:Granado Espada
Tags:Kim Junsung ESTi Sword of the New World
BeatmapID:150511
BeatmapSetID:48708

[Difficulty]
HPDrainRate:8
CircleSize:4
OverallDifficulty:7
ApproachRate:8
SliderMultiplier:1.7
SliderTickRate:1

[Events]
//Background and Video events
0,0,"GE.jpg",0,0
//Break Periods
2,24411,32188
2,81138,90006
//Storyboard Layer 0 (Background)
//Storyboard Layer 1 (Fail)
//Storyboard Layer 2 (Pass)
//Storyboard Layer 3 (Foreground)
//Storyboard Sound Samples
//Background Colour Transformations
3,100,163,162,255

[TimingPoints]
1302,363.636363636364,3,1,0,60,1,0
8938,-100,3,1,0,65,0,0
10029,-100,3,1,0,70,0,0
11120,-100,3,1,0,75,0,0
14756,-100,3,1,0,60,0,0
15847,-100,3,1,0,70,0,0
16938,-100,3,1,0,80,0,0
17665,-100,3,1,0,70,0,0
24211,-100,3,2,0,30,0,0
32938,-100,3,1,0,70,0,0
40938,-100,3,1,0,60,0,0
42029,-100,3,1,0,70,0,0
43120,-100,3,1,0,80,0,0
53665,-100,3,2,0,80,0,0
53847,-100,3,2,0,75,0,0
54029,-100,3,2,0,70,0,0
54211,-100,3,2,0,65,0,0
54392,-100,3,2,0,60,0,0
54574,-100,3,2,0,55,0,0
54756,-100,3,2,0,50,0,0
55847,-100,3,1,0,70,0,1
63483,-100,3,1,0,80,0,1
64574,-100,3,1,0,90,0,1
65665,-100,3,1,0,100,0,1
80938,-100,3,1,0,100,0,0
91847,-100,3,1,0,60,0,0
92574,363.636363636364,4,1,0,60,1,0
98392,-100,4,2,0,80,0,0
99119,-100,4,1,0,60,0,0
99846,-100,4,2,0,80,0,0
100574,-100,4,1,0,65,0,0
102755,-100,4,1,0,70,0,0
104210,-100,4,1,0,75,0,0
105664,-100,4,1,0,80,0,0
108574,-100,4,1,0,70,0,0
110392,-100,4,1,0,75,0,0
111846,-100,4,1,0,80,0,0
113301,-100,4,1,0,85,0,0
120392,-100,4,1,0,70,0,0
134755,-100,4,1,0,85,0,0
135483,-100,4,1,0,100,0,0
136210,-100,4,1,0,70,0,0
138028,-100,4,1,0,80,0,0
139483,-100,4,1,0,85,0,0
140937,-100,4,1,0,90,0,0
147846,-133.333333333333,4,2,0,50,0,0
156574,-100,4,1,0,80,0,1
158028,-100,4,1,0,85,0,1
159483,-100,4,1,0,90,0,1
160937,-100,4,1,0,95,0,1
162392,-100,4,1,0,100,0,1
175483,-100,4,1,0,100,0,0

[Colours]
Combo1 : 255,150,0
Combo2 : 170,74,77
Combo3 : 5,5,240
Combo4 : 240,5,5

[HitObjects]
328,88,1302,1,0,0:0:0:0:
424,120,1483,2,0,B|472:140|464:204,1,85,0|0,0:0|0:0,0:0:0:0:
448,288,1847,1,0,0:0:0:0:
356,324,2029,2,0,B|308:344|264:332,1,85,8|0,0:0|0:0,0:0:0:0:
168,320,2392,5,0,0:0:0:0:
92,252,2574,1,0,0:0:0:0:
64,152,2756,2,2,B|72:104|112:80|168:88|192:136,1,170,0|8,0:0|0:0,0:0:0:0:
248,216,3302,1,0,0:0:0:0:
320,288,3483,5,0,0:0:0:0:
412,248,3665,1,0,0:0:0:0:
448,152,3847,2,2,B|440:104|400:80|344:88|320:136,1,170,0|8,0:0|0:0,0:0:0:0:
228,88,4392,1,0,0:0:0:0:
144,148,4574,5,0,0:0:0:0:
200,232,4756,1,0,0:0:0:0:
284,172,4938,2,2,B|348:108|460:108,1,170,0|8,0:0|0:0,0:0:0:0:
428,212,5483,1,0,0:0:0:0:
380,300,5665,6,0,B|356:340|308:348,1,85
132,300,6029,2,0,B|156:340|204:348,1,85,0|0,0:0|0:0,0:0:0:0:
364,164,6392,2,0,B|292:244,1,85,8|0,0:0|0:0,0:0:0:0:
136,168,6756,2,0,B|208:248,1,85
256,292,7120,1,0,0:0:0:0:
340,292,7302,1,0,0:0:0:0:
296,220,7483,1,8,0:0:0:0:
380,220,7665,1,0,0:0:0:0:
340,144,7847,5,0,0:0:0:0:
248,76,8029,1,0,0:0:0:0:
140,96,8211,2,0,B|88:124|96:184,1,85
128,336,8574,2,0,B|180:308|172:248,1,85,8|0,0:0|0:0,0:0:0:0:
256,120,8938,5,0,0:0:0:0:
356,72,9120,1,0,0:0:0:0:
436,148,9302,2,2,B|464:248|364:320,1,170,0|8,0:0|0:0,0:0:0:0:
296,320,9847,1,0,0:0:0:0:
220,264,10029,5,0,0:0:0:0:
300,216,10211,1,0,0:0:0:0:
228,156,10392,2,2,B|300:84|404:100,1,170,0|8,0:0|0:0,0:0:0:0:
452,160,10938,1,0,0:0:0:0:
456,252,11120,5,0,0:0:0:0:
364,228,11302,1,0,0:0:0:0:
276,196,11483,2,2,B|176:184|124:260,1,170,0|8,0:0|0:0,0:0:0:0:
100,164,12029,1,0,0:0:0:0:
160,92,12211,6,0,B|188:137|256:124,1,85,0|8,0:0|0:0,0:0:0:0:
372,52,12574,2,0,B|316:44|280:92,1,85,0|8,0:0|0:0,0:0:0:0:
276,232,12938,2,0,B|324:204|304:136,1,85,0|8,0:0|0:0,0:0:0:0:
412,116,13302,5,0,0:0:0:0:
456,216,13483,1,0,0:0:0:0:
396,304,13665,2,2,B|332:356|228:348,1,170,0|8,0:0|0:0,0:0:0:0:
144,168,14392,1,0,0:0:0:0:
320,68,14756,6,2,B|320:168,1,85,2|0,0:0|0:0,0:0:0:0:
244,340,15120,2,2,B|244:244,1,85,10|0,0:0|0:0,0:0:0:0:
244,144,15483,1,0,0:0:0:0:
408,288,15847,6,2,B|368:324|324:288,1,85,2|0,0:0|0:0,0:0:0:0:
140,228,16211,2,2,B|176:196|224:228,1,85,10|0,0:0|0:0,0:0:0:0:
328,224,16574,1,0,0:0:0:0:
436,32,16938,6,2,B|356:96,1,85,2|0,0:0|0:0,0:0:0:0:
152,176,17302,2,2,B|232:112,1,85,10|0,0:0|0:0,0:0:0:0:
328,124,17665,5,0,0:0:0:0:
380,220,17847,1,0,0:0:0:0:
308,304,18029,2,2,B|264:340|200:320,1,85,2|0,0:0|0:0,0:0:0:0:
136,312,18392,1,8,0:0:0:0:
136,312,18574,1,0,0:0:0:0:
84,232,18756,6,2,B|104:136|212:120,1,170,0|0,0:0|0:0,0:0:0:0:
284,164,19302,1,0,0:0:0:0:
200,208,19483,1,8,0:0:0:0:
280,260,19665,1,0,0:0:0:0:
340,344,19847,6,2,B|400:272|368:180,1,170,0|0,0:0|0:0,0:0:0:0:
212,44,20574,1,8,0:0:0:0:
80,220,20938,2,2,B|96:312|200:328,1,170,0|8,0:0|0:0,0:0:0:0:
272,292,21483,2,0,B|328:284|352:332,2,85,0|8|0,0:0|0:0|0:0,0:0:0:0:
204,240,22029,1,0,0:0:0:0:
256,192,22120,12,0,24211,0:0:0:0:
96,60,32938,6,0,B|96:148,1,85
168,232,33302,2,0,B|168:132,1,85,0|0,0:0|0:0,0:0:0:0:
216,48,33665,1,8,0:0:0:0:
288,132,33847,1,0,0:0:0:0:
288,152,33938,1,0,0:0:0:0:
288,172,34029,1,2,0:0:0:0:
240,272,34211,1,0,0:0:0:0:
324,344,34392,6,2,B|392:292|392:188,1,170,2|10,0:0|0:0,0:0:0:0:
416,88,34938,2,0,B|460:100|472:148,2,85,0|2|0,0:0|0:0|0:0,0:0:0:0:
312,56,35483,2,2,B|216:36|144:76,1,170,2|10,0:0|0:0,0:0:0:0:
48,244,36029,5,0,0:0:0:0:
64,232,36120,1,0,0:0:0:0:
80,220,36211,1,2,0:0:0:0:
176,168,36392,1,0,0:0:0:0:
284,148,36574,2,2,B|388:152|456:208,1,170,2|10,0:0|0:0,0:0:0:0:
380,268,37120,5,0,0:0:0:0:
288,276,37302,1,2,0:0:0:0:
204,312,37483,1,0,0:0:0:0:
180,220,37665,1,2,0:0:0:0:
124,144,37847,1,0,0:0:0:0:
156,56,38029,2,2,B|200:68|224:124,1,85,10|0,0:0|0:0,0:0:0:0:
352,52,38392,2,0,B|340:96|284:120,1,85
360,248,38756,2,0,B|316:236|292:180,1,85,2|0,0:0|0:0,0:0:0:0:
156,252,39119,2,2,B|167:208|223:184,1,85,10|0,0:0|0:0,0:0:0:0:
312,148,39483,5,0,0:0:0:0:
312,148,39665,1,0,0:0:0:0:
408,92,39847,2,0,B|436:124|420:172,1,85,2|0,0:0|0:0,0:0:0:0:
484,264,40211,2,0,B|472:312|428:320,1,85,10|0,0:0|0:0,0:0:0:0:
320,340,40574,1,0,0:0:0:0:
188,276,40756,1,0,0:0:0:0:
116,152,40938,6,2,B|160:76|260:76,1,170,2|8,0:0|0:0,0:0:0:0:
364,44,41483,2,0,B|396:72|404:116,1,85
392,288,41847,1,0,0:0:0:0:
220,304,42029,6,2,B|172:228|204:128,1,170,2|8,0:0|0:0,0:0:0:0:
184,32,42574,2,0,B|236:24|272:56,1,85
460,128,42938,1,0,0:0:0:0:
364,312,43120,6,2,B|264:328|180:264,1,170,2|8,0:0|0:0,0:0:0:0:
140,184,43665,1,0,0:0:0:0:
199,79,43847,6,0,B|272:180,1,85,2|0,0:0|0:0,0:0:0:0:
381,199,44211,2,0,B|260:212,1,85,8|0,0:0|0:0,0:0:0:0:
186,297,44574,2,0,B|236:184,1,85,10|0,0:0|0:0,0:0:0:0:
264,128,44938,5,0,0:0:0:0:
348,68,45120,1,0,0:0:0:0:
436,124,45302,2,0,B|476:156|468:212,1,85,2|0,0:0|0:0,0:0:0:0:
220,300,45665,2,0,B|180:268|188:212,1,85,10|0,0:0|0:0,0:0:0:0:
92,188,46029,6,0,B|140:88,1,85
216,60,46392,1,2,0:0:0:0:
224,160,46574,1,0,0:0:0:0:
188,256,46756,2,0,B|184:312|240:336,1,85,10|0,0:0|0:0,0:0:0:0:
336,104,47120,6,0,B|340:48|284:24,1,85
196,72,47483,2,0,B|120:116,1,85,2|0,0:0|0:0,0:0:0:0:
64,208,47847,1,10,0:0:0:0:
172,184,48029,1,0,0:0:0:0:
368,208,48211,6,0,B|372:300|276:340,1,170,0|2,0:0|0:0,0:0:0:0:
168,356,48756,2,0,B|164:312|196:280,1,85,0|10,0:0|0:0,0:0:0:0:
252,184,49120,2,0,B|212:160|172:184,1,85
72,236,49483,5,0,0:0:0:0:
68,128,49665,2,0,B|88:88|132:76,1,85,2|0,0:0|0:0,0:0:0:0:
236,56,50029,1,10,0:0:0:0:
340,96,50211,1,0,0:0:0:0:
432,272,50392,6,2,B|372:336|264:312,1,170,2|0,0:0|0:0,0:0:0:0:
188,280,50938,2,0,B|156:312|100:320,2,85,0|8|0,0:0|0:0|0:0,0:0:0:0:
156,192,51483,2,2,B|204:116|308:124,1,170,2|0,0:0|0:0,0:0:0:0:
324,344,52211,5,8,0:0:0:0:
148,180,52574,2,2,B|196:104|300:112,1,170,2|8,0:0|0:0,0:0:0:0:
380,180,53120,1,0,0:0:0:0:
316,272,53302,2,0,B|272:296|224:272,1,85,8|0,0:0|0:0,0:0:0:0:
152,76,53665,5,2,0:0:0:0:
148,80,53847,1,2,0:0:0:0:
144,84,54029,1,2,0:0:0:0:
140,88,54211,1,2,0:0:0:0:
136,92,54392,1,2,0:0:0:0:
132,96,54574,1,2,0:0:0:0:
108,188,54756,6,0,B|80:224,3,42.5
124,244,55120,2,0,B|120:280,14,21.25
124,244,55847,6,0,B|164:204|204:248,1,85,4|0,0:0|0:0,0:0:0:0:
276,324,56211,2,8,B|316:368|356:316,1,85,0|0,0:0|0:0,0:0:0:0:
428,252,56574,1,8,0:0:0:0:
340,184,56756,1,0,0:0:0:0:
412,99,56938,5,0,0:0:0:0:
293,49,57120,1,0,0:0:0:0:
164,60,57302,2,2,B|108:64|92:116|108:164|176:168,1,170,2|8,0:0|0:0,0:0:0:0:
167,167,57847,5,0,0:0:0:0:
244,268,58029,1,0,0:0:0:0:
372,252,58211,1,0,0:0:0:0:
416,132,58392,2,2,B|447:84|413:42|360:27|327:72,1,170,2|8,0:0|0:0,0:0:0:0:
320,336,58938,5,0,0:0:0:0:
400,236,59120,1,0,0:0:0:0:
360,116,59302,1,0,0:0:0:0:
244,68,59483,2,2,B|196:39|153:73|136:120|184:168,1,170,2|8,0:0|0:0,0:0:0:0:
284,256,60029,1,0,0:0:0:0:
404,340,60211,6,0,B|432:300|416:256,1,85,2|0,0:0|0:0,0:0:0:0:
380,124,60574,1,0,0:0:0:0:
380,124,60756,1,0,0:0:0:0:
256,48,60938,1,10,0:0:0:0:
256,48,61120,1,0,0:0:0:0:
132,124,61301,1,0,0:0:0:0:
132,124,61483,1,0,0:0:0:0:
104,264,61665,6,0,B|184:324,1,85,2|0,0:0|0:0,0:0:0:0:
408,264,62029,2,0,B|328:324,1,85,10|0,0:0|0:0,0:0:0:0:
256,244,62392,5,0,0:0:0:0:
256,244,62574,1,0,0:0:0:0:
360,208,62756,2,0,B|388:252|360:288,1,85,2|0,0:0|0:0,0:0:0:0:
152,288,63120,2,8,B|124:252|152:208,1,85,10|0,0:0|0:0,0:0:0:0:
200,64,63483,5,0,0:0:0:0:
308,84,63665,1,0,0:0:0:0:
412,52,63847,2,2,B|460:60|488:107|460:156|412:168,1,170,2|8,0:0|0:0,0:0:0:0:
240,168,64392,6,0,B|204:132,2,42.5
224,296,64756,1,0,0:0:0:0:
100,332,64938,2,2,B|52:324|24:277|52:228|100:216,1,170,2|8,0:0|0:0,0:0:0:0:
272,216,65483,6,0,B|308:252,2,42.5
168,112,65847,1,0,0:0:0:0:
292,40,66029,2,2,B|364:68|296:148|380:176,1,170,2|8,0:0|0:0,0:0:0:0:
460,248,66574,1,0,0:0:0:0:
368,312,66756,6,0,B|316:300|312:248,1,85,2|0,0:0|0:0,0:0:0:0:
184,268,67120,2,0,B|168:216|211:187,1,85,10|0,0:0|0:0,0:0:0:0:
140,84,67483,2,0,B|171:43|223:67,1,85,10|0,0:0|0:0,0:0:0:0:
316,108,67847,5,0,0:0:0:0:
372,204,68029,1,0,0:0:0:0:
284,272,68211,2,2,B|196:212,1,85,2|0,0:0|0:0,0:0:0:0:
228,112,68574,2,2,B|316:172,1,85,10|0,0:0|0:0,0:0:0:0:
380,232,68938,6,2,B|392:292|344:348|276:340,1,170
176,316,69483,1,0,0:0:0:0:
140,216,69665,2,0,B|136:152|196:132,1,85,10|0,0:0|0:0,0:0:0:0:
48,216,70029,2,2,B|36:112|124:64,1,170
220,36,70574,2,0,B|220:128,1,85,0|10,0:0|0:0,0:0:0:0:
220,232,70938,1,0,0:0:0:0:
376,348,71120,6,2,B|460:304|452:204,1,170,2|2,0:0|0:0,0:0:0:0:
436,108,71665,1,0,0:0:0:0:
352,36,71847,2,0,B|288:24|248:52,1,85,10|0,0:0|0:0,0:0:0:0:
124,96,72211,5,0,0:0:0:0:
68,200,72392,2,0,B|164:252,1,85,0|2,0:0|0:0,0:0:0:0:
156,352,72756,2,0,B|64:300,1,85,0|10,0:0|0:0,0:0:0:0:
256,216,73120,5,0,0:0:0:0:
429,310,73302,2,0,B|356:352,1,85
369,240,73665,2,8,B|444:200,1,85,2|0,0:0|0:0,0:0:0:0:
424,72,74029,1,10,0:0:0:0:
424,72,74211,1,0,0:0:0:0:
304,36,74392,6,0,B|268:72|308:112,1,85,0|0,0:0|0:0,0:0:0:0:
208,348,74756,2,0,B|244:312|204:272,1,85,2|0,0:0|0:0,0:0:0:0:
256,192,75120,1,10,0:0:0:0:
256,192,75302,1,0,0:0:0:0:
376,152,75483,6,0,B|404:192|380:232,1,85,2|0,0:0|0:0,0:0:0:0:
230,315,75847,2,0,B|182:320|159:279,1,85,10|0,0:0|0:0,0:0:0:0:
161,108,76211,2,0,B|182:63|228:64,1,85,10|0,0:0|0:0,0:0:0:0:
256,192,76574,1,4,0:0:0:0:
256,192,76665,12,0,80938,0:0:0:0:
256,192,90756,12,4,91847,0:0:0:0:
112,64,92755,6,2,B|48:128|96:232,1,170,0|0,0:0|0:0,0:0:0:0:
148,336,93301,2,0,B|196:336|228:280,1,85,2|8,0:0|0:0,0:0:0:0:
272,216,93664,1,2,0:0:0:0:
248,124,93846,1,8,0:0:0:0:
168,80,94028,6,2,B|128:112|148:168,1,85,2|0,0:0|0:0,0:0:0:0:
344,304,94392,2,2,B|384:272|364:216,1,85,2|0,0:0|0:0,0:0:0:0:
256,64,94755,2,2,B|216:128|308:152|256:228,1,170,2|8,0:0|0:0,0:0:0:0:
204,300,95301,1,0,0:0:0:0:
128,248,95483,6,2,B|100:196|144:156,1,85,2|0,0:0|0:0,0:0:0:0:
384,136,95846,2,2,B|412:188|368:228,1,85,2|0,0:0|0:0,0:0:0:0:
256,320,96210,2,2,B|216:256|308:232|256:156,1,170,2|8,0:0|0:0,0:0:0:0:
204,84,96755,1,0,0:0:0:0:
112,108,96937,6,2,B|60:200,1,85,2|0,0:0|0:0,0:0:0:0:
180,224,97301,2,2,B|176:320,1,85,2|0,0:0|0:0,0:0:0:0:
296,320,97664,2,2,B|340:328|384:300|408:252|392:204,1,170,2|8,0:0|0:0,0:0:0:0:
352,128,98210,1,0,0:0:0:0:
272,76,98392,5,0,0:0:0:0:
184,112,98574,1,0,0:0:0:0:
128,36,98755,1,0,0:0:0:0:
184,112,98937,1,0,0:0:0:0:
144,196,99119,2,2,B|116:236|124:284,1,85,2|0,0:0|0:0,0:0:0:0:
216,292,99483,2,2,B|240:340|292:336,1,85,10|0,0:0|0:0,0:0:0:0:
380,304,99846,5,0,0:0:0:0:
468,240,100028,1,0,0:0:0:0:
380,304,100210,1,0,0:0:0:0:
364,196,100392,1,0,0:0:0:0:
416,100,100574,2,2,B|384:64|340:80,1,85,2|0,0:0|0:0,0:0:0:0:
96,100,100937,2,2,B|128:64|172:80,1,85,10|0,0:0|0:0,0:0:0:0:
256,152,101301,1,0,0:0:0:0:
324,288,101483,6,2,B|300:336|256:336|212:336|188:288,1,170,2|0,0:0|0:0,0:0:0:0:
108,196,102028,2,2,B|133:156|192:152,1,85,2|0,0:0|0:0,0:0:0:0:
260,80,102392,2,0,B|312:68|348:104,1,85,10|0,0:0|0:0,0:0:0:0:
464,236,102755,6,2,B|448:280|400:284,1,85,2|0,0:0|0:0,0:0:0:0:
272,292,103119,2,2,B|228:296|212:344,1,85,2|0,0:0|0:0,0:0:0:0:
96,292,103483,2,2,B|104:224|168:180|220:180,1,170,2|8,0:0|0:0,0:0:0:0:
336,204,104028,1,0,0:0:0:0:
380,84,104210,6,2,B|336:64|292:88,1,85,2|0,0:0|0:0,0:0:0:0:
208,180,104574,2,2,B|192:228|236:264,1,85,2|0,0:0|0:0,0:0:0:0:
368,224,104937,2,2,B|372:176|344:124|300:112|252:124,1,170,2|8,0:0|0:0,0:0:0:0:
128,180,105483,1,0,0:0:0:0:
100,320,105664,6,2,B|124:360|176:356,1,85,2|0,0:0|0:0,0:0:0:0:
316,356,106028,2,2,B|363:359|387:319,1,85,2|0,0:0|0:0,0:0:0:0:
424,152,106392,2,2,B|398:99|356:76|311:84|268:112,1,170,2|8,0:0|0:0,0:0:0:0:
168,148,106937,1,0,0:0:0:0:
260,236,107119,6,0,B|297:278|360:248,1,85,0|8,0:0|0:0,0:0:0:0:
260,236,107483,2,0,B|278:182|220:142,1,85,2|8,0:0|0:0,0:0:0:0:
260,236,107846,2,0,B|204:247|198:316,1,85,0|8,0:0|0:0,0:0:0:0:
84,336,108210,2,2,B|64:236,1,85,2|8,0:0|0:0,0:0:0:0:
48,124,108574,5,0,0:0:0:0:
48,124,108755,1,0,0:0:0:0:
156,56,108937,2,2,B|200:40|240:56,1,85,10|0,0:0|0:0,0:0:0:0:
416,168,109301,2,2,B|372:184|332:168,1,85,2|0,0:0|0:0,0:0:0:0:
132,236,109664,2,2,B|176:252|216:236,1,85,10|0,0:0|0:0,0:0:0:0:
292,340,110028,2,0,B|336:328|356:280,1,85
388,164,110392,6,2,B|388:76,1,85,10|0,0:0|0:0,0:0:0:0:
424,232,110755,2,2,B|504:292,1,85,2|0,0:0|0:0,0:0:0:0:
348,228,111119,2,2,B|264:272,1,85,10|0,0:0|0:0,0:0:0:0:
144,252,111483,1,0,0:0:0:0:
88,136,111664,1,0,0:0:0:0:
180,48,111846,6,2,B|236:52|248:104,1,85,10|0,0:0|0:0,0:0:0:0:
400,136,112210,2,2,B|368:182|317:166,1,85,2|0,0:0|0:0,0:0:0:0:
208,276,112574,2,2,B|183:225|222:189,1,85,10|0,0:0|0:0,0:0:0:0:
284,88,112937,1,0,0:0:0:0:
284,88,113119,1,0,0:0:0:0:
404,48,113301,6,2,B|448:88|428:144,1,85,10|0,0:0|0:0,0:0:0:0:
376,236,113664,2,0,B|360:332,1,85,2|0,0:0|0:0,0:0:0:0:
168,256,114028,1,10,0:0:0:0:
184,160,114210,1,0,0:0:0:0:
352,40,114392,6,0,B|392:80|364:124,1,85
280,260,114755,1,10,0:0:0:0:
200,324,114937,1,0,0:0:0:0:
136,244,115119,1,2,0:0:0:0:
216,180,115301,1,0,0:0:0:0:
372,92,115483,2,2,B|412:124|400:176,1,85,10|0,0:0|0:0,0:0:0:0:
308,348,115846,5,0,0:0:0:0:
240,272,116028,1,0,0:0:0:0:
128,112,116210,2,10,B|164:68|244:64|288:108,1,170,10|0,0:0|0:0,0:0:0:0:
372,192,116755,1,0,0:0:0:0:
248,228,116937,1,10,0:0:0:0:
282,103,117119,1,0,0:0:0:0:
404,76,117301,6,0,B|460:144,1,85
360,316,117664,2,0,B|304:248,1,85,10|0,0:0|0:0,0:0:0:0:
96,216,118028,2,0,B|152:284,1,85
216,112,118392,1,10,0:0:0:0:
144,40,118574,1,0,0:0:0:0:
64,188,118755,5,0,0:0:0:0:
64,208,118846,1,0,0:0:0:0:
68,228,118937,1,0,0:0:0:0:
80,244,119028,1,0,0:0:0:0:
96,260,119119,1,8,0:0:0:0:
116,272,119210,1,0,0:0:0:0:
136,280,119301,1,0,0:0:0:0:
156,280,119392,1,0,0:0:0:0:
176,280,119483,2,0,B|232:280,3,42.5
232,296,119846,2,0,B|272:316,4,42.5,8|0|8|0|4,0:0|0:0|0:0|0:0|0:0,0:0:0:0:
360,296,120392,5,0,0:0:0:0:
396,176,120574,2,0,B|352:84,1,85,10|0,0:0|0:0,0:0:0:0:
152,99,120937,2,0,B|116:176,1,85,2|0,0:0|0:0,0:0:0:0:
160,296,121301,1,10,0:0:0:0:
256,212,121483,1,0,0:0:0:0:
328,108,121664,6,0,B|312:60|248:56,1,85,2|0,0:0|0:0,0:0:0:0:
184,276,122028,2,0,B|200:324|264:328,1,85,10|0,0:0|0:0,0:0:0:0:
272,124,122392,2,0,B|220:100|184:136,1,85,2|0,0:0|0:0,0:0:0:0:
240,260,122755,2,2,B|292:284|328:248,1,85,10|0,0:0|0:0,0:0:0:0:
464,120,123119,5,0,0:0:0:0:
392,48,123301,1,2,0:0:0:0:
232,52,123483,1,8,0:0:0:0:
300,128,123664,1,2,0:0:0:0:
292,288,123846,1,0,0:0:0:0:
220,216,124028,1,2,0:0:0:0:
60,220,124210,1,8,0:0:0:0:
128,296,124391,1,2,0:0:0:0:
292,344,124574,6,0,B|376:344,1,85,0|2,0:0|0:0,0:0:0:0:
200,276,124937,2,0,B|100:276,1,85,8|2,0:0|0:0,0:0:0:0:
264,192,125301,1,0,0:0:0:0:
348,155,125483,1,0,0:0:0:0:
312,69,125664,1,8,0:0:0:0:
225,101,125846,1,8,0:0:0:0:
80,192,126028,6,0,B|72:240|112:276,1,85,2|0,0:0|0:0,0:0:0:0:
264,332,126392,2,0,B|272:284|232:248,1,85,10|0,0:0|0:0,0:0:0:0:
152,108,126755,2,0,B|168:64|228:56,1,85,2|0,0:0|0:0,0:0:0:0:
320,60,127119,1,10,0:0:0:0:
412,108,127301,1,0,0:0:0:0:
348,264,127483,5,2,0:0:0:0:
336,284,127574,1,0,0:0:0:0:
320,296,127664,1,0,0:0:0:0:
300,304,127755,1,0,0:0:0:0:
280,304,127846,1,8,0:0:0:0:
260,296,127937,1,0,0:0:0:0:
244,280,128028,1,0,0:0:0:0:
236,260,128119,1,0,0:0:0:0:
236,240,128210,5,2,0:0:0:0:
232,220,128301,1,0,0:0:0:0:
220,204,128392,1,0,0:0:0:0:
200,192,128483,1,0,0:0:0:0:
180,192,128574,1,8,0:0:0:0:
160,200,128664,1,0,0:0:0:0:
144,212,128755,1,8,0:0:0:0:
132,232,128846,1,0,0:0:0:0:
128,252,128937,1,4,0:0:0:0:
28,172,129119,6,2,B|40:112|96:64|156:64,1,170,2|8,0:0|0:0,0:0:0:0:
264,108,129664,2,0,B|316:112|348:84,2,85,2|0|10,0:0|0:0|0:0,0:0:0:0:
152,172,130210,1,0,0:0:0:0:
276,204,130392,6,2,B|320:212|352:256,1,85,2|0,0:0|0:0,0:0:0:0:
220,272,130755,2,2,B|176:280|144:324,1,85,10|0,0:0|0:0,0:0:0:0:
76,212,131119,2,2,B|120:184|120:116,1,85,2|0,0:0|0:0,0:0:0:0:
176,56,131483,1,8,0:0:0:0:
264,103,131664,1,0,0:0:0:0:
356,284,131846,6,2,B|264:228,1,85,2|0,0:0|0:0,0:0:0:0:
88,200,132210,2,2,B|168:144,1,85,10|0,0:0|0:0,0:0:0:0:
336,56,132574,2,2,B|432:84|428:192,1,170,2|8,0:0|0:0,0:0:0:0:
312,288,133119,5,0,0:0:0:0:
312,288,133210,1,0,0:0:0:0:
312,288,133301,1,2,0:0:0:0:
308,176,133483,1,0,0:0:0:0:
212,228,133664,1,10,0:0:0:0:
220,116,133846,1,0,0:0:0:0:
368,36,134028,2,2,B|464:64|460:172,1,170,2|8,0:0|0:0,0:0:0:0:
440,264,134574,1,0,0:0:0:0:
356,324,134755,5,0,0:0:0:0:
348,324,135119,1,0,0:0:0:0:
340,324,135483,5,0,0:0:0:0:
240,308,135664,1,0,0:0:0:0:
160,244,135846,1,0,0:0:0:0:
116,152,136028,1,0,0:0:0:0:
164,60,136210,6,0,B|208:32|264:60,1,85,4|0,0:0|0:0,0:0:0:0:
340,92,136574,1,2,0:0:0:0:
256,148,136755,1,0,0:0:0:0:
172,208,136937,2,2,B|100:268,1,85,10|0,0:0|0:0,0:0:0:0:
304,284,137301,2,2,B|376:224,1,85,2|0,0:0|0:0,0:0:0:0:
444,160,137664,1,0,0:0:0:0:
444,160,137846,1,0,0:0:0:0:
376,84,138028,6,2,B|354:89|360:64|288:84,1,85,2|0,0:0|0:0,0:0:0:0:
104,160,138392,2,2,B|125:154|120:180|192:160,1,85,10|0,0:0|0:0,0:0:0:0:
348,160,138755,1,2,0:0:0:0:
348,160,138937,1,0,0:0:0:0:
300,68,139119,2,0,B|252:84|256:140,1,85
136,232,139483,6,2,B|64:288,1,85,2|0,0:0|0:0,0:0:0:0:
256,272,139846,2,2,B|256:360,1,85,10|0,0:0|0:0,0:0:0:0:
376,232,140210,2,2,B|448:288,1,85,2|0,0:0|0:0,0:0:0:0:
442,110,140574,1,0,0:0:0:0:
359,50,140755,1,0,0:0:0:0:
184,60,140937,6,2,B|184:112|236:128,1,85,2|0,0:0|0:0,0:0:0:0:
344,252,141301,2,2,B|344:200|292:184,1,85,10|0,0:0|0:0,0:0:0:0:
236,264,141664,2,2,B|160:312,1,85,2|0,0:0|0:0,0:0:0:0:
36,280,142028,2,0,B|112:228,1,85
228,192,142392,5,2,0:0:0:0:
352,216,142574,1,0,0:0:0:0:
436,312,142755,2,2,B|344:332,1,85,10|0,0:0|0:0,0:0:0:0:
159,330,143119,2,2,B|76:312,1,85,2|0,0:0|0:0,0:0:0:0:
40,216,143483,1,0,0:0:0:0:
112,144,143664,1,0,0:0:0:0:
252,48,143846,6,2,B|308:68|292:124|292:124|280:180|340:192,1,170,2|8,0:0|0:0,0:0:0:0:
408,232,144392,1,0,0:0:0:0:
360,324,144574,1,2,0:0:0:0:
272,272,144755,1,0,0:0:0:0:
184,220,144937,6,0,B|120:280,1,85,4|0,0:0|0:0,0:0:0:0:
92,124,145301,1,8,0:0:0:0:
169,58,145483,1,0,0:0:0:0:
328,58,145664,6,0,B|392:118,1,85,4|0,0:0|0:0,0:0:0:0:
388,280,146028,1,8,0:0:0:0:
311,214,146210,1,0,0:0:0:0:
256,88,146392,6,0,B|176:132,1,85,4|0,0:0|0:0,0:0:0:0:
256,88,146755,2,0,B|336:132,1,85,4|0,0:0|0:0,0:0:0:0:
184,246,147119,2,0,B|104:290,1,85,4|0,0:0|0:0,0:0:0:0:
328,246,147483,2,4,B|408:290,1,85
440,68,148028,6,0,B|417:41|368:48,1,63.749998100102
327,65,148392,2,0,B|331:105|351:129,1,63.749998100102
370,177,148755,1,0,0:0:0:0:
393,229,148937,2,0,B|413:269|381:301,1,63.749998100102
333,292,149301,6,0,B|277:332,1,63.749998100102,2|0,0:0|0:0,0:0:0:0:
253,278,149664,2,0,B|185:278,1,63.749998100102,2|0,0:0|0:0,0:0:0:0:
134,296,150028,2,0,B|120:248|148:204|192:196,1,127.500004863739,2|0,0:0|0:0,0:0:0:0:
234,167,150574,6,0,B|308:169,2,63.749998100102,0|2|0,0:0|0:0|0:0,0:0:0:0:
181,144,151119,2,0,B|160:175|190:205,1,63.749998100102,2|0,0:0|0:0,0:0:0:0:
218,250,151483,2,0,B|253:264|310:254|337:220,1,127.499996200204,2|0,0:0|0:0,0:0:0:0:
386,195,152028,5,0,0:0:0:0:
386,195,152210,2,0,B|388:266,1,63.749998100102,2|0,0:0|0:0,0:0:0:0:
338,287,152574,2,2,B|297:339,1,63.749998100102,2|0,0:0|0:0,0:0:0:0:
242,351,152937,2,0,B|187:370|142:337|126:290,1,127.499996200204,2|0,0:0|0:0,0:0:0:0:
97,262,153483,1,0,0:0:0:0:
83,204,153664,6,0,B|83:132,1,63.749998100102,2|0,0:0|0:0,0:0:0:0:
138,86,154028,2,0,B|138:163,1,63.749998100102,2|0,0:0|0:0,0:0:0:0:
190,206,154392,2,0,B|190:134,1,63.749998100102,2|0,0:0|0:0,0:0:0:0:
239,83,154755,2,0,B|239:155,1,63.749998100102,2|0,0:0|0:0,0:0:0:0:
267,225,155119,6,0,B|301:249,3,31.874999050051
340,253,155483,2,0,B|384:240,3,31.874999050051
402,208,155846,2,0,B|411:166,3,31.874999050051,4|0|0|0,0:0|0:0|0:0|0:0,0:0:0:0:
413,138,156210,5,4,0:0:0:0:
404,100,156301,1,0,0:0:0:0:
384,67,156392,1,0,0:0:0:0:
351,46,156483,1,0,0:0:0:0:
312,40,156574,1,4,0:0:0:0:
185,39,156755,6,2,B|139:132|207:216,1,170,2|8,0:0|0:0,0:0:0:0:
286,290,157301,2,0,B|311:246|278:200,2,85,2|0|2,0:0|0:0|0:0,0:0:0:0:
171,347,157846,1,0,0:0:0:0:
97,242,158028,6,2,B|98:149,1,85,2|0,0:0|0:0,0:0:0:0:
229,45,158392,2,2,B|229:137,1,85,2|0,0:0|0:0,0:0:0:0:
250,294,158755,1,2,0:0:0:0:
362,354,158937,1,0,0:0:0:0:
402,232,159119,1,8,0:0:0:0:
330,92,159301,5,0,0:0:0:0:
330,92,159392,1,0,0:0:0:0:
330,92,159483,1,2,0:0:0:0:
204,70,159664,1,0,0:0:0:0:
105,150,159846,2,2,B|190:191,1,85,2|0,0:0|0:0,0:0:0:0:
365,231,160210,2,2,B|280:272,1,85,2|0,0:0|0:0,0:0:0:0:
167,310,160574,1,8,0:0:0:0:
185,141,160755,5,0,0:0:0:0:
185,141,160846,1,0,0:0:0:0:
185,141,160937,1,2,0:0:0:0:
286,63,161119,1,0,0:0:0:0:
408,97,161301,2,2,B|438:146|398:207,1,85,2|0,0:0|0:0,0:0:0:0:
188,335,161664,2,2,B|158:286|198:225,1,85,2|0,0:0|0:0,0:0:0:0:
286,163,162028,2,0,B|326:200|284:258,1,85,8|0,0:0|0:0,0:0:0:0:
176,284,162392,5,4,0:0:0:0:
168,156,162574,1,0,0:0:0:0:
176,284,162755,1,4,0:0:0:0:
64,348,162937,1,0,0:0:0:0:
176,284,163119,1,4,0:0:0:0:
284,348,163301,1,0,0:0:0:0:
412,336,163483,2,0,B|460:320|464:268,1,85,4|0,0:0|0:0,0:0:0:0:
436,148,163846,5,0,0:0:0:0:
360,48,164028,1,0,0:0:0:0:
232,60,164210,2,2,B|184:64|176:120,1,85,2|0,0:0|0:0,0:0:0:0:
220,320,164574,2,2,B|264:308|276:260,1,85,2|0,0:0|0:0,0:0:0:0:
380,88,164937,2,0,B|420:120|412:176,1,85,10|0,0:0|0:0,0:0:0:0:
320,340,165301,5,0,0:0:0:0:
256,208,165483,1,0,0:0:0:0:
192,80,165664,2,2,B|168:40|112:32|72:84|96:132,1,170,2|0,0:0|0:0,0:0:0:0:
116,256,166210,2,0,B|124:292|84:336,2,85,0|10|0,0:0|0:0|0:0,0:0:0:0:
236,136,166755,2,0,B|280:100|320:144,1,85
436,252,167119,6,2,B|459:298|419:350|363:342|339:302,1,170,2|0,0:0|0:0,0:0:0:0:
280,220,167664,1,0,0:0:0:0:
224,308,167846,1,10,0:0:0:0:
172,220,168028,1,0,0:0:0:0:
76,80,168210,2,0,B|112:52|168:76,1,85
324,112,168574,6,2,B|348:160|352:200|328:248|276:264,1,170,2|0,0:0|0:0,0:0:0:0:
172,308,169119,1,0,0:0:0:0:
289,258,169301,1,10,0:0:0:0:
384,348,169483,1,0,0:0:0:0:
428,228,169664,2,0,B|440:172|408:132,1,85
352,36,170028,6,2,B|296:48|296:108,1,85,2|0,0:0|0:0,0:0:0:0:
160,216,170392,2,2,B|216:204|216:144,1,85,2|0,0:0|0:0,0:0:0:0:
156,44,170755,1,10,0:0:0:0:
72,140,170937,1,0,0:0:0:0:
48,264,171119,2,0,B|56:316|124:320,1,85
276,344,171483,6,2,B|344:296|268:224|344:180,1,170,2|0,0:0|0:0,0:0:0:0:
420,100,172028,2,0,B|468:120|484:160,2,85,0|10|0,0:0|0:0|0:0,0:0:0:0:
344,44,172574,5,0,0:0:0:0:
256,72,172755,1,0,0:0:0:0:
236,164,172937,1,10,0:0:0:0:
324,132,173118,1,0,0:0:0:0:
330,245,173301,5,0,0:0:0:0:
223,285,173482,1,0,0:0:0:0:
150,198,173664,1,10,0:0:0:0:
210,98,173845,1,0,0:0:0:0:
356,85,174028,5,0,0:0:0:0:
377,98,174119,1,0,0:0:0:0:
391,119,174210,1,0,0:0:0:0:
395,144,174301,1,0,0:0:0:0:
384,167,174392,1,0,0:0:0:0:
365,184,174483,1,0,0:0:0:0:
340,188,174574,1,0,0:0:0:0:
316,176,174664,1,0,0:0:0:0:
296,160,174755,1,0,0:0:0:0:
276,144,174846,1,0,0:0:0:0:
252,136,174937,1,0,0:0:0:0:
228,140,175028,1,0,0:0:0:0:
204,152,175119,5,8,0:0:0:0:
92,244,175301,1,0,0:0:0:0:
224,304,175483,1,4,0:0:0:0:
