osu file format v12

[General]
AudioFilename: 307 A Witch On A Diet.mp3
AudioLeadIn: 500
PreviewTime: 55847
Countdown: 0
SampleSet: Normal
StackLeniency: 0.7
Mode: 0
LetterboxInBreaks: 1

[Editor]
DistanceSpacing: 1
BeatDivisor: 4
GridSize: 4

[Metadata]
Title:A Witch on a Diet
TitleUnicode:
Artist:SoundTeMP
ArtistUnicode:
Creator:silklash
Version:Hard
Source:Granado Espada
Tags:Kim Junsung ESTi Sword of the New World
BeatmapID:151364
BeatmapSetID:48708

[Difficulty]
HPDrainRate:5
CircleSize:4
OverallDifficulty:5
ApproachRate:6
SliderMultiplier:1.5
SliderTickRate:1

[Events]
//Background and Video events
0,0,"GE.jpg",0,0
//Break Periods
2,24411,31888
2,81138,89706
//Storyboard Layer 0 (Background)
//Storyboard Layer 1 (Fail)
//Storyboard Layer 2 (Pass)
//Storyboard Layer 3 (Foreground)
//Storyboard Sound Samples
//Background Colour Transformations
3,100,163,162,255

[TimingPoints]
1302,363.636363636364,3,1,0,60,1,0
8938,-100,3,1,0,65,0,0
10029,-100,3,1,0,70,0,0
11120,-100,3,1,0,75,0,0
14756,-100,3,1,0,60,0,0
15847,-100,3,1,0,70,0,0
16938,-100,3,1,0,80,0,0
17665,-100,3,1,0,70,0,0
24211,-100,3,2,0,30,0,0
32938,-100,3,1,0,70,0,0
40938,-100,3,1,0,60,0,0
42029,-100,3,1,0,70,0,0
43120,-100,3,1,0,80,0,0
53756,-100,3,2,0,80,0,0
55847,-100,3,1,0,70,0,1
63483,-100,3,1,0,80,0,1
64574,-100,3,1,0,90,0,1
65665,-100,3,1,0,100,0,1
80938,-100,3,1,0,100,0,0
91847,-100,3,1,0,60,0,0
92574,363.636363636364,4,1,0,60,1,0
95755,-100,4,1,0,60,0,0
98392,-100,4,2,0,80,0,0
99119,-100,4,1,0,60,0,0
99846,-100,4,2,0,80,0,0
100574,-100,4,1,0,65,0,0
102755,-100,4,1,0,70,0,0
104210,-100,4,1,0,75,0,0
105664,-100,4,1,0,80,0,0
108574,-100,4,1,0,70,0,0
110392,-100,4,1,0,75,0,0
111846,-100,4,1,0,80,0,0
113301,-100,4,1,0,85,0,0
120392,-100,4,1,0,70,0,0
134755,-100,4,1,0,85,0,0
135483,-100,4,1,0,100,0,0
136210,-100,4,1,0,70,0,0
138028,-100,4,1,0,80,0,0
139483,-100,4,1,0,85,0,0
140937,-100,4,1,0,90,0,0
147846,-133.333333333333,4,2,0,50,0,0
156574,-100,4,1,0,80,0,1
158028,-100,4,1,0,85,0,1
159483,-100,4,1,0,90,0,1
160937,-100,4,1,0,95,0,1
162392,-100,4,1,0,100,0,1
175483,-100,4,1,0,100,0,0

[Colours]
Combo1 : 255,150,0
Combo2 : 170,74,77
Combo3 : 5,5,240
Combo4 : 240,5,5

[HitObjects]
432,56,1302,2,0,P|432:144,1,75
356,124,1665,2,0,P|356:208,1,75
292,244,2029,2,0,B|268:288|200:296,1,75,8|0,0:0|0:0,0:0:0:0:
176,336,2392,2,0,B|148:300|168:248,1,75
88,276,2756,2,2,B|72:228|96:156|136:132,1,150,2|8,0:0|0:0,0:0:0:0:
256,64,3483,5,0,0:0:0:0:
381,142,3847,2,2,B|412:160|436:232|420:280,1,150,2|8,0:0|0:0,0:0:0:0:
344,272,4392,2,0,B|328:312|344:352,2,75
272,244,4938,2,2,B|292:204|328:188|368:188|400:216,1,150,2|8,0:0|0:0,0:0:0:0:
464,180,5483,1,0,0:0:0:0:
420,120,5665,5,0,0:0:0:0:
272,92,6029,1,2,0:0:0:0:
188,216,6392,1,10,0:0:0:0:
284,328,6756,2,0,B|328:268,1,75
396,300,7120,2,0,B|396:212,1,75,2|0,0:0|0:0,0:0:0:0:
472,212,7483,2,0,B|428:152,1,75,10|0,0:0|0:0,0:0:0:0:
380,92,7847,5,0,0:0:0:0:
232,84,8211,2,0,P|216:116|228:160,1,75,2|0,0:0|0:0,0:0:0:0:
260,220,8574,2,0,B|220:240|184:216,1,75,10|0,0:0|0:0,0:0:0:0:
160,288,8938,2,0,B|116:272|108:220,1,75
52,280,9302,2,2,B|16:236|24:172|56:136,1,150,2|8,0:0|0:0,0:0:0:0:
108,84,9847,1,0,0:0:0:0:
172,44,10029,6,0,B|208:88|160:140,1,75
132,172,10392,2,2,B|104:220|128:292|184:296,1,150,2|8,0:0|0:0,0:0:0:0:
244,264,10938,1,0,0:0:0:0:
268,192,11120,2,0,B|304:180|344:192,1,75
404,148,11483,2,2,B|344:204|348:284,1,150,2|8,0:0|0:0,0:0:0:0:
288,328,12029,1,0,0:0:0:0:
216,356,12211,6,0,B|204:316|224:280,1,75
152,252,12574,2,0,B|171:215|211:203,1,75,2|0,0:0|0:0,0:0:0:0:
180,136,12938,2,0,B|220:124|256:144,1,75,2|0,0:0|0:0,0:0:0:0:
328,148,13302,6,0,B|368:148|396:120,1,75
468,108,13665,2,2,B|480:152|456:192|384:216,1,150,2|8,0:0|0:0,0:0:0:0:
160,72,14392,6,0,B|92:120|116:232,1,150,0|2,0:0|0:0,0:0:0:0:
260,184,15120,1,10,0:0:0:0:
352,312,15483,2,0,B|420:264|396:152,1,150,0|2,0:0|0:0,0:0:0:0:
312,56,16211,1,10,0:0:0:0:
160,72,16574,6,0,B|92:120|116:232,1,150,0|2,0:0|0:0,0:0:0:0:
92,280,17120,2,0,B|48:304|20:352,2,75,0|10|0,0:0|0:0|0:0,0:0:0:0:
164,260,17665,1,0,0:0:0:0:
320,92,18029,6,0,B|368:96|408:80,1,75,2|0,0:0|0:0,0:0:0:0:
460,44,18392,2,2,B|408:104|420:200,1,150,10|0,0:0|0:0,0:0:0:0:
192,292,19120,2,0,B|144:288|104:304,1,75,2|0,0:0|0:0,0:0:0:0:
52,340,19483,2,2,B|104:280|92:184,1,150,10|0,0:0|0:0,0:0:0:0:
308,132,20211,5,2,0:0:0:0:
384,260,20574,1,10,0:0:0:0:
256,344,20938,2,2,B|184:324|224:260|152:236,1,150,2|10,0:0|0:0,0:0:0:0:
96,196,21483,1,0,0:0:0:0:
52,136,21665,2,0,B|48:92|80:64,1,75,10|0,0:0|0:0,0:0:0:0:
144,36,22029,1,0,0:0:0:0:
256,192,22120,12,0,24211,0:0:0:0:
132,240,32938,5,0,0:0:0:0:
188,292,33120,1,0,0:0:0:0:
252,332,33302,2,2,B|320:368|412:332,1,150,2|8,0:0|0:0,0:0:0:0:
364,268,33847,1,0,0:0:0:0:
324,204,34029,2,0,B|349:167|392:172,1,75,2|0,0:0|0:0,0:0:0:0:
456,140,34392,2,10,B|428:92|380:80|324:108,1,150,2|8,0:0|0:0,0:0:0:0:
252,112,34938,5,0,0:0:0:0:
180,136,35120,2,0,B|136:152|136:212,1,75,2|0,0:0|0:0,0:0:0:0:
76,148,35483,2,2,B|52:188|60:232|88:264|136:268,1,150,2|8,0:0|0:0,0:0:0:0:
192,296,36029,2,0,B|180:336|124:344,2,75,0|2|0,0:0|0:0|0:0,0:0:0:0:
184,220,36574,2,2,B|200:184|240:176|240:176|272:200|312:180,1,150,2|8,0:0|0:0,0:0:0:0:
384,156,37120,1,0,0:0:0:0:
384,156,37302,5,0,0:0:0:0:
256,80,37665,1,2,0:0:0:0:
244,228,38029,1,10,0:0:0:0:
332,72,38392,5,0,0:0:0:0:
340,252,38756,1,2,0:0:0:0:
180,168,39120,1,10,0:0:0:0:
276,160,39483,6,0,B|356:124,1,75
416,184,39847,2,0,B|336:220,1,75,2|0,0:0|0:0,0:0:0:0:
272,240,40211,2,0,B|180:216,1,75,10|0,0:0|0:0,0:0:0:0:
148,168,40574,1,0,0:0:0:0:
148,168,40756,1,0,0:0:0:0:
192,108,40938,2,2,B|264:84|264:84|348:112,1,150,2|8,0:0|0:0,0:0:0:0:
412,112,41483,6,0,B|400:152|400:152|368:176,1,75,0|0,0:0|0:0,0:0:0:0:
316,220,41847,1,0,0:0:0:0:
316,220,42029,2,2,B|280:264|280:264|232:280|232:280|204:312,1,150,2|8,0:0|0:0,0:0:0:0:
136,276,42574,2,0,B|164:240|164:240|164:208,1,75
100,168,42938,1,0,0:0:0:0:
112,92,43120,2,2,B|156:68|156:68|268:68|268:68,1,150,2|8,0:0|0:0,0:0:0:0:
388,156,43847,6,0,B|424:188|420:228,1,75,2|0,0:0|0:0,0:0:0:0:
352,252,44211,2,0,B|367:297|343:330,1,75,10|0,0:0|0:0,0:0:0:0:
276,296,44574,2,0,B|266:343|229:359,1,75,10|0,0:0|0:0,0:0:0:0:
160,344,44938,5,0,0:0:0:0:
72,128,45302,2,2,B|112:104|112:104|176:100|220:128,1,150,2|10,0:0|0:0,0:0:0:0:
440,152,46029,5,0,0:0:0:0:
252,272,46392,2,2,B|212:304|212:304|148:300|104:272,1,150,2|10,0:0|0:0,0:0:0:0:
112,48,47120,5,0,0:0:0:0:
336,48,47483,2,2,B|360:88|360:88|364:152|348:168|348:168|336:196,1,150,2|10,0:0|0:0,0:0:0:0:
152,320,48211,5,0,0:0:0:0:
64,116,48574,2,2,B|90:146|138:154,1,75,2|0,0:0|0:0,0:0:0:0:
192,104,48938,2,10,B|236:104|276:84,1,75,10|0,0:0|0:0,0:0:0:0:
340,104,49302,5,0,0:0:0:0:
416,316,49665,2,2,B|398:324|398:324|386:308|386:308|352:320|320:344|274:316,1,150,2|10,0:0|0:0,0:0:0:0:
56,320,50392,6,0,B|132:268|132:172,1,150,0|2,0:0|0:0,0:0:0:0:
256,44,51120,1,10,0:0:0:0:
381,195,51483,2,0,B|380:268|456:320,1,150,0|2,0:0|0:0,0:0:0:0:
256,344,52211,1,10,0:0:0:0:
84,192,52574,6,2,B|116:156|156:172|196:176|220:140,1,150,2|8,0:0|0:0,0:0:0:0:
272,88,53120,1,0,0:0:0:0:
336,48,53302,2,0,B|380:40|404:72,1,75,10|0,0:0|0:0,0:0:0:0:
432,140,53665,1,0,0:0:0:0:
256,192,53756,12,0,54756,0:0:0:0:
120,132,55120,5,0,0:0:0:0:
248,52,55483,1,0,0:0:0:0:
392,96,55847,6,0,B|432:136|356:200|396:240,1,150,4|0,0:0|0:0,0:0:0:0:
364,308,56392,1,0,0:0:0:0:
284,312,56574,2,0,B|252:284|260:240,1,75,10|0,0:0|0:0,0:0:0:0:
224,180,56938,2,0,B|176:196|188:268,1,75,2|0,0:0|0:0,0:0:0:0:
112,236,57301,2,2,B|112:176|144:128|188:116,1,150,2|8,0:0|0:0,0:0:0:0:
244,68,57847,6,0,B|288:72|308:108,2,75,0|2|0,0:0|0:0|0:0,0:0:0:0:
180,28,58392,2,2,B|160:56|152:100|200:124|188:180,1,150,2|8,0:0|0:0,0:0:0:0:
160,240,58938,1,0,0:0:0:0:
132,308,59120,1,2,0:0:0:0:
208,300,59301,1,0,0:0:0:0:
284,308,59483,2,2,B|332:296|364:344|428:296|424:260,1,150,2|8,0:0|0:0,0:0:0:0:
436,204,60029,5,0,0:0:0:0:
428,128,60211,2,0,B|360:80,1,75,2|0,0:0|0:0,0:0:0:0:
336,152,60574,2,0,B|252:152,1,75,2|0,0:0|0:0,0:0:0:0:
284,224,60938,2,0,B|216:272,1,75,10|0,0:0|0:0,0:0:0:0:
72,292,61301,6,0,B|140:244,1,75,2|0,0:0|0:0,0:0:0:0:
80,196,61665,2,0,B|168:200,1,75,2|0,0:0|0:0,0:0:0:0:
140,124,62029,2,0,B|204:168,1,75,10|0,0:0|0:0,0:0:0:0:
256,220,62392,5,0,0:0:0:0:
292,284,62574,1,0,0:0:0:0:
332,220,62756,2,0,B|368:196|408:192,1,75,2|0,0:0|0:0,0:0:0:0:
452,136,63120,2,0,B|416:108|368:124,1,75,10|0,0:0|0:0,0:0:0:0:
308,116,63483,2,0,B|268:108|240:72,1,75
180,36,63847,2,2,B|96:32|68:120,1,150,2|8,0:0|0:0,0:0:0:0:
128,164,64392,5,0,0:0:0:0:
192,204,64574,2,0,B|216:248|200:288,1,75,2|0,0:0|0:0,0:0:0:0:
132,304,64938,2,2,B|212:288|276:344,1,150,2|8,0:0|0:0,0:0:0:0:
340,304,65483,2,0,B|384:328|392:368,2,75,0|2|0,0:0|0:0|0:0,0:0:0:0:
300,240,66029,2,2,B|260:160|316:80,1,150,2|8,0:0|0:0,0:0:0:0:
236,64,66574,5,0,0:0:0:0:
172,104,66756,2,0,B|192:144|156:192,1,75,2|0,0:0|0:0,0:0:0:0:
100,212,67120,2,0,B|80:248|96:284,1,75,2|0,0:0|0:0,0:0:0:0:
156,328,67483,2,0,B|192:308|228:328,1,75,10|0,0:0|0:0,0:0:0:0:
304,332,67847,5,0,0:0:0:0:
368,296,68029,1,0,0:0:0:0:
420,244,68211,2,2,B|444:148|376:96,1,150,2|10,0:0|0:0,0:0:0:0:
124,105,68938,6,2,B|68:148|92:244,1,150,2|2,0:0|0:0,0:0:0:0:
116,312,69483,2,0,B|100:352|60:364,2,75,0|10|0,0:0|0:0|0:0,0:0:0:0:
164,256,70029,2,2,B|196:212|260:208|304:224,1,150,2|2,0:0|0:0,0:0:0:0:
372,244,70574,2,0,B|416:252|440:288,2,75,0|10|0,0:0|0:0|0:0,0:0:0:0:
316,292,71120,2,2,B|264:252|256:184|284:128,1,150,2|2,0:0|0:0,0:0:0:0:
288,84,71665,2,0,B|324:64|364:72,2,75,0|10|0,0:0|0:0|0:0,0:0:0:0:
216,108,72211,6,0,B|176:112|176:112|136:136,1,75,2|0,0:0|0:0,0:0:0:0:
120,200,72574,2,0,B|92:224|92:224|72:268,1,75,2|0,0:0|0:0,0:0:0:0:
152,272,72938,2,0,B|216:320,1,75,10|0,0:0|0:0,0:0:0:0:
280,348,73301,6,2,B|336:360|332:272|412:288,1,150,2|0,0:0|0:0,0:0:0:0:
480,264,73847,1,0,0:0:0:0:
480,188,74029,1,10,0:0:0:0:
408,212,74211,1,0,0:0:0:0:
332,216,74392,6,2,B|328:176|356:144|388:136|388:136|388:88,1,150,2|0,0:0|0:0,0:0:0:0:
256,284,75120,1,8,0:0:0:0:
124,92,75483,2,2,B|124:136|124:136|156:144|184:176|180:216,1,150,2|0,0:0|0:0,0:3:0:0:
116,260,76029,2,0,B|96:296|116:336,2,75,0|10|0,0:0|0:0|0:0,0:0:0:0:
184,296,76574,1,0,0:0:0:0:
256,192,76665,12,4,80938,0:0:0:0:
256,192,90756,12,4,91847,0:0:0:0:
128,108,92755,6,2,B|196:132|196:132|288:72,1,150,2|0,0:0|0:0,0:0:0:0:
324,128,93301,2,0,B|272:200,1,75,2|0,0:0|0:0,0:0:0:0:
236,304,93664,2,0,B|304:260,1,75,10|0,0:0|0:0,0:0:0:0:
360,216,94028,5,2,0:0:0:0:
220,104,94392,1,2,0:0:0:0:
128,256,94755,2,2,B|168:260|189:272|176:304|208:312|260:312|292:308,1,150,2|8,0:0|0:0,0:0:0:0:
336,312,95301,2,0,B|376:288|384:240,1,75,0|2,0:0|0:0,0:0:0:0:
316,104,95846,1,2,0:0:0:0:
156,60,96210,2,2,B|192:92|160:128|144:168|172:200,1,150,2|8,0:0|0:0,0:0:0:0:
108,256,96755,2,0,B|128:291|180:292,1,75,0|2,0:0|0:0,0:0:0:0:
320,280,97301,1,2,0:0:0:0:
428,176,97664,2,2,B|424:128|396:100|396:100|352:132|312:108,1,150,2|8,0:0|0:0,0:0:0:0:
260,116,98210,5,0,0:0:0:0:
184,104,98392,2,0,B|132:100|116:48,1,75
44,144,98755,2,0,B|96:148|112:200,1,75
92,256,99119,2,0,B|116:288|116:288|152:293,1,75,2|0,0:0|0:0,0:0:0:0:
264,272,99483,2,0,B|248:240|248:240|204:228,1,75,2|0,0:0|0:0,0:0:0:0:
176,164,99846,6,0,B|184:120|220:104,1,75
294,105,100210,2,0,B|328:120|336:164,1,75
312,236,100574,1,2,0:0:0:0:
312,236,100755,1,0,0:0:0:0:
200,236,100937,1,2,0:0:0:0:
200,236,101118,1,0,0:0:0:0:
132,52,101483,6,2,B|96:88|140:152|96:192,1,150,2|0,0:0|0:0,0:0:0:0:
32,232,102028,2,0,B|44:272|96:272,1,75,2|0,0:0|0:0,0:0:0:0:
156,244,102392,2,0,B|200:244|224:284,1,75,10|0,0:0|0:0,0:0:0:0:
280,324,102755,6,0,B|372:336|404:308|416:268,1,150,2|2,0:0|0:0,0:0:0:0:
400,56,103483,2,2,B|364:64|343:95|344:184,1,150,2|8,0:0|0:0,0:0:0:0:
344,256,104028,2,0,B|348:304|304:328,1,75,0|2,0:0|0:0,0:0:0:0:
88,324,104574,1,2,0:0:0:0:
72,100,104937,2,2,B|112:48|168:116|220:64,1,150,2|8,0:0|0:0,0:0:0:0:
280,40,105483,2,0,B|324:48|336:88,1,75,0|2,0:0|0:0,0:0:0:0:
384,352,106028,1,2,0:0:0:0:
128,264,106392,2,2,B|120:208|180:200|176:124,1,150,2|8,0:0|0:0,0:0:0:0:
224,68,106937,5,0,0:0:0:0:
296,44,107119,2,0,B|336:28|380:44,2,75,2|0|2,0:0|0:0|0:0,0:0:0:0:
336,108,107664,1,0,0:0:0:0:
376,172,107846,2,0,B|336:188|292:172,3,75,2|0|10|0,0:0|0:0|0:0|0:0,0:0:0:0:
124,120,108937,6,0,B|132:160|100:196,1,75,2|0,0:0|0:0,0:0:0:0:
44,232,109301,2,2,B|128:208|196:252,1,150,2|10,0:0|0:0,0:0:0:0:
380,324,110028,1,0,0:0:0:0:
472,136,110392,6,2,B|440:100|428:76|428:76|372:100|324:68,1,150,2|2,0:0|0:0,0:0:0:0:
284,60,110937,2,0,B|236:44|192:68,2,75,0|10|0,0:0|0:0|0:0,0:0:0:0:
354,82,111483,1,0,0:0:0:0:
350,156,111664,1,0,0:0:0:0:
276,140,111846,6,2,B|248:160|212:164|212:164|188:192|200:240,1,150
231,310,112392,1,0,0:0:0:0:
305,297,112574,1,10,0:0:0:0:
273,229,112755,1,0,0:0:0:0:
347,216,112937,2,0,B|384:200|424:216,1,75
476,264,113301,6,2,B|460:288|416:292|408:308|368:264|320:332,1,150,2|2,0:0|0:0,0:0:0:0:
272,344,113846,1,0,0:0:0:0:
204,312,114028,1,10,0:0:0:0:
228,240,114210,1,0,0:0:0:0:
156,220,114392,1,0,0:0:0:0:
108,164,114574,1,0,0:0:0:0:
68,100,114755,6,0,B|65:60|92:28,1,75,2|0,0:0|0:0,0:0:0:0:
143,92,115119,2,0,B|184:108|192:148,1,75,2|0,0:0|0:0,0:0:0:0:
108,164,115483,1,2,0:0:0:0:
108,164,115664,1,0,0:0:0:0:
108,240,115846,1,0,0:0:0:0:
108,240,116028,1,0,0:0:0:0:
108,316,116210,6,2,B|128:356|160:368|244:364,1,150,2|0,0:0|0:0,0:0:0:0:
304,328,116755,2,0,B|392:328,2,75,0|2|0,0:0|0:0|0:0,0:0:0:0:
256,252,117301,6,0,B|244:208|262:167,1,75
280,104,117664,1,10,0:0:0:0:
280,104,117846,1,0,0:0:0:0:
192,44,118028,2,0,B|204:88|185:128,1,75
168,192,118391,1,10,0:0:0:0:
168,192,118573,1,0,0:0:0:0:
244,268,118755,6,0,B|288:288,3,37.5
324,284,119119,2,0,B|372:264,3,37.5,8|0|0|0,0:0|0:0|0:0|0:0,0:0:0:0:
396,240,119483,2,0,B|408:192,3,37.5
392,160,119846,2,0,B|364:120,3,37.5,8|0|8|0,0:0|0:0|0:0|0:0,0:0:0:0:
336,100,120210,5,0,0:0:0:0:
276,52,120392,1,0,0:0:0:0:
204,80,120574,2,0,B|184:160,1,75,10|0,0:0|0:0,0:0:0:0:
236,244,120937,2,0,B|256:164,1,75,2|0,0:0|0:0,0:0:0:0:
284,100,121301,1,10,0:0:0:0:
348,60,121483,1,0,0:0:0:0:
416,96,121664,6,0,B|460:120|448:176,1,75,2|0,0:0|0:0,0:0:0:0:
412,220,122028,2,0,B|368:196|380:140,1,75,10|0,0:0|0:0,0:0:0:0:
280,172,122392,2,0,B|324:196|312:252,1,75,2|0,0:0|0:0,0:0:0:0:
272,296,122756,2,0,B|228:272|240:216,1,75,8|0,0:0|0:0,0:0:0:0:
164,272,123119,5,2,0:0:0:0:
164,272,123301,1,0,0:0:0:0:
92,248,123483,2,0,B|112:212|112:212|144:200,1,75,10|0,0:0|0:0,0:0:0:0:
180,136,123846,2,0,B|180:52,2,75,2|0|8,0:0|0:0|0:0,0:0:0:0:
224,196,124392,1,0,0:0:0:0:
288,240,124574,6,0,B|304:288|276:328,1,75,2|0,0:0|0:0,0:0:0:0:
216,344,124937,2,0,B|168:360|128:332,1,75,10|0,0:0|0:0,0:0:0:0:
88,288,125301,2,0,B|72:240|100:200,1,75,2|0,0:0|0:0,0:0:0:0:
148,168,125664,2,0,B|196:152|236:180,1,75,8|0,0:0|0:0,0:0:0:0:
284,212,126028,6,0,B|344:268,1,75,2|0,0:0|0:0,0:0:0:0:
320,344,126392,2,0,B|260:288,1,75,10|0,0:0|0:0,0:0:0:0:
212,240,126755,2,0,B|144:308,1,75,2|0,0:0|0:0,0:0:0:0:
88,264,127119,2,0,B|152:200,1,75,10|0,0:0|0:0,0:0:0:0:
200,152,127483,6,0,B|248:112,3,37.5,2|0|0|0,0:0|0:0|0:0|0:0,0:0:0:0:
264,116,127846,2,0,B|320:104,3,37.5,8|0|0|0,0:0|0:0|0:0|0:0,0:0:0:0:
336,116,128210,2,0,B|380:132,3,37.5,2|0|0|0,0:0|0:0|0:0|0:0,0:0:0:0:
396,156,128573,2,0,B|420:200,3,37.5,12|0|8|0,0:0|0:0|0:0|0:0,0:0:0:0:
424,236,128937,1,4,0:0:0:0:
424,236,129119,6,2,B|348:248|324:184|264:208,1,150,2|0,0:0|0:0,0:0:0:0:
204,204,129664,2,0,B|148:208|124:256,1,75,2|0,0:0|0:0,0:0:0:0:
196,288,130028,2,0,B|252:272|288:296,1,75,10|0,0:0|0:0,0:0:0:0:
328,336,130392,6,0,B|368:288|340:256|312:220|360:176,1,150,2|10,0:0|0:0,0:0:0:0:
184,48,131119,2,2,B|144:96|172:128|200:164|152:208,1,150,2|8,0:0|0:0,0:0:0:0:
116,272,131664,1,0,0:0:0:0:
200,324,131846,6,0,B|272:324|272:324|368:280,1,150,2|10,0:0|0:0,0:0:0:0:
420,116,132574,2,2,B|340:116|340:116|252:160,1,150,2|8,0:0|0:0,0:0:0:0:
176,112,133119,1,0,0:0:0:0:
88,52,133301,6,0,B|56:80|84:120|56:164|92:200,1,150,2|10,0:0|0:0,0:0:0:0:
424,332,134028,2,2,B|456:304|428:264|456:220|420:184,1,150,2|8,0:0|0:0,0:0:0:0:
256,192,134755,5,0,0:0:0:0:
256,192,135119,1,0,0:0:0:0:
140,288,135483,5,0,0:0:0:0:
88,232,135664,1,0,0:0:0:0:
88,156,135846,1,0,0:0:0:0:
144,104,136028,1,0,0:0:0:0:
368,72,136574,6,0,B|384:108|416:112|436:132,1,75,2|0,0:0|0:0,0:0:0:0:
452,192,136937,2,0,B|360:192|328:296,1,150,2|10,0:0|0:0,0:0:0:0:
116,296,137664,1,0,0:0:0:0:
68,76,138028,6,2,B|128:44|168:112|220:72,1,150,2|0,0:0|0:0,0:0:0:0:
280,116,138574,1,0,0:0:0:0:
356,120,138755,1,10,0:0:0:0:
380,192,138937,1,0,0:0:0:0:
448,228,139119,2,0,B|420:280|380:296,1,75
348,340,139483,6,2,B|248:324|196:268,1,150,2|0,0:0|0:0,0:0:0:0:
148,244,140028,1,0,0:0:0:0:
120,176,140210,1,10,0:0:0:0:
188,144,140392,1,0,0:0:0:0:
226,210,140574,2,0,B|226:254|210:286,1,75
144,316,140937,6,2,B|220:292|308:328,1,150,2|0,0:0|0:0,0:0:0:0:
364,336,141483,1,0,0:0:0:0:
436,320,141664,1,10,0:0:0:0:
432,244,141846,1,0,0:0:0:0:
400,176,142028,2,0,B|368:140|336:124,1,75
276,172,142392,6,0,B|204:224,1,75,2|0,0:0|0:0,0:0:0:0:
136,184,142755,2,0,B|136:272,1,75,2|0,0:0|0:0,0:0:0:0:
52,300,143119,2,0,B|140:348,1,75,10|0,0:0|0:0,0:0:0:0:
208,348,143483,1,0,0:0:0:0:
208,348,143664,1,0,0:0:0:0:
300,348,143846,6,2,B|300:288|300:288|348:252|336:176,1,150,2|8,0:0|0:0,0:0:0:0:
316,124,144392,2,0,B|316:40,2,75,0|2|0,0:0|0:0|0:0,0:0:0:0:
248,184,144937,6,0,B|232:232|176:232,1,75,4|0,0:0|0:0,0:0:0:0:
104,220,145301,1,10,0:0:0:0:
104,220,145483,1,0,0:0:0:0:
112,132,145664,2,0,B|128:84|184:84,1,75,4|0,0:0|0:0,0:0:0:0:
256,104,146028,1,10,0:0:0:0:
256,104,146210,1,0,0:0:0:0:
344,96,146392,6,0,B|404:148,1,75,4|0,0:0|0:0,0:0:0:0:
276,168,146755,2,0,B|216:216,1,75,4|0,0:0|0:0,0:0:0:0:
344,224,147119,2,0,B|404:276,1,75,4|0,0:0|0:0,0:0:0:0:
276,296,147482,2,0,B|216:344,1,75,4|0,0:0|0:0,0:0:0:0:
84,236,148028,6,0,B|36:272,2,56.2499983236194
76,180,148574,2,0,B|112:180|132:136,1,56.2499983236194
160,108,148937,2,0,B|196:116|212:152,1,56.2499983236194
240,184,149301,5,2,0:0:0:0:
304,276,149664,1,2,0:0:0:0:
388,204,150028,2,0,B|424:176|428:128|420:100,1,112.499996647239,2|0,0:0|0:0,0:0:0:0:
421,102,150574,6,0,B|389:82|369:70,1,56.2499983236194,0|2,0:0|0:0,0:0:0:0:
264,44,151119,1,2,0:0:0:0:
156,80,151483,2,0,B|128:116|152:160|152:160|152:196,1,112.499996647239,2|0,0:0|0:0,0:0:0:0:
152,244,152028,6,0,B|152:304,1,56.2499983236194,0|2,0:0|0:0,0:0:0:0:
256,344,152574,1,2,0:0:0:0:
360,296,152937,2,0,B|383:240|360:176,1,112.499996647239,2|0,0:0|0:0,0:0:0:0:
340,132,153483,1,0,0:0:0:0:
304,92,153664,6,0,B|236:92,1,56.2499983236194,2|0,0:0|0:0,0:0:0:0:
192,92,154028,2,0,B|124:92,1,56.2499983236194,2|0,0:0|0:0,0:0:0:0:
64,180,154392,2,0,B|132:180,1,56.2499983236194,2|0,0:0|0:0,0:0:0:0:
176,180,154755,2,0,B|240:180,1,56.2499983236194,2|0,0:0|0:0,0:0:0:0:
308,264,155119,6,0,B|264:264,3,28.1249991618097
252,256,155483,2,0,B|220:232,3,28.1249991618097
216,216,155846,2,0,B|227:173,3,28.1249991618097,4|0|0|0,0:0|0:0|0:0|0:0,0:0:0:0:
238,163,156210,2,0,B|269:138,3,28.1249991618097,4|0|0|0,0:0|0:0|0:0|0:0,0:0:0:0:
296,132,156574,5,4,0:0:0:0:
296,132,156755,2,2,B|360:120|440:48,1,150,2|0,0:0|0:0,0:0:0:0:
484,132,157301,2,0,B|436:168|404:180,1,75,2|0,0:0|0:0,0:0:0:0:
336,204,157664,2,0,B|296:224|256:224,1,75,10|0,0:0|0:0,0:0:0:0:
152,120,158028,6,0,B|96:176|136:260,1,150,2|2,0:0|0:0,0:0:0:0:
360,264,158755,2,2,B|416:208|376:124,1,150,2|8,0:0|0:0,0:0:0:0:
320,56,159301,6,0,B|360:28,2,37.5,0|0|2,0:0|0:0|0:0,0:0:0:0:
144,196,159846,1,2,0:0:0:0:
316,340,160210,2,2,B|368:312|352:272|336:220|404:192,1,150,2|8,0:0|0:0,0:0:0:0:
460,136,160755,5,0,0:0:0:0:
460,136,160937,2,0,B|392:84,1,75,2|0,0:0|0:0,0:0:0:0:
300,144,161301,2,0,B|232:196,1,75,2|0,0:0|0:0,0:0:0:0:
192,268,161664,2,2,B|140:240|156:200|172:148|104:120,1,150,2|8,0:0|0:0,0:0:0:0:
76,92,162210,1,0,0:0:0:0:
148,64,162392,6,0,B|200:64|208:116,1,75,4|0,0:0|0:0,0:0:0:0:
276,128,162755,2,0,B|264:176|204:176,1,75,4|0,0:0|0:0,0:0:0:0:
152,156,163119,2,0,B|132:196|172:232,1,75,4|0,0:0|0:0,0:0:0:0:
236,248,163483,2,0,B|224:292|160:304,1,75,4|0,0:0|0:0,0:0:0:0:
428,88,164210,5,0,0:0:0:0:
380,148,164392,1,0,0:0:0:0:
316,104,164574,2,2,B|232:100|200:188,1,150,2|8,0:0|0:0,0:0:0:0:
184,256,165119,2,0,B|144:284|96:292,2,75,0|0|0,0:0|0:0|0:0,0:0:0:0:
256,240,165664,6,2,B|236:152|144:128,1,150,2|0,0:0|0:0,0:0:0:0:
88,120,166210,1,0,0:0:0:0:
112,192,166392,1,10,0:0:0:0:
161,133,166574,1,0,0:0:0:0:
208,72,166755,2,0,B|248:52|300:64,1,75
388,120,167119,6,2,B|304:112|236:176,1,150,2|0,0:0|0:0,0:0:0:0:
216,232,167664,1,0,0:0:0:0:
280,272,167846,1,10,0:0:0:0:
216,312,168028,1,0,0:0:0:0:
152,272,168210,2,0,B|104:264|92:208,1,75
44,172,168574,6,2,B|116:204|216:188,1,150,2|0,0:0|0:0,0:0:0:0:
264,180,169119,1,0,0:0:0:0:
336,152,169301,1,10,0:0:0:0:
400,112,169483,1,0,0:0:0:0:
452,168,169664,1,0,0:0:0:0:
452,168,169846,1,0,0:0:0:0:
432,240,170028,6,0,B|356:284,1,75,2|0,0:0|0:0,0:0:0:0:
244,272,170392,2,0,B|320:228,1,75,2|0,0:0|0:0,0:0:0:0:
288,160,170755,1,10,0:0:0:0:
220,196,170937,1,0,0:0:0:0:
152,164,171119,2,0,B|148:124|168:76,1,75
252,52,171483,6,2,B|264:116|220:197,1,150,2|0,0:0|0:0,0:0:0:0:
168,252,172028,1,0,0:0:0:0:
108,208,172210,1,10,0:0:0:0:
168,252,172392,1,0,0:0:0:0:
240,272,172574,6,0,B|284:276|328:252,1,75
400,224,172937,1,10,0:0:0:0:
400,224,173119,1,0,0:0:0:0:
428,140,173301,2,0,B|384:136|340:160,1,75
268,180,173664,1,10,0:0:0:0:
268,180,173846,1,0,0:0:0:0:
188,224,174028,6,0,B|160:256,3,37.5
112,200,174392,2,0,B|80:168,3,37.5
132,120,174755,2,0,B|160:92,3,37.5
212,144,175119,2,0,B|244:176,3,37.5
292,220,175483,1,4,0:0:0:0:
