osu file format v12

[General]
AudioFilename: 307 A Witch On A Diet.mp3
AudioLeadIn: 500
PreviewTime: 55847
Countdown: 0
SampleSet: Normal
StackLeniency: 0.7
Mode: 0
LetterboxInBreaks: 1

[Editor]
DistanceSpacing: 1
BeatDivisor: 2
GridSize: 4

[Metadata]
Title:A Witch on a Diet
TitleUnicode:
Artist:SoundTeMP
ArtistUnicode:
Creator:silklash
Version:Easy
Source:Granado Espada
Tags:Kim Junsung ESTi Sword of the New World
BeatmapID:165759
BeatmapSetID:48708

[Difficulty]
HPDrainRate:2
CircleSize:3
OverallDifficulty:2
ApproachRate:3
SliderMultiplier:1
SliderTickRate:1

[Events]
//Background and Video events
0,0,"GE.jpg",0,0
//Break Periods
2,24411,31498
2,81138,88225
2,148046,155497
//Storyboard Layer 0 (Background)
//Storyboard Layer 1 (Fail)
//Storyboard Layer 2 (Pass)
//Storyboard Layer 3 (Foreground)
//Storyboard Sound Samples
//Background Colour Transformations
3,100,163,162,255

[TimingPoints]
1302,363.636363636364,3,1,0,60,1,0
8938,-100,3,1,0,65,0,0
10029,-100,3,1,0,70,0,0
11120,-100,3,1,0,75,0,0
14756,-100,3,1,0,60,0,0
15847,-100,3,1,0,70,0,0
16938,-100,3,1,0,80,0,0
17665,-100,3,1,0,70,0,0
24211,-100,3,2,0,30,0,0
32938,-100,3,1,0,70,0,0
40938,-100,3,1,0,60,0,0
42029,-100,3,1,0,70,0,0
43120,-100,3,1,0,80,0,0
53665,-100,3,2,0,80,0,0
55847,-100,3,1,0,70,0,1
63483,-100,3,1,0,80,0,1
64574,-100,3,1,0,90,0,1
65665,-100,3,1,0,100,0,1
80938,-100,3,1,0,100,0,0
91847,-100,3,1,0,60,0,0
92574,363.636363636364,4,1,0,60,1,0
98392,-100,4,2,0,80,0,0
99119,-100,4,1,0,60,0,0
99846,-100,4,2,0,80,0,0
100574,-100,4,1,0,65,0,0
101301,-100,4,2,0,65,0,0
101664,-100,4,1,0,65,0,0
102755,-100,4,1,0,70,0,0
104210,-100,4,1,0,75,0,0
105664,-100,4,1,0,80,0,0
108574,-100,4,1,0,70,0,0
110392,-100,4,1,0,75,0,0
111846,-100,4,1,0,80,0,0
113301,-100,4,1,0,85,0,0
120392,-100,4,1,0,70,0,0
134755,-100,4,1,0,85,0,0
135483,-100,4,1,0,100,0,0
136210,-100,4,1,0,70,0,0
138028,-100,4,1,0,80,0,0
139483,-100,4,1,0,85,0,0
140937,-100,4,1,0,90,0,0
147846,-100,4,2,0,50,0,0
156574,-100,4,1,0,80,0,1
158028,-100,4,1,0,85,0,1
159483,-100,4,1,0,90,0,1
160937,-100,4,1,0,95,0,1
162392,-100,4,1,0,100,0,1
175483,-100,4,1,0,100,0,0

[Colours]
Combo1 : 255,150,0
Combo2 : 170,74,77
Combo3 : 5,5,240
Combo4 : 240,5,5

[HitObjects]
84,100,1302,2,0,B|180:56|288:100,1,200,0|8,0:0|0:0,0:0:0:0:
244,188,2392,2,0,B|342:228|438:184,1,200,0|8,0:0|0:0,0:0:0:0:
448,284,3483,2,0,B|356:328|260:300|260:300|220:344|160:344,2,300
312,96,6756,1,0,0:0:0:0:
140,248,7847,6,0,B|140:368,2,100,0|0|8,0:0|0:0|0:0,0:0:0:0:
204,172,8938,2,0,B|224:104|304:64|384:88,1,200,0|8,0:0|0:0,0:0:0:0:
356,184,10029,2,0,B|336:252|256:292|176:268,1,200,0|8,0:0|0:0,0:0:0:0:
108,324,11120,2,0,B|108:100,1,200,0|8,0:0|0:0,0:0:0:0:
296,52,12574,5,8,0:0:0:0:
376,112,12938,1,8,0:0:0:0:
444,184,13302,2,0,B|444:296,1,100
352,324,14029,1,8,0:0:0:0:
264,276,14392,6,0,B|164:276,2,100,0|2|10,0:0|0:0|0:0,0:0:0:0:
220,188,15483,2,0,B|320:188,2,100,0|2|10,0:0|0:0|0:0,0:0:0:0:
264,100,16574,2,0,B|164:100,2,100,0|2|10,0:0|0:0|0:0,0:0:0:0:
364,100,17665,5,0,0:0:0:0:
256,332,18756,1,0,0:0:0:0:
148,100,19847,1,0,0:0:0:0:
256,192,20938,6,0,B|292:228|292:228|348:228,1,100,0|8,0:0|0:0,0:0:0:0:
440,228,21665,1,8,0:0:0:0:
388,316,22029,1,4,0:0:0:0:
256,192,22392,12,0,24211,0:0:0:0:
168,68,32938,6,0,B|60:68,2,100,0|2|10,0:0|0:0|0:0,0:0:0:0:
264,100,34029,1,0,0:0:0:0:
344,160,34392,2,2,B|384:184|400:216|384:264|350:280|350:280|292:280,1,200,2|0,0:0|0:0,0:0:0:0:
212,332,35483,2,2,B|136:332|104:332|104:332|72:296|72:296|72:240,1,200,2|0,0:0|0:0,0:0:0:0:
72,152,36574,2,2,B|136:152|136:152|168:184|168:184|280:184,1,200,2|0,0:0|0:0,0:0:0:0:
448,264,38392,1,0,0:0:0:0:
240,320,39483,6,0,B|136:320,2,100,0|2|2,0:0|0:0|0:0,0:0:0:0:
328,272,40574,1,0,0:0:0:0:
392,200,40938,2,2,B|392:96|392:96|360:56|288:64,1,200,2|0,0:0|0:0,0:0:0:0:
272,160,42029,2,2,B|272:224|272:224|208:264|208:264|144:248,1,200,2|0,0:0|0:0,0:0:0:0:
168,152,43120,2,2,B|168:80|168:80|216:40|216:40|288:40,1,200,2|0,0:0|0:0,0:0:0:0:
368,88,44211,1,10,0:0:0:0:
368,184,44574,1,10,0:0:0:0:
328,280,44938,6,0,B|280:280|280:280|240:312,2,100,4|2|10,0:0|0:0|0:0,0:0:0:0:
128,240,46392,2,0,B|168:208|168:208|216:208,1,100,2|10,0:0|0:0,0:0:0:0:
24,160,47483,2,0,B|64:128|64:128|112:128,1,100,2|10,0:0|0:0,0:0:0:0:
208,96,48211,1,0,0:0:0:0:
304,64,48574,2,0,B|304:168,1,100,2|10,0:0|0:0,0:0:0:0:
256,248,49301,6,0,B|256:288|256:288|264:296|264:296|264:344,2,100,0|2|10,0:0|0:0|0:0,0:0:0:0:
256,144,50392,1,0,0:0:0:0:
152,328,51483,1,0,0:0:0:0:
360,328,52574,1,0,0:0:0:0:
256,192,53665,12,4,55847,0:0:0:0:
80,208,56938,6,0,B|80:264,2,50,2|0|2,0:0|0:0|0:0,0:0:0:0:
256,120,58029,2,0,B|256:64,2,50,2|0|2,0:0|0:0|0:0,0:0:0:0:
432,208,59120,2,0,B|432:264,2,50,2|0|2,0:0|0:0|0:0,0:0:0:0:
278,79,60211,2,2,B|241:102|188:109|188:109|203:162|188:221,1,200,2|8,0:0|0:0,0:0:0:0:
233,304,61301,2,2,B|270:281|323:274|323:274|308:221|323:162,1,200,2|8,0:0|0:0,0:0:0:0:
384,88,62392,6,0,B|424:120|424:120|424:176,2,100,4|2|10,0:0|0:0|0:0,0:0:0:0:
288,64,63483,1,0,0:0:0:0:
192,72,63847,2,2,B|88:112|96:232,1,200,2|0,0:0|0:0,0:0:0:0:
176,288,64938,2,2,B|200:232|256:232|312:232|336:288,1,200,2|0,0:0|0:0,0:0:0:0:
416,232,66029,2,2,B|424:112|320:72,1,200,2|0,0:0|0:0,0:0:0:0:
272,160,67120,2,0,B|324:184|316:244,1,100,2|10,0:0|0:0,0:0:0:0:
216,240,67847,5,4,0:0:0:0:
120,280,68211,2,0,B|120:160,1,100,2|10,0:0|0:0,0:0:0:0:
256,32,69301,2,0,B|256:152,1,100,2|10,0:0|0:0,0:0:0:0:
392,280,70392,2,0,B|392:160,1,100,2|10,0:0|0:0,0:0:0:0:
256,328,71483,2,0,B|256:272,2,50,2|0|10,0:0|0:0|0:0,0:0:0:0:
208,136,72574,2,0,B|256:120|256:120|304:136,1,100,2|10,0:0|0:0,0:0:0:0:
400,168,73301,6,2,B|384:264|384:264|336:272|304:328,1,200,2|8,0:0|0:0,0:0:0:0:
206,325,74392,2,2,B|176:272|128:264|128:264|112:168,1,200,2|8,0:0|0:0,0:0:0:0:
176,96,75483,2,2,B|256:155|256:155|336:96,1,200,2|8,0:0|0:0,0:0:0:0:
256,40,76574,1,4,0:0:0:0:
256,192,76938,12,4,80938,0:0:0:0:
256,192,89665,12,4,91847,0:0:0:0:
352,120,92755,6,2,B|264:144|220:64,1,150
140,124,93664,1,0,0:0:0:0:
112,220,94028,2,0,B|88:272|128:320,1,100,2|2,0:0|0:0,0:0:0:0:
224,320,94755,2,2,B|288:344|368:280|352:208,1,200,2|2,0:0|0:0,0:0:0:0:
256,224,95846,1,2,0:0:0:0:
160,232,96210,2,2,B|144:163|224:99|288:123,1,200
384,144,97301,1,2,0:0:0:0:
480,160,97664,2,2,B|496:91|416:27|352:51,1,200,2|0,0:0|0:0,0:0:0:0:
152,72,99119,6,0,B|152:184,1,100,2|2,0:0|0:0,0:0:0:0:
152,272,99846,1,0,0:0:0:0:
336,344,100574,2,0,B|336:232,1,100,2|2,0:0|0:0,0:0:0:0:
336,144,101301,1,0,0:0:0:0:
152,64,102028,6,0,B|104:80|96:144,1,100,2|10,0:0|0:0,0:0:0:0:
152,224,102755,2,0,B|200:208|208:144,1,100,2|2,0:0|0:0,0:0:0:0:
288,88,103483,2,2,B|336:88|336:88|384:152|336:232,1,200,2|2,0:0|0:0,0:0:0:0:
272,304,104574,1,2,0:0:0:0:
176,328,104937,2,2,B|129:354|69:342|36:291|43:238,1,200
64,144,106028,1,2,0:0:0:0:
152,104,106392,2,2,B|224:40|272:144|344:96,1,200
440,80,107483,5,10,0:0:0:0:
408,176,107846,1,8,0:0:0:0:
376,272,108210,1,10,0:0:0:0:
176,272,108937,6,0,B|72:272,2,100,10|2|10,0:0|0:0|0:0,0:0:0:0:
256,208,110028,1,0,0:0:0:0:
336,144,110392,2,0,B|416:72,2,100,10|2|10,0:0|0:0|0:0,0:0:0:0:
256,208,111483,1,0,0:0:0:0:
176,144,111846,6,0,B|96:72,2,100,10|2|10,0:0|0:0|0:0,0:0:0:0:
256,208,112937,1,0,0:0:0:0:
336,272,113301,2,0,B|436:272,2,100,10|2|10,0:0|0:0|0:0,0:0:0:0:
256,336,114392,1,0,0:0:0:0:
168,288,114755,6,0,B|128:256|128:256|128:208,1,100,8|2,0:0|0:0,0:0:0:0:
184,120,115483,2,0,B|224:152|224:152|224:200,1,100,10|0,0:0|0:0,0:0:0:0:
272,288,116210,2,0,B|304:328|304:328|352:328,2,100,10|2|10,0:0|0:0|0:0,0:0:0:0:
352,232,117301,1,0,0:0:0:0:
420,156,117664,6,2,B|356:76|292:180|220:92,1,200,10|0,0:0|0:0,0:0:0:0:
52,188,119119,2,2,B|116:268|180:164|252:252,1,200,10|0,0:0|0:0,0:0:0:0:
296,320,120210,6,0,B|400:320,1,100,4|10,0:0|0:0,0:0:0:0:
448,240,120937,2,0,B|344:240,1,100,0|10,0:0|0:0,0:0:0:0:
272,176,121664,1,2,0:0:0:0:
200,104,122028,1,10,0:0:0:0:
120,40,122392,6,2,B|88:96|88:176|120:232,1,200,2|2,0:0|0:0,0:0:0:0:
168,320,123483,1,10,0:0:0:0:
264,320,123846,2,2,B|296:264|296:184|264:128,1,200
344,64,124937,1,10,0:0:0:0:
444,64,125301,2,2,B|412:120|412:200|444:256,1,200
256,320,126755,6,0,B|256:216,1,100,10|2,0:0|0:0,0:0:0:0:
168,176,127483,1,0,0:0:0:0:
168,80,127846,1,10,0:0:0:0:
256,32,128210,1,0,0:0:0:0:
344,80,128574,1,10,0:0:0:0:
344,176,128937,1,0,0:0:0:0:
160,256,129664,6,0,B|136:208|160:160,1,100,0|10,0:0|0:0,0:0:0:0:
216,80,130392,2,0,B|248:40|248:40|296:40,1,100,2|10,0:0|0:0,0:0:0:0:
392,64,131119,2,2,B|456:112|456:112|400:184|408:224,1,200,2|2,0:0|0:0,0:0:0:0:
368,312,132210,1,10,0:0:0:0:
272,344,132574,6,2,B|72:344,1,200,2|2,0:0|0:0,0:0:0:0:
120,256,133664,1,10,0:0:0:0:
192,184,134028,2,2,B|392:184,1,200
224,72,135483,6,0,B|120:72,2,100,0|0|4,0:0|0:0|0:0,0:0:0:0:
416,128,136937,6,0,B|416:232,1,100,2|10,0:0|0:0,0:0:0:0:
352,304,137664,1,0,0:0:0:0:
264,344,138028,2,2,B|184:344|184:344|168:344|144:336|128:312|128:296|128:296|128:224,1,200,2|0,0:0|0:0,0:0:0:0:
128,152,139119,1,0,0:0:0:0:
192,72,139483,6,2,B|240:48|272:80|288:128|376:136,1,200,2|0,0:0|0:0,0:0:0:0:
456,192,140574,1,0,0:0:0:0:
371,248,140937,2,2,B|288:256|272:304|240:336|192:312,1,200,2|0,0:0|0:0,0:0:0:0:
96,280,142028,1,0,0:0:0:0:
112,184,142392,6,0,B|80:184|72:192|72:192|72:176|72:176|64:184|32:184,2,100,2|2|10,0:0|0:0|0:0,0:0:0:0:
216,184,143483,1,0,0:0:0:0:
280,104,143846,2,2,B|328:128|352:184|328:240|280:264,1,200,2|8,0:0|0:0,0:0:0:0:
192,312,144937,5,4,0:0:0:0:
112,128,145664,1,4,0:0:0:0:
296,48,146392,2,0,B|296:152,1,100,4|4,0:0|0:0,0:0:0:0:
384,104,147119,2,0,B|384:224,1,100,4|4,0:0|0:0,0:0:0:0:
384,304,147846,1,4,0:0:0:0:
120,72,156937,6,2,B|72:168|120:264,1,200,2|8,0:0|0:0,0:0:0:0:
216,224,158028,2,0,B|248:272|216:320,2,100,2|2|2,0:0|0:0|0:0,0:0:0:0:
282,149,159119,1,8,0:0:0:0:
348,74,159483,6,0,B|393:43|441:75,2,100,2|2|2,0:0|0:0|0:0,0:0:0:0:
392,164,160574,1,8,0:0:0:0:
348,250,160937,2,0,B|393:280|441:248,2,100,2|2|2,0:0|0:0|0:0,0:0:0:0:
248,256,162028,1,8,0:0:0:0:
167,196,162392,6,0,B|167:92,1,100,4|4,0:0|0:0,0:0:0:0:
256,48,163119,2,0,B|256:152,1,100,4|4,0:0|0:0,0:0:0:0:
343,196,163846,1,4,0:0:0:0:
193,329,164574,6,0,B|137:329|105:273,1,100,2|10,0:0|0:0,0:0:0:0:
85,184,165301,1,0,0:0:0:0:
105,86,165664,2,2,B|137:54|193:30|257:38|297:62,1,200,2|8,0:0|0:0,0:0:0:0:
370,119,166755,1,0,0:0:0:0:
464,151,167119,6,2,B|456:215|408:239|344:247|312:199,1,200,2|8,0:0|0:0,0:0:0:0:
228,152,168210,1,0,0:0:0:0:
128,152,168574,2,2,B|96:176|64:240|96:304|128:328,1,200,2|8,0:0|0:0,0:0:0:0:
228,328,169664,1,0,0:0:0:0:
316,276,170028,6,0,B|364:276|364:276|372:268|372:268|412:268,2,100,10|2|10,0:0|0:0|0:0,0:0:0:0:
224,232,171119,1,0,0:0:0:0:
176,144,171483,2,2,B|192:120|224:112|256:120|272:144|296:160|328:160|352:144|368:136,1,200,2|8,0:0|0:0,0:0:0:0:
320,48,172574,5,4,0:0:0:0:
424,216,173301,1,4,0:0:0:0:
256,320,174028,2,0,B|256:216,1,100,4|4,0:0|0:0,0:0:0:0:
168,168,174755,2,0,B|168:280,1,100,4|4,0:0|0:0,0:0:0:0:
80,320,175483,1,4,0:0:0:0:
