osu file format v5

[General]
AudioFilename: Seal The Love.mp3
AudioLeadIn: 0
PreviewTime: -1
Countdown: 1
SampleSet: Normal
StackLeniency: 0.7
Mode: 0
LetterboxInBreaks: 1

[Metadata]
Title:Seal The Love
Artist:Sound TeMP
Creator:kioukiou
Version:Normal
Source:
Tags:

[Difficulty]
HPDrainRate:4
CircleSize:3
OverallDifficulty:5
SliderMultiplier:1.4
SliderTickRate:2

[Events]
//Background and Video events
0,0,"seal.jpg"
//Break Periods
//Storyboard Layer 0 (Background)
//Storyboard Layer 1 (Failing)
//Storyboard Layer 2 (Passing)
//Storyboard Layer 3 (Foreground)
//Storyboard Sound Samples
//Background Colour Transformations
3,100,163,162,255

[TimingPoints]
56,428.571428571429,4,1,0,90,1

[HitObjects]
96,192,13770,1,0
96,192,14198,2,0,L|152:136,1,70
384,56,15270,1,0
256,56,15698,1,0
256,184,16127,2,2,B|360:184,2,70
376,328,17198,5,0
248,328,17627,1,0
120,328,18056,1,0
120,200,18484,2,0,B|120:280,1,70,0|0
184,272,18913,2,0,B|184:168,1,70,0|0
248,200,19341,2,0,B|248:304,1,70,0|0
312,280,19770,2,2,B|312:128,1,140,2|2
184,112,20627,6,0,B|248:32|304:128,1,140
295,114,21270,1,0
416,112,21698,1,0
416,304,22341,1,0
288,304,22770,1,0
160,304,23198,1,0
160,176,23627,1,0
160,176,24056,2,4,L|280:176,1,105
256,192,24806,12,4,27056
112,272,28341,5,0
112,144,28770,1,0
232,144,29198,1,0
224,272,29627,2,0,B|296:272,2,70
352,272,30484,1,0
352,144,30913,1,0
352,144,31127,2,0,B|352:88,1,35
272,56,31770,5,0
144,56,32198,1,0
144,184,32627,1,0
144,312,33056,1,0
144,312,33270,2,2,B|224:328|280:288,1,140
328,256,33913,2,2,B|344:184|248:120,1,140
160,72,34770,1,0
288,72,35198,5,0
288,200,35627,1,0
160,200,36056,1,0
160,328,36484,1,0
288,328,36913,2,0,B|432:328,1,140
424,200,37770,2,0,B|280:200,1,140
284,200,38413,1,0
160,200,38841,1,0
32,200,39270,1,0
32,72,39698,1,0
160,72,40127,1,4
456,304,41413,5,0
456,304,41627,2,0,B|400:360,2,70
368,208,42484,1,0
448,112,42913,1,0
320,104,43341,1,0
320,104,43556,1,0
320,104,43770,1,0
192,96,44198,1,0
96,176,44627,2,0,B|248:176,1,140
328,256,45484,1,0
200,256,45913,1,0
264,360,46341,1,0
392,360,46770,5,0
392,232,47198,1,0
392,104,47627,2,2,B|240:104,2,140
288,184,48913,2,8,B|224:232,1,70,8|8
280,272,49341,2,8,B|352:216,1,70
376,280,49770,2,8,B|280:352,1,105
200,312,50413,1,0
88,256,50841,1,0
88,256,51055,1,0
88,256,51270,1,0
88,256,51484,2,2,B|144:176|208:176,3,140
304,104,53198,5,0
432,104,53627,1,0
432,232,54055,1,0
304,232,54484,1,0
176,232,54913,1,0
176,232,55127,2,0,B|176:136,3,70
176,32,56198,1,0
304,32,56627,1,0
304,160,57055,2,0,B|304:80,2,70
176,160,57913,1,0
200,280,58341,5,0
200,280,58555,2,0,B|280:280,2,70
72,280,59413,1,0
72,152,59841,1,0
176,80,60270,1,0
176,80,60484,1,0
176,80,60698,1,0
304,88,61127,1,0
392,176,61555,1,0
296,256,61984,5,0
296,256,62198,1,0
296,256,62413,1,0
296,256,62627,2,0,B|144:256,1,140,8|8
152,128,63484,1,8
280,128,63913,1,0
280,128,64127,1,0
280,256,64555,1,0
280,256,64770,1,0
280,256,64984,1,0
280,256,65198,2,2,B|112:256,2,140
384,184,66484,5,0
384,184,66913,2,2,B|216:184,2,140
368,56,68198,5,0
240,56,68627,1,0
128,128,69055,1,0
112,256,69484,1,0
112,256,69698,1,0
112,256,69913,1,0
240,256,70341,1,0
240,256,70555,1,0
240,256,70770,2,0,B|320:304|392:264,3,140
376,144,72484,5,0
248,144,72913,1,0
168,48,73341,1,0
80,144,73770,1,0
80,144,73984,2,0,B|80:288,1,140
200,272,74841,1,0
392,272,75484,5,0
392,272,75698,2,0,B|392:128,1,140
392,132,76341,1,8
264,128,76770,1,8
168,40,77198,1,8
296,32,77627,1,0
296,32,77841,1,0
424,32,78270,2,0,B|424:112,2,70
424,160,79127,5,4
416,288,79555,1,0
416,288,79770,2,0,B|264:288,1,140
152,288,80627,1,0
64,192,81055,1,0
152,104,81484,1,0
240,192,81913,2,0,B|416:192,3,140,0|0|0|4
168,72,84055,5,0
168,72,84484,2,0,B|168:176,1,70
400,240,85555,2,0,B|328:240,1,70
328,176,85984,2,0,B|416:176,1,70
400,112,86413,2,0,B|240:112,1,140
256,296,87484,5,0
128,288,87913,1,0
128,160,88341,1,0
112,32,88770,2,8,B|168:80,1,70
192,16,89198,2,8,B|248:64,1,70
280,8,89627,2,8,B|336:56,1,70
368,0,90055,2,2,B|488:96,1,140,2|2
440,208,90913,1,0
440,208,91127,1,0
440,208,91341,2,0,B|296:208,2,140
432,80,92627,5,0
304,80,93055,1,0
176,80,93484,1,0
176,80,93913,1,0
48,88,94341,1,0
48,88,94555,1,0
48,88,94770,1,0
48,88,94984,2,2,B|176:192,3,140
156,176,96484,1,0
152,304,96913,1,0
280,304,97341,5,0
280,176,97770,1,0
280,176,98198,2,0,B|184:176,2,70
400,128,99055,1,0
296,48,99484,1,0
168,48,99913,1,0
72,136,100341,1,0
72,136,100555,1,0
72,136,100770,1,0
128,248,101198,5,0
224,328,101627,1,0
248,200,102055,1,0
136,144,102484,2,0,B|184:72,1,70
208,136,102913,2,0,B|256:64,1,70
280,128,103341,2,0,B|328:56,1,70
384,64,103770,2,0,B|296:216,1,140
288,312,104627,5,0
160,312,105055,1,0
160,312,105270,2,0,B|160:160,1,140
344,152,106341,1,0
344,152,106555,1,0
344,152,106770,2,0,B|264:152,1,70
144,152,107413,1,0
144,152,107627,1,0
144,152,107841,2,0,B|144:256,1,70
144,312,108377,2,0,B|264:312,1,105
249,312,108913,5,0
248,184,109341,1,0
248,56,109770,1,0
376,56,110198,1,0
376,56,110413,1,0
376,56,110627,1,0
256,192,110841,12,0,112341
