osu file format v8

[General]
AudioFilename: Sound Online feat. Mizawa Aki - Nostalgia.mp3
AudioLeadIn: 1500
PreviewTime: 106741
Countdown: 0
SampleSet: Soft
StackLeniency: 0.3
Mode: 0
LetterboxInBreaks: 0

[Editor]
Bookmarks: 11926,23778,35630,47482,59334,71186,83037,94889,106741,118593,130445,142297,154149,166000,177852,189704,201556,213408
DistanceSpacing: 1.5
BeatDivisor: 4
GridSize: 8

[Metadata]
Title:Nostalgia
Artist:Sound Online feat. Mizawa Aki
Creator:Neethime
Version:Collab
Source:Touhou
Tags:Pokie C76 Last Remote Komeiji Koishi

[Difficulty]
HPDrainRate:7
CircleSize:4
OverallDifficulty:7
ApproachRate:7
SliderMultiplier:1.5
SliderTickRate:0.5

[Events]
//Background and Video events
0,0,"BG.jpg"
//Break Periods
2,133621,141410
//Storyboard Layer 0 (Background)
//Storyboard Layer 1 (Fail)
//Storyboard Layer 2 (Pass)
//Storyboard Layer 3 (Foreground)
Sprite,Foreground,Centre,"SB\BG1.png",320,240 F,1,10458,11939,0,1 F,0,11939,12310,1,0
Sprite,Foreground,Centre,"SB\BG1.png",320,240 F,1,22310,23791,0,1 F,0,23791,24162,1,0
Sprite,Foreground,Centre,"SB\BG1.png",320,240 F,1,46013,47495,0,1 F,0,47495,47865,1,0
Sprite,Foreground,Centre,"SB\BG1.png",320,240 F,1,140828,142310,0,1 F,0,142310,142680,1,0
Sprite,Foreground,Centre,"SB\Black.png",320,240 F,0,-1987,11939,0.5 F,0,11939,11940,0.5,0.25 F,0,11940,23791,0.25
Sprite,Foreground,Centre,"SB\Black.png",320,240 F,0,44532,47495,0,0.35 F,0,47495,56384,0.35 F,0,56384,59347,0.35,0
Sprite,Foreground,Centre,"SB\Black.png",320,240 F,0,130458,133421,0,0.5 F,0,133421,140828,0.5 F,0,140828,142310,0.5,0
Sprite,Foreground,Centre,"SB\LIGHT03.png",320,240 F,1,133421,134162,0,1 R,0,133421,134162,0,-0.3 S,0,133421,140828,0.7 F,0,134162,134902,1,0.25 R,0,134162,134902,-0.3,-0.6 F,1,134902,135643,0.25,1 R,0,134902,135643,-0.6,-0.9 F,0,135643,136384,1,0.25 R,0,135643,136384,-0.9,-1.2 F,1,136384,137125,0.25,1 R,0,136384,137125,-1.2,-1.5 F,0,137125,137865,1,0.25 R,0,137125,137865,-1.5,-1.8 F,1,137865,138606,0.25,1 R,0,137865,138606,-1.8,-2.1 F,0,138606,139347,1,0.25 R,0,138606,139347,-2.1,-2.4 F,1,139347,140087,0.25,1 R,0,139347,140087,-2.4,-2.7 F,0,140087,140828,1,0.25 R,0,140087,140828,-2.7,-3 F,1,140828,141013,0.25,1 S,2,140828,141569,0.7,3.5 R,2,140828,141569,-3,-3.6 F,0,141013,141569,1,0
Sprite,Foreground,Centre,"SB\title.png",320,240 F,1,133421,134162,0,1 M,0,133421,142310,290,184,320,184 F,0,134162,140828,1 F,1,140828,142310,1,0
Sprite,Foreground,Centre,"SB\artist.png",320,240 F,1,136384,137125,0,1 M,0,136384,142310,358,296,338,296 F,0,137125,140828,1 F,1,140828,142310,1,0
Sprite,Foreground,Centre,"SB\White.png",320,240 F,1,11939,13421,0.3,0
Sprite,Foreground,Centre,"SB\White.png",320,240 F,1,23791,26013,0.3,0
Sprite,Foreground,Centre,"SB\White.png",320,240 F,1,47495,48976,0.4,0
Sprite,Foreground,Centre,"SB\White.png",320,240 F,1,59347,60828,0.4,0
Sprite,Foreground,Centre,"SB\White.png",320,240 F,1,83050,86013,0.3,0
Sprite,Foreground,Centre,"SB\White.png",320,240 F,0,106754,108236,0.4,0
Sprite,Foreground,Centre,"SB\White.png",320,240 F,0,118606,120087,0.4,0
Sprite,Foreground,Centre,"SB\White.png",320,240 F,1,142310,143791,0.3,0
Sprite,Foreground,Centre,"SB\White.png",320,240 F,0,166013,168976,0.3,0
Sprite,Foreground,Centre,"SB\White.png",320,240 F,0,189717,191199,0.4,0
Sprite,Foreground,Centre,"SB\White.png",320,240 F,0,201569,203050,0.4,0
Sprite,Foreground,Centre,"Lyrics\L1-1.png",320,240 F,1,23791,24532,0,1 M,0,23791,33421,550,170,550,196 F,0,24532,32680,1 F,0,32680,33421,1,0
Sprite,Foreground,Centre,"Lyrics\L1-2.png",320,240 F,1,29347,30087,0,1 M,0,29347,33421,500,281,500,270 F,0,30087,32680,1 F,0,32680,33421,1,0
Sprite,Foreground,Centre,"Lyrics\L1-3.png",320,240 F,1,35643,36384,0,1 M,0,35643,46754,550,195,550,225 F,0,36384,46013,1 F,0,46013,46754,1,0
Sprite,Foreground,Centre,"Lyrics\L1-4.png",320,240 F,1,41199,41939,0,1 M,0,41199,46754,500,295,500,280 F,0,41939,46013,1 F,0,46013,46754,1,0
Sprite,Foreground,Centre,"Lyrics\L2-1.png",320,240 F,1,59347,60087,0,1 M,0,59347,70458,550,195,550,225 F,0,60087,69717,1 F,1,69717,70458,1,0
Sprite,Foreground,Centre,"Lyrics\L2-2.png",320,240 F,1,64902,65643,0,1 M,0,64902,70458,500,340,500,325 F,0,65643,69717,1 F,1,69717,70458,1,0
Sprite,Foreground,Centre,"Lyrics\L2-3.png",320,240 F,1,71199,71939,0,1 M,0,71199,82310,550,195,550,225 F,0,71939,81569,1 F,1,81569,82310,1,0
Sprite,Foreground,Centre,"Lyrics\L2-4.png",320,240 F,1,76754,77495,0,1 M,0,76754,82310,500,320,500,305 F,0,77495,81569,1 F,1,81569,82310,1,0
Sprite,Foreground,Centre,"Lyrics\L3-1.png",320,240 F,1,83050,83791,0,1 M,0,83050,90828,350,205,371,205 F,0,83791,90087,1 F,1,90087,90828,1,0
Sprite,Foreground,Centre,"Lyrics\L3-2.png",320,240 F,1,86013,86754,0,1 M,0,86013,90828,430,250,417,250 F,0,86754,90087,1 F,1,90087,90828,1,0
Sprite,Foreground,Centre,"Lyrics\L3-3.png",320,240 F,1,91013,91754,0,1 M,0,91013,94902,423,230,423,242 F,0,91754,94162,1 F,1,94162,94902,1,0
Sprite,Foreground,Centre,"Lyrics\L3-4.png",320,240 F,1,91939,92680,0,1 M,0,91939,94902,510,210,518,210 F,0,92680,94162,1 F,1,94162,94902,1,0
Sprite,Foreground,Centre,"Lyrics\L3-5.png",320,240 F,1,94902,95643,0,1 M,0,94902,102680,350,205,371,205 F,0,95643,101939,1 F,1,101939,102680,1,0
Sprite,Foreground,Centre,"Lyrics\L3-6.png",320,240 F,1,97865,98606,0,1 M,0,97865,102680,430,250,417,250 F,0,98606,101939,1 F,1,101939,102680,1,0
Sprite,Foreground,Centre,"Lyrics\L3-7.png",320,240 F,1,102865,103236,0,1 M,0,102865,104347,320,255 S,0,102865,104347,1,1.2 F,0,103236,103791,1 F,2,103791,104347,1,0
Sprite,Foreground,Centre,"Lyrics\L3-8a.png",320,240 F,2,103791,104347,0,1 S,0,103791,106754,1,1.12 M,0,103791,107125,320,255 F,0,104347,106754,1 F,1,106754,107125,1,0 S,0,106754,107125,1.12,3.5
Sprite,Foreground,Centre,"Lyrics\L3-8b.png",320,240 F,0,103791,105458,0 S,0,103791,106754,1,1.12 M,0,103791,107125,320,255 F,0,105458,106754,0,1 F,1,106754,107125,1,0 S,0,106754,107125,1.12,3.5
Sprite,Foreground,Centre,"Lyrics\L4-1.png",320,240 F,1,106754,107495,0,1 M,0,106754,118606,550,280,550,310 F,0,107495,117865,1 F,1,117865,118606,1,0
Sprite,Foreground,Centre,"Lyrics\L4-2.png",320,240 F,1,113050,113791,0,1 M,0,113050,118606,500,365,500,350 F,0,113791,117865,1 F,1,117865,118606,1,0
Sprite,Foreground,Centre,"Lyrics\L4-3.png",320,240 F,1,118976,119717,0,1 M,0,118976,129347,550,280,550,307 F,0,119717,128606,1 F,1,128606,129347,1,0
Sprite,Foreground,Centre,"Lyrics\L4-4.png",320,240 F,1,124902,125643,0,1 M,0,124902,129347,500,365,500,353 F,0,125643,128606,1 F,1,128606,129347,1,0
Sprite,Foreground,Centre,"Lyrics\L4-5.png",320,240 F,0,129717,130458,0,1 M,0,129717,131939,320,222 S,0,129717,131939,1,1.17 F,0,130458,131569,1 F,1,131569,131939,1,0
Sprite,Foreground,Centre,"Lyrics\L5-1.png",320,240 F,1,142310,143050,0,1 M,0,142310,153421,550,195,550,225 F,0,143050,152680,1 F,1,152680,153421,1,0
Sprite,Foreground,Centre,"Lyrics\L5-2.png",320,240 F,1,147865,148606,0,1 M,0,147865,153421,500,265,500,250 F,0,148606,152680,1 F,1,152680,153421,1,0
Sprite,Foreground,Centre,"Lyrics\L5-3.png",320,240 F,1,154162,154902,0,1 M,0,154162,165273,550,195,550,225 F,0,154902,164532,1 F,1,164532,165273,1,0
Sprite,Foreground,Centre,"Lyrics\L5-4.png",320,240 F,1,159717,160458,0,1 M,0,159717,165273,500,300,500,285 F,0,160458,164532,1 F,1,164532,165273,1,0
Sprite,Foreground,Centre,"Lyrics\L6-1.png",320,240 F,1,166013,166754,0,1 M,0,166013,173791,300,205,321,205 F,0,166754,173044,1 F,1,173044,173791,1,0
Sprite,Foreground,Centre,"Lyrics\L6-2.png",320,240 F,1,168976,169717,0,1 M,0,168976,173791,430,250,417,250 F,0,169717,173050,1 F,1,173050,173791,1,0
Sprite,Foreground,Centre,"Lyrics\L6-3.png",320,240 F,1,173976,174717,0,1 M,0,173976,177865,423,230,423,242 F,0,174717,177125,1 F,1,177125,177865,1,0
Sprite,Foreground,Centre,"Lyrics\L3-4.png",320,240 F,1,174902,175643,0,1 M,0,174902,177865,510,210,518,210 F,0,175643,177125,1 F,1,177125,177865,1,0
Sprite,Foreground,Centre,"Lyrics\L3-5.png",320,240 F,1,177865,178606,0,1 M,0,177865,185643,350,205,371,205 F,0,178606,184902,1 F,1,184902,185643,1,0
Sprite,Foreground,Centre,"Lyrics\L3-6.png",320,240 F,1,180828,181569,0,1 M,0,180828,185643,430,250,417,250 F,0,181569,184902,1 F,1,184902,185643,1,0
Sprite,Foreground,Centre,"Lyrics\L6-4.png",320,240 F,1,185828,186199,0,1 M,0,185828,187310,320,255 S,0,185828,187310,1,1.2 F,0,186199,186754,1 F,2,186754,187310,1,0
Sprite,Foreground,Centre,"Lyrics\L6-5a.png",320,240 F,2,186754,187310,0,1 S,0,186754,189717,1,1.12 M,0,186754,190087,320,255 F,0,187310,189717,1 F,1,189717,190087,1,0 S,0,189717,190087,1.12,3.5
Sprite,Foreground,Centre,"Lyrics\L6-5b.png",320,240 F,0,186754,188421,0 S,0,186754,189717,1,1.12 M,0,186754,190087,320,255 F,0,188421,189717,0,1 F,1,189717,190087,1,0 S,0,189717,190087,1.12,3.5
Sprite,Foreground,Centre,"Lyrics\L7-1.png",320,240 F,1,190087,190828,0,1 M,0,190087,201569,550,275,550,305 F,0,190828,200828,1 F,1,200828,201569,1,0
Sprite,Foreground,Centre,"Lyrics\L7-2.png",320,240 F,1,196013,196754,0,1 M,0,196013,201569,500,330,500,315 F,0,196754,200828,1 F,1,200828,201569,1,0
Sprite,Foreground,Centre,"Lyrics\L7-3.png",320,240 F,1,201939,202680,0,1 M,0,201939,212310,550,275,550,305 F,0,202680,211569,1 F,1,211569,212310,1,0
Sprite,Foreground,Centre,"Lyrics\L7-4.png",320,240 F,1,207865,208606,0,1 M,0,207865,212310,500,390,500,378 F,0,208606,211569,1 F,1,211569,212310,1,0
Sprite,Foreground,Centre,"Lyrics\L4-5.png",320,240 F,0,212680,213421,0,1 M,0,212680,216384,320,105 S,0,212680,216384,1,1.25 F,0,213421,214717,1 F,0,214717,216384,1,0
Sprite,Foreground,Centre,"SB\Pokie.png",320,240 M,0,88,,630,430 F,1,88,828,0,1 F,0,828,22310,1 F,0,22310,23791,1,0 F,0,23791,47495,0 F,0,47495,47865,0,1 F,0,47865,69717,1 F,0,69717,71199,1,0 F,0,71199,94902,0 F,0,94902,95273,0,1 F,0,95273,117125,1 F,0,117125,118606,1,0 F,0,118606,142310,0 F,0,142310,142680,0,1 F,0,142680,164532,1 F,0,164532,166013,1,0 F,0,166013,189717,0 F,0,189717,190087,0,1 F,0,190087,200087,1 F,0,200087,201569,1,0
Sprite,Foreground,Centre,"SB\Neethime.png",320,240 M,0,22310,,580,430 F,0,23791,24162,0,1 F,0,24162,46013,1 F,0,46013,47495,1,0 F,0,47495,71199,0 F,0,71199,71569,0,1 F,0,71569,93421,1 F,0,93421,94902,1,0 F,0,94902,118606,0 F,0,118606,118976,0,1 F,0,118706,130458,1 F,0,130458,133421,1,0 F,0,133421,166013,0 F,0,166013,166384,0,1 F,0,166384,188236,1 F,0,188236,189717,1,0 F,0,189717,201569,0 F,0,201569,201939,0,1 F,0,201939,213421,1 F,0,213421,216384,1,0
Sprite,Foreground,Centre,"SB\Black.png",320,240 F,1,213236,216384,0,1 F,0,216384,220087,1
//Storyboard Sound Samples
//Background Colour Transformations
3,100,0,0,0

[TimingPoints]
88,370.37037037037,4,2,1,20,1,0
88,-200,4,2,1,20,0,0
4625,-200,4,2,1,15,0,0
4995,-200,4,2,1,20,0,0
5180,-200,4,2,1,20,0,0
5365,-200,4,2,1,24,0,0
5550,-200,4,2,1,26,0,0
5921,-200,4,2,1,20,0,0
9439,-200,4,2,1,25,0,0
9717,-200,4,2,1,30,0,0
9995,-200,4,2,1,25,0,0
10736,-200,4,2,1,20,0,0
11106,-200,4,2,1,25,0,0
11384,-200,4,2,1,35,0,0
11754,-100,4,2,1,40,0,0
22587,-100,4,2,1,35,0,0
22958,-100,4,2,1,40,0,0
23328,-100,4,2,1,45,0,0
23606,-100,4,2,1,50,0,0
23791,-200,4,2,1,40,0,0
24439,-200,4,2,1,35,0,0
24810,-200,4,2,1,40,0,0
25180,-100,4,2,1,45,0,0
25365,-100,4,2,1,45,0,0
25550,-100,4,2,1,40,0,0
25736,-100,4,2,1,35,0,0
25921,-100,4,2,1,40,0,0
28143,-100,4,2,1,35,0,0
28884,-100,4,2,1,45,0,0
29625,-100,4,2,1,50,0,0
30365,-100,4,2,1,45,0,0
31106,-100,4,2,1,40,0,0
31476,-100,4,2,1,45,0,0
32217,-100,4,2,1,40,0,0
34717,-100,4,2,1,40,0,0
35550,-100,4,2,1,30,0,0
35921,-100,4,2,1,40,0,0
37032,-100,4,2,1,35,0,0
37217,-100,4,2,1,30,0,0
37587,-100,4,2,1,35,0,0
37773,-100,4,2,1,40,0,0
39069,-100,4,2,1,40,0,0
39995,-100,4,2,1,35,0,0
40180,-100,4,2,1,30,0,0
40550,-100,4,2,1,35,0,0
41106,-100,4,2,1,40,0,0
42217,-100,4,2,1,45,0,0
43143,-100,4,2,1,40,0,0
44532,-200,4,2,1,40,0,0
45180,-100,4,2,1,35,0,0
46662,-100,4,2,1,40,0,0
47402,-100,4,2,1,34,0,0
47680,-100,4,2,1,40,0,0
56291,-100,4,2,1,30,0,0
58236,-100,4,2,1,30,0,0
58328,-100,4,2,1,36,0,0
58513,-100,4,2,1,30,0,0
58699,-100,4,2,2,35,0,0
59254,-100,4,2,2,40,0,0
59439,-100,4,2,2,50,0,0
61291,-100,4,2,2,30,0,0
61569,-100,4,2,2,50,0,0
62773,-100,4,2,2,40,0,0
62958,-100,4,2,2,50,0,0
70365,-100,4,2,2,40,0,0
70736,-100,4,2,2,45,0,0
70736,-100,4,2,2,45,0,0
71384,-100,4,2,2,50,0,0
72587,-100,4,2,2,40,0,0
73328,-100,4,2,2,50,0,0
74625,-100,4,2,2,55,0,0
77587,-100,4,2,2,50,0,0
81476,-100,4,2,2,60,0,0
82958,-100,4,2,2,40,0,0
83050,-200,4,2,1,35,0,0
85828,-200,4,2,1,40,0,0
87402,-200,4,2,1,40,0,0
88143,-200,4,2,1,45,0,0
88884,-100,4,2,1,40,0,0
90828,-100,4,2,1,50,0,0
92032,-100,4,2,1,40,0,0
93050,-200,4,2,1,40,0,0
93791,-100,4,2,2,50,0,0
103884,-100,4,2,2,40,0,0
104069,-100,4,2,2,35,0,0
104254,-100,4,2,2,45,0,0
104439,-100,4,2,2,40,0,0
104625,-100,4,2,2,35,0,0
104810,-100,4,2,2,45,0,0
104995,-100,4,2,2,40,0,0
105180,-100,4,2,2,35,0,0
105365,-100,4,2,2,40,0,0
105550,-100,4,2,2,45,0,0
105736,-100,4,2,2,45,0,0
118513,-100,4,2,2,35,0,0
118699,-100,4,2,2,45,0,0
124439,-100,4,2,2,35,0,0
124625,-100,4,2,2,45,0,0
128884,-100,4,2,2,50,0,0
129532,-100,4,2,2,55,0,0
130273,-200,4,2,2,55,0,0
141939,-100,4,2,1,40,0,0
165921,-100,4,2,1,35,0,0
168884,-100,4,2,1,40,0,0
171106,-100,4,2,1,45,0,0
171847,-100,4,2,1,40,0,0
173884,-100,4,2,1,50,0,0
176013,-200,4,2,1,40,0,0
176754,-100,4,2,2,50,0,0
180736,-100,4,2,2,55,0,0
182217,-100,4,2,2,50,0,0
183699,-100,4,2,2,35,0,0
183884,-100,4,2,2,50,0,0
186662,-100,4,2,2,35,0,0
187217,-100,4,2,2,40,0,0
187773,-100,4,2,2,45,0,0
189902,-100,4,2,2,40,0,0
201476,-100,4,2,2,30,0,0
201662,-100,4,2,2,45,0,0
207402,-100,4,2,2,35,0,0
207587,-100,4,2,2,45,0,0
211847,-100,4,2,2,50,0,0
212495,-100,4,2,2,55,0,0
213143,-200,4,2,1,0,0,0
216199,-100,4,2,2,25,0,0

[Colours]
Combo1 : 142,169,240
Combo2 : 21,114,183
Combo3 : 124,210,243

[HitObjects]
168,168,88,2,0,B|128:160,2,37.5,0|0|0
240,168,643,2,0,B|304:176|368:168,1,112.5,0|2
400,104,1384,2,0,B|432:144|432:184,1,75,2|0
432,248,1939,1,0
432,256,2125,1,0
112,312,3050,6,0,B|80:352,2,37.5
64,256,3606,2,0,B|56:200|64:128,1,112.5,0|2
72,72,4347,2,0,B|48:32,2,37.5,0|0|0
107,129,4902,1,2
149,181,5087,1,0
213,202,5273,1,2
280,194,5458,1,0
342,168,5643,1,2
379,111,5828,1,0
410,51,6013,6,0,B|443:70|463:119,1,75,4|0
458,182,6569,2,0,B|450:222|450:262,1,75
440,331,7125,1,2
358,308,7310,2,0,B|321:302|269:305,1,75,2|0
200,304,7865,1,0
192,312,8050,1,0
56,240,8421,5,2
72,168,8606,1,0
40,104,8791,1,2
80,40,8976,2,0,B|120:48|168:40,1,75,0|0
232,40,9532,2,0,B|240:88|256:120,1,75,0|0
343,109,10087,6,0,B|348:66,1,37.5,2|0
429,142,10458,2,0,B|422:186,1,37.5,0|0
395,321,10828,1,4
159,338,11199,1,4
45,127,11569,1,4
390,79,11939,6,0,B|431:66|501:63,2,75,0|0|2
309,58,12495,2,0,B|239:83|143:84,1,150
93,37,13050,1,2
46,105,13236,2,0,B|31:151|32:190,2,75
114,161,13791,1,2
192,137,13976,2,0,B|264:153|364:151,1,150
419,108,14532,2,0,B|438:145|446:209,1,75,2|0
410,294,14902,6,0,B|462:283|517:282,2,75,0|0|2
339,337,15458,2,0,B|261:321|162:320,1,150
110,342,16013,2,0,B|108:301|100:243,1,75,2|0
31,140,16384,2,0,B|20:224,1,75,0|0
100,191,16754,1,2
171,149,16939,1,0
243,184,17125,1,2
316,158,17310,1,8
316,158,17402,1,0
316,158,17495,1,8
316,158,17680,5,0
391,208,17865,2,0,B|398:268|419:310,2,75,2|0|0
459,140,18421,2,0,B|400:86|317:56,1,150
254,38,18976,1,2
243,41,19162,1,0
162,47,19347,2,0,B|110:51|59:41,2,75,0|0|2
168,128,19902,2,0,B|183:210|168:306,1,150
63,273,20458,5,2
56,251,20550,1,0
52,224,20643,1,2
51,193,20736,1,0
53,159,20828,2,0,B|92:151|162:171,2,75,0|0|2
199,174,21384,2,0,B|260:192|360:190,1,150
411,241,21939,1,2
471,194,22125,1,0
450,114,22310,6,0,B|418:89|370:65,1,75,2|0
244,26,22680,1,4
31,167,23050,1,4
234,365,23421,1,4
368,344,23791,6,0,B|408:344|440:320,1,75,4|2
461,257,24347,1,0
472,190,24532,2,0,B|432:190|400:166,1,75,0|2
347,127,25087,1,0
285,83,25273,5,2
204,63,25458,1,0
114,75,25643,1,2
40,113,25828,1,0
40,113,26013,1,0
39,263,26384,5,2
112,249,26569,1,0
182,222,26754,2,0,B|221:209|244:180,2,75,0|0|2
225,283,27310,1,0
276,337,27495,2,0,B|316:329|348:313,1,75,0|0
404,265,27865,2,0,B|364:257|332:241,1,75,2|0
384,184,28236,5,0
369,110,28421,1,0
347,79,28513,1,0
316,57,28606,1,2
244,33,28791,1,0
244,33,28976,1,2
152,152,29347,5,2
72,216,29532,1,0
168,248,29717,2,0,B|240:288|312:296,1,150,2|0
384,296,30273,1,0
437,243,30458,1,0
437,243,30643,1,2
437,243,30828,2,0,B|464:200|456:168,1,75,2|0
448,88,31199,6,0,B|360:64,1,75,0|0
280,128,31569,2,0,B|352:147,1,75,2|0
264,216,31939,2,0,B|191:196,1,75,0|0
112,272,32310,2,0,B|184:291,1,75,2|0
256,192,32680,12,4,34532
256,192,34902,5,4
256,192,35087,1,0
256,344,35458,1,0
256,192,35643,6,0,B|224:120|264:40,1,150,0|2
260,46,36199,1,0
328,64,36384,2,0,B|368:72|392:104,1,75
440,160,36754,2,0,B|424:200|384:208,1,75,2|0
322,231,37125,5,0
256,244,37310,1,0
189,232,37495,1,2
125,207,37680,2,0,B|88:200|72:160,2,75
168,120,38236,5,2
256,80,38421,1,0
344,120,38606,2,0,B|392:176|408:256,1,150,2|0
336,264,39162,2,0,B|256:264|184:296,1,150,2|0
120,320,39717,2,0,B|88:288|88:248,1,75,2|0
80,186,40087,5,0
99,121,40273,1,0
149,70,40458,1,2
149,70,40643,1,0
216,48,40828,2,0,B|256:40|296:40,1,75,0|2
360,40,41199,5,2
440,88,41384,1,0
387,169,41569,1,2
387,169,41754,2,0,B|408:208,2,37.5,0|0|2
312,192,42125,1,0
256,242,42310,5,2
256,242,42402,1,0
184,264,42587,1,2
184,264,42680,2,0,B|112:296|32:264,1,150,0|0
56,192,43236,5,0
88,120,43421,2,0,B|112:80|144:72,1,75,2|0
216,48,43791,2,0,B|288:24|368:48,1,150,0|2
440,64,44347,1,2
464,136,44532,6,0,B|464:184|448:224,1,75,0|2
408,272,45087,1,0
304,312,45273,2,0,B|272:328|224:328,1,75,2|0
136,264,45643,2,0,B|95:263|63:279,1,75,0|2
200,232,46013,6,0,B|184:192|200:152,1,75
312,160,46384,2,0,B|326:194|310:234,1,75,2|0
136,232,46754,6,0,B|120:192|136:152,1,75,4|2
378,158,47125,2,0,B|392:192|376:232,1,75,4|2
256,80,47495,5,6
245,153,47865,1,0
256,224,48236,1,0
251,296,48606,2,0,B|207:314|155:322,1,75,0|2
103,301,48976,6,0,B|97:236|77:141,1,150
108,76,49532,2,0,B|69:70|23:47,2,75,0|8|0
187,52,50087,1,0
276,49,50273,1,2
354,72,50458,6,0,B|399:71|444:60,1,75
476,164,50828,1,0
476,164,51013,2,0,B|412:172|312:163,1,150,2|0
244,127,51569,1,0
120,174,51754,1,2
171,293,51939,1,0
255,332,52125,5,0
255,332,52217,1,0
255,332,52310,2,0,B|297:332|356:334,1,75,2|0
411,347,52680,2,0,B|434:276|424:190,1,150,8|0
481,116,53236,5,2
425,54,53421,1,0
344,56,53606,1,2
262,69,53791,1,0
182,90,53976,1,2
102,60,54162,2,0,B|53:131|48:225,1,150,0|0
49,281,54717,1,2
49,281,55087,5,2
112,334,55273,1,0
196,334,55458,1,2
275,311,55643,1,0
357,306,55828,1,2
435,330,56013,1,0
435,330,56199,1,0
466,253,56384,6,0,B|474:188|473:160,2,75,0|0|2
390,189,56939,2,0,B|397:138|387:83,2,75
297,159,57495,1,2
224,230,57680,1,0
141,175,57865,2,0,B|126:214|132:262,2,75,0|0|4
120,80,58421,2,0,B|78:109|48:162,2,75,0|8|8
256,40,58976,5,8
381,75,59162,1,8
381,75,59347,6,0,B|425:131|422:229,1,150,4|0
415,298,59902,1,0
335,259,60087,1,0
279,326,60273,1,0
202,282,60458,1,8
147,348,60643,1,0
72,302,60828,2,0,B|28:246|41:151,1,150
39,159,61384,1,8
292,107,61754,6,0,B|344:103|392:84,2,75,0|8|0
315,186,62310,2,0,B|331:248|316:344,1,150,0|0
423,281,62865,2,0,B|407:219|422:123,1,150,8|0
429,49,63421,2,0,B|370:27|323:38,1,75,8|0
273,33,63791,6,0,B|218:36|189:48,1,75,2|0
123,112,64162,2,0,B|178:115|207:127,1,75,10|0
293,195,64532,2,0,B|238:198|209:210,1,75,2|0
112,270,64902,2,0,B|167:273|196:285,1,75,10|0
279,301,65273,5,4
279,301,65643,1,0
371,313,65828,2,0,B|426:316|455:328,2,75
410,240,66384,2,0,B|436:204|446:145,1,75,8|0
458,91,66754,2,0,B|396:47|314:35,1,150
266,99,67310,1,0
222,28,67495,1,0
166,99,67680,1,0
107,31,67865,2,0,B|66:67|55:129,1,75,8|0
36,192,68236,6,0,B|96:189|142:195,2,75
71,266,68791,1,0
132,321,68976,1,0
219,335,69162,1,0
296,306,69347,1,8
347,241,69532,1,0
354,158,69717,6,0,B|399:148|445:151,1,75
362,54,70087,2,0,B|317:44|271:47,1,75,8|0
222,94,70458,5,8
222,94,70550,1,0
222,94,70643,1,8
161,37,70828,2,0,B|120:112,1,75,8|0
56,248,71199,6,0,B|136:264|224:264,1,150,4|0
256,184,71754,1,0
304,96,71939,2,0,B|392:96|456:112,1,150,0|8
452,111,72495,1,2
466,199,72680,5,0
393,247,72865,1,0
306,271,73050,1,0
216,279,73236,1,0
127,263,73421,2,0,B|121:183|147:106,1,150,0|8
144,114,73976,1,0
216,61,74162,6,0,B|278:111|365:121,1,150,0|0
312,38,74717,2,0,B|260:95|259:180,1,150,0|0
327,234,75273,1,8
327,234,75458,1,0
320,320,75643,6,0,B|280:328|240:328,1,75,2|0
185,241,76013,2,0,B|225:249|265:249,1,75,10|0
319,162,76384,2,0,B|279:170|239:170,1,75,2|0
186,82,76754,2,0,B|226:90|266:90,1,75,10|0
344,88,77125,6,0,B|392:72|408:40,2,75,4|0|0
261,90,77680,1,0
186,83,77865,2,0,B|113:108|70:177,1,150,0|10
48,328,78606,6,0,B|88:336|128:336,1,75,0|0
184,288,78976,2,0,B|232:280|272:288,1,75,0|0
344,288,79347,1,0
376,208,79532,1,0
352,128,79717,1,8
304,64,79902,1,0
224,48,80088,6,0,B|152:56|80:96,1,150,0|2
30,149,80643,1,0
5,219,80828,1,2
5,219,80921,1,0
5,219,81013,1,0
52,304,81199,1,8
145,329,81384,1,2
239,305,81569,6,0,B|286:280|363:288,1,112.5
386,289,81939,2,0,B|424:257|438:226,1,75,2|0
432,136,82310,1,6
432,136,82402,1,0
432,136,82495,1,2
376,56,82680,1,10
376,56,82865,1,2
248,48,83050,6,0,B|176:48|96:80,1,150,0|2
56,128,83976,1,0
104,176,84162,1,0
56,224,84347,1,2
104,272,84532,2,0,B|144:296|176:296,2,75,2|0|0
104,272,85458,1,0
104,272,85643,1,2
272,248,86013,6,0,B|344:248|432:216,1,150,2|2
418,220,86939,1,0
475,183,87125,1,2
508,126,87310,1,0
416,64,87495,6,0,B|368:56,1,37.5,2|0
256,56,87865,2,0,B|208:64,1,37.5,2|0
96,112,88236,2,0,B|72:144,1,37.5,2|0
72,264,88606,2,0,B|96:304,1,37.5,2|0
168,320,88976,6,0,B|248:328,1,75
328,328,89347,2,0,B|416:320,1,75,2|0
402,321,89717,1,2
440,144,90088,6,0,B|456:96|456:64,2,75,2|0|0
440,144,90643,1,2
264,104,91013,5,0
160,64,91199,1,2
176,176,91384,2,0,B|168:224|128:240,2,75,0|2|0
256,194,91939,5,2
332,226,92125,1,0
371,237,92217,1,0
411,227,92310,1,2
488,192,92495,2,0,B|504:152|488:104,1,75,0|2
432,64,92865,1,0
352,40,93050,2,0,B|272:32|232:32,1,112.5,2|0
96,64,93976,5,8
24,118,94162,1,8
24,118,94254,1,0
24,118,94347,1,0
55,202,94532,2,0,B|76:239|75:280,1,75,8|0
256,344,94902,6,0,B|254:272|272:184,1,150,4|8
269,194,95643,1,0
313,124,95828,1,0
391,100,96013,1,8
473,110,96199,1,0
454,197,96384,2,0,B|434:275|434:360,2,150,0|8|0
473,110,97310,5,0
428,104,97402,1,0
391,100,97495,2,0,B|340:102|306:112,1,75,8|0
235,123,97865,6,0,B|253:192|255:282,1,150,0|8
255,271,98606,1,0
193,325,98791,1,0
112,341,98976,1,8
33,315,99162,1,0
79,237,99347,6,0,B|124:158,1,75,0|0
53,118,99717,2,0,B|125:89,1,75,8|0
89,14,100088,2,0,B|168:22,1,75
237,69,100458,1,8
237,69,100550,1,0
237,69,100643,1,0
319,34,100828,6,0,B|397:52|478:46,1,150,4|8
433,138,101384,2,0,B|384:218|377:291,1,150
296,325,101939,2,0,B|197:360,1,75,8|0
233,260,102310,2,0,B|303:235,2,75
154,286,102865,5,0
60,223,103050,1,0
53,110,103236,1,0
53,110,103421,1,8
182,34,103791,5,4
204,89,103976,1,8
213,148,104162,1,8
312,72,104347,5,4
324,138,104532,1,8
322,205,104717,1,8
441,100,104902,5,4
451,174,105088,1,8
453,249,105273,2,0,B|454:305|447:344,2,75,8|0|8
373,304,105828,5,0
373,304,105921,1,0
373,304,106013,2,0,B|359:348,2,37.5,8|0|8
312,247,106384,1,8
312,247,106476,1,0
312,247,106569,1,8
240,288,106754,6,0,B|171:322|77:316,1,150,4|8
112,235,107310,1,0
112,235,107495,2,0,B|39:211,2,75,0|0|8
164,171,108050,1,0
244,150,108236,2,0,B|328:140|417:157,1,150,0|8
472,174,108791,1,0
410,228,108976,1,0
465,289,109162,2,0,B|447:366,2,75,0|8|0
472,174,109717,5,0
458,85,109902,1,0
387,28,110088,2,0,B|323:34|226:30,1,150,8|0
176,75,110643,1,0
110,34,110828,6,0,B|14:60,1,75,0|0
67,122,111199,2,0,B|151:151,1,75
102,212,111569,2,0,B|6:238,1,75,8|0
67,296,111939,1,0
149,348,112125,1,0
244,365,112310,1,8
341,357,112495,1,0
428,314,112680,6,0,B|482:260|483:158,1,150,4|8
486,94,113236,1,0
486,94,113421,2,0,B|485:54|475:6,2,75,0|0|8
397,75,113976,1,0
320,43,114162,2,0,B|243:30|162:40,1,150,0|8
83,60,114717,2,0,B|52:150,2,75
144,124,115273,2,0,B|147:214,1,75,8|0
70,230,115643,5,0
50,310,115828,1,0
108,368,116013,2,0,B|186:359|266:366,1,150,8|0
276,284,116569,2,0,B|319:283|360:287,2,75,0|8|0
193,285,117125,5,0
193,285,117310,1,0
125,204,117495,1,8
125,204,117680,1,0
160,97,117865,5,0
160,97,118050,1,0
275,62,118236,1,8
275,62,118421,1,0
392,96,118606,6,0,B|424:120|440:160,1,75,4|0
464,240,118976,1,8
376,224,119162,1,0
438,155,119347,1,8
464,240,119532,2,0,B|413:300|323:321,1,150,0|0
232,336,120088,6,0,B|152:344,2,75,0|0|8
268,253,120643,2,0,B|252:173|196:109,1,150
136,58,121199,1,8
136,58,121291,1,0
136,58,121384,1,0
136,58,121569,6,0,B|184:52|232:62,1,75,8|0
304,72,121939,1,8
400,72,122125,1,0
496,104,122310,2,0,B|480:192|440:248,1,150,0|8
373,311,122865,1,0
277,330,123050,6,0,B|188:341,2,75,0|0|8
373,311,123606,2,0,B|368:232|353:158,1,150
351,151,124069,1,0
347,140,124162,2,0,B|338:92|323:66,1,75,8|0
216,64,124532,6,0,B|168:64|128:72,1,75,4|0
56,144,124902,2,0,B|96:144|144:160,1,75,8|0
224,184,125273,1,0
152,248,125458,2,0,B|104:248|64:256,2,75,0|8|0
243,281,126013,5,8
336,312,126199,1,0
336,312,126291,1,0
336,312,126384,1,8
336,312,126569,2,0,B|392:256|416:168,1,150
423,109,127125,2,0,B|422:142|411:183,1,75,8|0
424,112,127495,5,0
344,56,127680,1,0
256,104,127865,1,8
169,58,128050,1,0
90,116,128236,2,0,B|66:140|50:180,1,75
38,260,128606,1,8
104,312,128791,5,0
104,312,128884,1,0
104,312,128976,1,8
230,328,129162,1,0
347,278,129347,1,8
378,48,129717,5,8
258,54,129902,1,8
154,115,130088,1,8
128,224,130273,2,0,B|256:288|382:223,1,262.5,0|2
380,225,131754,1,0
256,192,131939,12,0,133421
291,69,142310,6,0,B|215:85|115:85,2,150,4|0|2
291,69,143421,1,0
273,157,143606,1,2
253,244,143791,2,0,B|329:228|429:228,2,150,0|0|8
93,317,144902,6,0,B|44:236,1,75,2|0
23,175,145273,2,0,B|37:94|104:46,1,150
176,23,145828,1,0
258,20,146013,2,0,B|300:22|348:30,2,75,2|0|0
198,98,146569,1,0
198,98,146754,2,0,B|114:147,1,75
204,190,147125,2,0,B|268:152,1,75
268,151,147495,1,8
460,40,147865,5,0
478,120,148050,1,0
443,187,148236,2,0,B|422:274|480:361,1,150,2|0
492,259,148791,2,0,B|431:313|342:333,1,150,0|0
278,336,149347,2,0,B|239:340|195:334,1,75,0|0
121,323,149717,5,2
53,263,150088,1,0
118,180,150458,1,8
42,84,150828,1,0
143,56,151199,6,0,B|225:39|316:47,1,150,2|0
382,43,151754,2,0,B|431:41|475:27,2,75,0|2|0
492,111,152310,2,0,B|443:113|399:127,1,75
340,151,152680,1,0
314,229,152865,1,0
401,207,153050,5,2
338,141,153236,1,0
303,231,153421,1,10
275,316,153606,1,0
275,316,153699,1,0
275,316,153791,2,0,B|238:324|196:325,1,75,0|0
117,328,154162,6,0,B|128:239|123:170,1,150,4|0
120,73,154717,1,0
37,78,154902,2,0,B|26:167|31:236,1,150,2|0
33,333,155458,1,0
117,328,155643,5,0
265,311,156013,1,0
412,341,156384,1,8
464,142,156754,6,0,B|424:147|378:144,1,75,0|0
315,131,157125,2,0,B|236:120|157:130,1,150,2|0
101,65,157680,2,0,B|66:142|62:215,1,150
62,291,158236,1,2
124,344,158421,1,0
205,329,158606,1,0
287,336,158791,1,0
287,336,158884,1,0
287,336,158976,2,0,B|330:343|369:339,1,75
444,332,159347,1,8
476,134,159717,5,0
460,53,159902,1,0
376,56,160088,2,0,B|293:70|217:64,1,150,2|0
152,32,160643,2,0,B|104:94,1,75
23,84,161013,5,0
54,160,161199,1,0
23,236,161384,1,0
104,223,161569,2,0,B|180:215|263:220,1,150,2|0
336,226,162125,1,0
417,237,162310,2,0,B|438:165|434:84,1,150,10|0
368,39,162865,1,0
285,45,163050,6,0,B|200:52,1,75,0|0
120,39,163421,2,0,B|136:80|150:130,2,75,2|0|0
56,104,163976,1,0
56,104,164069,1,0
56,104,164162,2,0,B|46:146|40:198,2,75,2|0|0
145,159,164717,5,0
233,104,164902,1,2
342,131,165088,1,0
411,51,165273,6,0,B|444:82|464:121,1,75,8|0
443,198,165643,2,0,B|444:243|460:284,1,75,2|0
312,320,166013,6,0,B|240:328|160:312,2,150,2|0|2
352,256,166939,1,0
360,184,167125,1,0
352,112,167310,1,0
328,40,167495,2,0,B|416:24|480:40,2,150,2|0|2
255,61,168421,2,0,B|207:77|167:77,2,75,0|2|0
256,136,168976,6,0,B|256:216|232:304,1,150,2|2
237,284,169532,1,0
200,352,169717,2,0,B|144:336|104:288,2,112.5,2|0|2
272,352,170458,6,0,B|320:352|368:344,1,75,2|0
400,264,170828,2,0,B|352:272|312:272,1,75,2|0
248,184,171199,2,0,B|296:184|344:176,1,75,2|0
416,72,171569,2,0,B|368:80|328:80,1,75,2|0
248,72,171939,5,4
160,72,172125,1,2
160,72,172217,1,0
160,72,172310,2,0,B|112:72|80:80,1,75,2|0
32,152,172680,2,0,B|112:160|192:152,1,150,0|2
264,148,173236,1,0
264,148,173421,1,0
264,148,173606,1,2
376,272,173976,6,0,B|416:280|464:280,2,75,2|0|0
296,256,174532,1,2
216,264,174717,1,0
136,264,174902,2,0,B|104:296|96:336,2,75,2|0|2
104,184,175458,2,0,B|64:192|24:224,2,75,2|0|0
184,152,176013,2,0,B|248:128|288:96,1,112.5,2|0
283,99,176939,5,8
358,149,177125,1,8
358,149,177217,1,0
358,149,177310,1,0
432,98,177495,1,8
432,98,177680,1,0
464,248,177865,6,0,B|384:264,1,75
315,262,178236,2,0,B|227:246,1,75,8|0
168,240,178606,2,0,B|136:264|88:264,1,75,0|0
48,208,178976,2,0,B|56:168|88:144,1,75,8|0
152,104,179347,2,0,B|224:72|304:64,1,150,0|8
296,64,179902,1,0
384,48,180087,2,0,B|432:48|480:24,1,75
344,136,180458,2,0,B|296:136|248:160,1,75,8|0
328,216,180828,5,0
328,216,181013,1,0
256,272,181199,1,8
256,272,181384,1,0
184,216,181569,1,0
256,160,181754,2,0,B|256:112,2,37.5,0|0|8
256,272,182125,1,0
216,336,182310,6,0,B|176:336|128:320,1,75
288,280,182680,2,0,B|336:280|376:264,1,75,8|0
216,232,183050,2,0,B|176:232|128:216,1,75
288,176,183421,2,0,B|336:176|376:160,1,75,8|0
216,120,183791,6,0,B|176:120|128:104,2,75,4|0|8
296,120,184347,1,0
376,112,184532,1,2
400,144,184625,1,0
416,184,184717,1,0
416,264,184902,2,0,B|416:304|400:344,2,75,8|0|0
336,280,185458,1,0
256,288,185643,1,8
176,280,185828,1,0
99,248,186013,6,0,B|104:168|152:104,1,150,0|8
207,49,186569,1,0
296,56,186754,5,4
296,115,186939,1,0
296,175,187125,1,8
400,136,187310,5,4
364,198,187495,1,0
328,260,187680,1,8
469,245,187865,5,4
400,296,188050,1,0
316,332,188236,1,8
235,347,188421,2,0,B|147:339|94:287,1,150,0|0
138,219,188976,1,8
138,219,189162,1,0
220,217,189347,1,8
220,217,189532,1,0
256,144,189717,1,4
256,144,190087,5,8
208,56,190273,2,0,B|128:56|40:72,1,150
16,152,190828,2,0,B|104:160,1,75,8|0
176,144,191199,2,0,B|192:224|176:304,1,150,0|8
96,344,191754,5,0
178,293,191939,1,0
272,344,192125,1,0
352,288,192310,1,8
352,288,192495,1,0
440,336,192680,6,0,B|464:264|464:184,1,150,0|8
432,104,193236,2,0,B|384:104|336:96,1,75
288,48,193606,1,0
216,96,193791,1,8
216,96,193976,1,0
136,56,194162,6,0,B|104:128,1,75
40,208,194532,2,0,B|120:264,1,75,8|0
192,232,194902,1,0
248,304,195087,1,0
248,304,195180,1,0
248,304,195273,2,0,B|288:312|336:312,2,75,8|0|4
192,232,195828,5,0
120,288,196013,2,0,B|80:312|56:352,2,75,8|0|0
192,232,196569,1,0
120,176,196754,1,8
176,104,196939,1,0
112,32,197125,2,0,B|184:24|272:24,1,150,0|8
352,24,197680,2,0,B|320:112,1,75
416,96,198050,2,0,B|424:192,1,75,0|8
344,216,198421,1,0
400,296,198606,6,0,B|320:320|224:312,1,150,0|8
176,264,199162,1,0
88,280,199347,2,0,B|64:312|56:352,2,75,0|0|8
120,192,199902,1,0
96,104,200087,2,0,B|76:31,1,75
208,104,200458,2,0,B|227:176,1,75,8|0
296,24,200828,5,0
376,64,201013,1,8
376,64,201106,1,0
376,64,201199,1,8
336,144,201384,1,0
254,105,201569,5,4
416,200,201939,1,8
416,200,202125,2,0,B|440:240|416:280,1,75
360,336,202495,2,0,B|312:352|264:336,1,75,0|8
200,320,202865,1,0
258,252,203050,6,0,B|273:160|258:88,1,150,0|8
195,39,203606,1,0
132,103,203791,1,0
195,166,203976,2,0,B|195:245,2,75,0|8|0
260,103,204532,5,0
260,103,204717,1,0
343,69,204902,2,0,B|421:85|461:160,1,150,8|0
458,156,205458,1,0
481,243,205643,1,8
393,263,205828,6,0,B|315:247|275:172,1,150
277,175,206384,1,8
225,101,206569,2,0,B|159:51|82:37,1,150,0|0
89,38,207032,1,0
89,38,207125,1,8
89,38,207310,1,0
39,149,207495,6,0,B|26:185|42:229,1,75,4|0
85,299,207865,1,8
163,255,208050,2,0,B|240:234|314:253,1,150
388,299,208606,1,8
466,254,208791,1,0
485,166,208976,5,0
454,80,209162,1,2
454,80,209254,1,0
454,80,209347,2,0,B|409:46|376:40,1,75,8|0
299,39,209717,1,0
216,80,209902,2,0,B|136:96,2,75,0|8|0
232,168,210458,6,0,B|208:240,2,75,0|0|8
320,184,211013,1,0
376,112,211199,2,0,B|456:112,1,75
504,208,211569,2,0,B|424:208,1,75,8|0
376,296,211939,5,8
256,320,212125,1,0
136,296,212310,1,8
136,88,212680,5,8
256,64,212865,1,0
376,88,213050,1,8
256,136,213236,6,0,B|283:100|319:101|347:126|353:158|343:190|324:225|295:255|252:273,1,262.5
256,271,214717,2,0,B|217:254|188:224|169:189|159:157|165:125|192:102|228:101|257:137,1,262.5
256,136,216384,1,8
