osu file format v9

[General]
AudioFilename: Eternal Rite.mp3
AudioLeadIn: 2000
PreviewTime: 103233
Countdown: 0
SampleSet: Soft
StackLeniency: 0.3
Mode: 0
LetterboxInBreaks: 0

[Editor]
Bookmarks: 12833,38433,64033,89633,104033,129633,155233,180833,206433,232028,257633,283233,308833
DistanceSpacing: 0
BeatDivisor: 4
GridSize: 4

[Metadata]
Title:Eternal Rite
Artist:Sound Online feat. Misawa Aki
Creator:Pookz
Version:Collab
Source:Touhou
Tags:Tsukasa Saigyouji Yuyuko Heatherfield yuca y_u_c_a aiaiclala

[Difficulty]
HPDrainRate:7
CircleSize:5
OverallDifficulty:7
ApproachRate:8
SliderMultiplier:1.6
SliderTickRate:1

[Events]
//Background and Video events
0,0,"u.jpg"
//Break Periods
2,4828,5678
2,155428,165678
//Storyboard Layer 0 (Background)
//Storyboard Layer 1 (Fail)
//Storyboard Layer 2 (Pass)
//Storyboard Layer 3 (Foreground)
//Storyboard Sound Samples
//Background Colour Transformations
3,100,255,0,255

[TimingPoints]
28,400,4,2,1,30,1,0
28,-200,4,2,1,30,0,0
3228,-200,4,2,1,15,0,0
3828,-200,4,2,1,5,0,0
6428,-200,4,2,1,30,0,0
9628,-200,4,2,1,45,0,0
10228,-200,4,2,1,5,0,0
12728,-133.333333333333,4,1,1,40,0,0
12928,-133.333333333333,4,2,1,40,0,0
15928,-200,4,2,1,40,0,0
17328,-200,4,2,1,5,0,0
17628,-133.333333333333,4,2,1,40,0,0
18328,-133.333333333333,4,1,1,40,0,0
19328,-133.333333333333,4,2,1,40,0,0
22228,-200,4,2,1,40,0,0
24728,-200,4,1,1,40,0,0
25728,-133.333333333333,4,2,1,50,0,0
28628,-200,4,2,1,50,0,0
30128,-200,4,2,1,5,0,0
30328,-200,4,2,1,40,0,0
31828,-133.333333333333,4,2,1,50,0,0
35128,-133.333333333333,4,1,1,50,0,0
35328,-133.333333333333,4,2,1,5,0,0
38428,-111.111111111111,4,2,1,50,0,0
39428,-111.111111111111,4,1,1,40,0,0
39628,-111.111111111111,4,2,1,50,0,0
40028,-111.111111111111,4,1,1,50,0,0
40428,-111.111111111111,4,2,1,50,0,0
41528,-111.111111111111,4,1,1,30,0,0
41628,-111.111111111111,4,1,1,50,0,0
42028,-111.111111111111,4,2,1,50,0,0
42628,-111.111111111111,4,1,1,50,0,0
43028,-111.111111111111,4,2,1,50,0,0
43228,-111.111111111111,4,1,1,50,0,0
43628,-111.111111111111,4,2,1,50,0,0
43828,-111.111111111111,4,1,1,50,0,0
44028,-111.111111111111,4,2,1,50,0,0
44228,-111.111111111111,4,1,1,50,0,0
44328,-111.111111111111,4,2,1,50,0,0
44728,-111.111111111111,4,1,1,30,0,0
44828,-111.111111111111,4,1,1,50,0,0
45228,-111.111111111111,4,2,1,50,0,0
45828,-111.111111111111,4,1,1,50,0,0
46028,-111.111111111111,4,2,1,50,0,0
46428,-111.111111111111,4,1,1,50,0,0
46828,-111.111111111111,4,2,1,50,0,0
47428,-111.111111111111,4,1,1,50,0,0
47528,-111.111111111111,4,2,1,50,0,0
47728,-111.111111111111,4,1,1,50,0,0
47828,-111.111111111111,4,2,1,50,0,0
47928,-111.111111111111,4,1,1,30,0,0
48028,-111.111111111111,4,1,1,50,0,0
48428,-111.111111111111,4,2,1,50,0,0
49028,-111.111111111111,4,1,1,50,0,0
49228,-111.111111111111,4,2,1,50,0,0
49628,-111.111111111111,4,1,1,50,0,0
50028,-111.111111111111,4,2,1,50,0,0
50128,-111.111111111111,4,1,1,50,0,0
51028,-111.111111111111,4,2,1,60,0,0
51128,-111.111111111111,4,1,1,30,0,0
51228,-111.111111111111,4,1,1,65,0,0
51428,-111.111111111111,4,1,1,50,0,0
51628,-111.111111111111,4,2,1,50,0,0
52228,-111.111111111111,4,1,1,50,0,0
52428,-111.111111111111,4,2,1,50,0,0
52828,-111.111111111111,4,1,1,50,0,0
53228,-111.111111111111,4,2,1,50,0,0
53828,-111.111111111111,4,1,1,50,0,0
53928,-111.111111111111,4,2,1,50,0,0
54128,-111.111111111111,4,1,1,50,0,0
54228,-111.111111111111,4,2,1,60,0,0
54328,-111.111111111111,4,1,1,30,0,0
54428,-111.111111111111,4,1,1,50,0,0
54828,-111.111111111111,4,2,1,50,0,0
55428,-111.111111111111,4,1,1,50,0,0
55628,-111.111111111111,4,2,1,50,0,0
56028,-111.111111111111,4,1,1,50,0,0
56428,-111.111111111111,4,2,1,50,0,0
56628,-111.111111111111,4,1,1,50,0,0
56828,-111.111111111111,4,2,1,50,0,0
57028,-111.111111111111,4,1,1,50,0,0
57128,-111.111111111111,4,2,1,50,0,0
57328,-111.111111111111,4,1,1,50,0,0
57428,-111.111111111111,4,2,1,60,0,0
57528,-111.111111111111,4,1,1,30,0,0
57628,-111.111111111111,4,1,1,50,0,0
57828,-111.111111111111,4,1,1,50,0,0
58028,-111.111111111111,4,2,1,50,0,0
59228,-111.111111111111,4,1,1,50,0,0
59428,-111.111111111111,4,2,1,50,0,0
60028,-111.111111111111,4,1,1,50,0,0
60828,-111.111111111111,4,2,1,60,0,0
61228,-111.111111111111,4,1,1,50,0,0
61428,-111.111111111111,4,2,1,70,0,0
61628,-111.111111111111,4,2,1,70,0,0
62028,-111.111111111111,4,1,1,50,0,0
62228,-111.111111111111,4,2,1,70,0,0
62428,-111.111111111111,4,2,1,80,0,0
62628,-111.111111111111,4,2,1,70,0,0
63428,-111.111111111111,4,1,1,50,0,0
63528,-111.111111111111,4,2,1,70,0,0
63628,-111.111111111111,4,1,1,50,0,0
64028,-133.333333333333,4,1,1,50,0,0
64228,-133.333333333333,4,2,1,65,0,0
65228,-133.333333333333,4,1,1,50,0,0
65528,-133.333333333333,4,2,1,65,0,0
66628,-133.333333333333,4,1,1,50,0,0
67028,-133.333333333333,4,2,1,65,0,0
68428,-133.333333333333,4,1,1,50,0,0
68528,-133.333333333333,4,2,1,65,0,0
68628,-133.333333333333,4,1,1,50,0,0
68828,-133.333333333333,4,2,1,5,0,0
68928,-133.333333333333,4,2,1,65,0,0
70228,-133.333333333333,4,1,1,50,0,0
70628,-133.333333333333,4,2,1,65,0,0
71628,-133.333333333333,4,1,1,50,0,0
72028,-133.333333333333,4,2,1,65,0,0
72228,-133.333333333333,4,2,1,45,0,0
72428,-133.333333333333,4,2,1,50,0,0
72628,-133.333333333333,4,2,1,55,0,0
72828,-133.333333333333,4,2,1,65,0,0
73028,-133.333333333333,4,1,1,50,0,0
73528,-133.333333333333,4,1,1,35,0,0
73628,-133.333333333333,4,1,1,50,0,0
73828,-133.333333333333,4,2,1,65,0,0
75928,-133.333333333333,4,2,1,10,0,0
76428,-133.333333333333,4,2,1,65,0,0
76828,-133.333333333333,4,1,1,50,0,0
77028,-133.333333333333,4,2,1,65,0,0
78028,-133.333333333333,4,1,1,50,0,0
78328,-133.333333333333,4,2,1,65,0,0
79428,-133.333333333333,4,1,1,50,0,0
79928,-133.333333333333,4,1,1,40,0,0
80028,-133.333333333333,4,1,1,50,0,0
80128,-133.333333333333,4,2,1,65,0,0
81228,-133.333333333333,4,1,1,50,0,0
81828,-133.333333333333,4,2,1,70,0,0
82028,-133.333333333333,4,2,1,60,0,0
82228,-133.333333333333,4,2,1,50,0,0
82428,-133.333333333333,4,2,1,40,0,0
82628,-133.333333333333,4,1,1,40,0,0
82828,-133.333333333333,4,1,1,50,0,0
83028,-133.333333333333,4,1,1,60,0,0
83228,-133.333333333333,4,2,1,60,0,0
83428,-133.333333333333,4,2,1,65,0,0
84428,-133.333333333333,4,1,1,50,0,0
84728,-133.333333333333,4,2,1,65,0,0
85828,-133.333333333333,4,1,1,50,0,0
85928,-133.333333333333,4,1,1,25,0,0
86028,-133.333333333333,4,1,1,50,0,0
86228,-133.333333333333,4,1,1,25,0,0
86328,-133.333333333333,4,2,1,65,0,0
86428,-133.333333333333,4,2,1,50,0,0
87228,-133.333333333333,4,2,1,65,0,0
87628,-133.333333333333,4,1,1,50,0,0
88028,-133.333333333333,4,2,1,50,0,0
88228,-133.333333333333,4,1,1,42,0,0
88528,-133.333333333333,4,1,1,44,0,0
88828,-133.333333333333,4,1,1,46,0,0
89128,-133.333333333333,4,1,1,48,0,0
89428,-133.333333333333,4,1,1,50,0,0
89628,-133.333333333333,4,2,1,70,0,0
89828,-133.333333333333,4,2,1,50,0,0
90228,-133.333333333333,4,1,1,50,0,0
90328,-133.333333333333,4,2,1,50,0,0
90528,-133.333333333333,4,1,1,35,0,0
90828,-133.333333333333,4,1,1,50,0,0
91228,-133.333333333333,4,2,1,50,0,0
91828,-133.333333333333,4,1,1,50,0,0
92028,-133.333333333333,4,2,1,50,0,0
92228,-133.333333333333,4,1,1,50,0,0
92728,-133.333333333333,4,2,1,50,0,0
93428,-133.333333333333,4,1,1,50,0,0
93728,-133.333333333333,4,2,1,50,0,0
94028,-133.333333333333,4,1,1,50,0,0
94428,-133.333333333333,4,2,1,40,0,0
94828,-133.333333333333,4,2,1,50,0,0
95028,-133.333333333333,4,1,1,50,0,0
96028,-133.333333333333,4,2,1,50,0,0
96628,-133.333333333333,4,1,1,50,0,0
96828,-133.333333333333,4,2,1,50,0,0
97228,-133.333333333333,4,1,1,50,0,0
97628,-133.333333333333,4,2,1,50,0,0
98228,-133.333333333333,4,1,1,50,0,0
98428,-133.333333333333,4,2,1,50,0,0
98628,-133.333333333333,4,1,1,50,0,0
99128,-133.333333333333,4,2,1,50,0,0
99228,-133.333333333333,4,2,1,50,0,0
99328,-133.333333333333,4,1,1,30,0,0
100028,-133.333333333333,4,2,1,50,0,0
100128,-133.333333333333,4,1,1,30,0,0
100828,-111.111111111111,4,2,1,50,0,0
100928,-111.111111111111,4,1,1,40,0,0
101628,-111.111111111111,4,2,1,50,0,0
101728,-111.111111111111,4,1,1,40,0,0
102028,-111.111111111111,4,1,1,50,0,0
102618,-111.111111111111,4,2,1,5,0,0
104028,-100,4,2,1,60,0,1
104128,-100,4,2,1,60,0,0
104428,-100,4,1,1,60,0,0
104628,-100,4,2,1,60,0,0
104828,-100,4,1,1,60,0,0
104928,-100,4,2,1,60,0,0
105228,-100,4,1,1,60,0,0
105428,-100,4,2,1,60,0,0
105628,-100,4,1,1,60,0,0
105828,-100,4,2,1,50,0,0
106028,-100,4,1,1,60,0,0
106228,-100,4,2,1,60,0,0
106428,-100,4,1,1,60,0,0
106728,-100,4,2,1,60,0,0
108828,-100,4,2,1,60,0,0
109128,-100,4,2,1,50,0,0
109428,-100,4,2,1,60,0,0
109628,-100,4,1,1,60,0,0
109728,-100,4,2,1,60,0,0
110028,-100,4,1,1,60,0,0
110128,-100,4,2,1,60,0,0
110428,-100,4,1,1,60,0,0
110728,-100,4,2,1,60,0,0
111228,-100,4,1,1,60,0,0
111328,-100,4,2,1,60,0,0
111528,-100,4,2,1,75,0,0
111628,-100,4,1,1,50,0,0
111828,-100,4,2,1,60,0,0
112028,-100,4,1,1,60,0,0
112228,-100,4,2,1,60,0,0
112428,-100,4,1,1,60,0,0
112628,-100,4,2,1,80,0,0
112828,-100,4,1,1,60,0,0
112928,-100,4,2,1,60,0,0
113228,-100,4,1,1,60,0,0
113428,-100,4,2,1,60,0,0
113628,-100,4,1,1,60,0,0
113928,-100,4,2,1,60,0,0
114028,-100,4,1,1,60,0,0
114228,-100,4,2,1,60,0,0
114428,-100,4,1,1,60,0,0
114628,-100,4,2,1,60,0,0
116028,-100,4,1,1,50,0,0
116128,-100,4,2,1,50,0,0
116228,-100,4,2,1,60,0,0
116328,-100,4,2,1,40,0,0
116428,-100,4,1,1,60,0,0
116628,-100,4,2,1,60,0,0
116828,-100,4,1,1,50,0,0
117028,-100,4,2,1,60,0,0
117228,-100,4,1,1,60,0,0
117428,-100,4,2,1,60,0,0
117628,-100,4,1,1,60,0,0
117828,-100,4,2,1,60,0,0
118028,-100,4,1,1,60,0,0
118228,-100,4,2,1,60,0,0
118428,-100,4,1,1,60,0,0
118628,-100,4,2,1,60,0,0
118828,-100,4,1,1,70,0,0
119028,-100,4,2,1,80,0,0
119228,-100,4,1,1,60,0,0
119728,-100,4,2,1,60,0,0
120028,-100,4,1,1,60,0,0
120328,-100,4,2,1,60,0,0
120828,-100,4,1,1,60,0,0
120928,-100,4,2,1,70,0,0
121028,-100,4,2,1,80,0,0
121128,-100,4,2,1,60,0,0
121228,-100,4,1,1,70,0,0
121328,-100,4,2,1,70,0,0
121628,-100,4,1,1,50,0,0
121828,-100,4,2,1,60,0,0
122228,-100,4,2,1,70,0,0
122428,-100,4,1,1,70,0,0
122528,-100,4,2,1,70,0,0
122628,-100,4,2,1,60,0,0
122728,-100,4,2,1,75,0,0
122928,-100,4,2,1,60,0,0
123028,-100,4,2,1,60,0,0
123228,-100,4,1,1,60,0,0
124228,-100,4,2,1,60,0,0
124428,-100,4,1,1,60,0,0
124628,-100,4,2,1,60,0,0
124828,-100,4,1,1,60,0,0
125028,-100,4,2,1,60,0,0
125228,-100,4,1,1,60,0,0
125428,-100,4,2,1,60,0,0
125628,-100,4,1,1,60,0,0
125828,-100,4,2,1,60,0,0
126028,-100,4,1,1,60,0,0
126128,-100,4,2,1,60,0,0
126428,-100,4,1,1,70,0,0
126628,-100,4,2,1,60,0,0
126828,-100,4,1,1,60,0,0
127028,-100,4,2,1,60,0,0
127128,-100,4,2,1,50,0,0
127228,-100,4,1,1,60,0,0
127328,-100,4,2,1,70,0,0
127428,-100,4,2,1,50,0,0
127528,-100,4,2,1,60,0,0
127628,-100,4,1,1,60,0,0
127728,-100,4,2,1,60,0,0
127828,-100,4,2,1,60,0,0
128028,-100,4,1,1,70,0,0
129128,-66.6666666666667,4,2,1,70,0,0
129628,-90.9090909090909,4,2,1,70,0,1
129728,-90.9090909090909,4,2,1,70,0,0
130028,-90.9090909090909,4,1,1,60,0,0
130228,-90.9090909090909,4,2,1,60,0,0
130428,-90.9090909090909,4,1,1,60,0,0
130628,-90.9090909090909,4,2,1,60,0,0
130828,-90.9090909090909,4,1,1,60,0,0
131028,-90.9090909090909,4,2,1,60,0,0
131228,-90.9090909090909,4,1,1,60,0,0
131428,-90.9090909090909,4,2,1,60,0,0
131628,-90.9090909090909,4,1,1,60,0,0
131828,-90.9090909090909,4,2,1,60,0,0
132028,-90.9090909090909,4,1,1,60,0,0
132228,-90.9090909090909,4,2,1,60,0,0
132828,-90.9090909090909,4,1,1,60,0,0
133228,-90.9090909090909,4,1,1,60,0,0
133428,-90.9090909090909,4,2,1,60,0,0
133628,-90.9090909090909,4,1,1,60,0,0
133828,-90.9090909090909,4,2,1,60,0,0
134028,-90.9090909090909,4,1,1,60,0,0
134228,-90.9090909090909,4,2,1,60,0,0
136028,-90.9090909090909,4,1,1,60,0,0
136228,-90.9090909090909,4,2,1,60,0,0
136428,-90.9090909090909,4,1,1,50,0,0
136528,-90.9090909090909,4,2,1,60,0,0
136828,-90.9090909090909,4,1,1,50,0,0
137028,-90.9090909090909,4,2,1,60,0,0
137228,-90.9090909090909,4,1,1,60,0,0
137428,-90.9090909090909,4,2,1,60,0,0
137628,-90.9090909090909,4,1,1,60,0,0
137828,-90.9090909090909,4,2,1,60,0,0
138028,-90.9090909090909,4,1,1,60,0,0
138228,-90.9090909090909,4,2,1,60,0,0
138428,-90.9090909090909,4,1,1,60,0,0
138728,-90.9090909090909,4,2,1,60,0,0
138828,-90.9090909090909,4,1,1,60,0,0
139028,-90.9090909090909,4,2,1,60,0,0
139228,-90.9090909090909,4,1,1,60,0,0
139528,-90.9090909090909,4,2,1,60,0,0
139628,-90.9090909090909,4,1,1,60,0,0
139828,-90.9090909090909,4,2,1,60,0,0
140028,-90.9090909090909,4,1,1,60,0,0
140228,-90.9090909090909,4,2,1,60,0,0
140428,-90.9090909090909,4,1,1,60,0,0
140628,-90.9090909090909,4,2,1,60,0,0
142828,-90.9090909090909,4,1,1,60,0,0
143028,-90.9090909090909,4,2,1,60,0,0
143228,-90.9090909090909,4,1,1,60,0,0
143428,-90.9090909090909,4,2,1,60,0,0
143628,-90.9090909090909,4,1,1,60,0,0
143828,-90.9090909090909,4,2,1,60,0,0
144028,-90.9090909090909,4,1,1,60,0,0
144328,-90.9090909090909,4,2,1,60,0,0
144428,-90.9090909090909,4,1,1,60,0,0
144628,-90.9090909090909,4,2,1,60,0,0
144828,-90.9090909090909,4,1,1,60,0,0
146128,-90.9090909090909,4,2,1,60,0,0
146428,-90.9090909090909,4,1,1,60,0,0
146628,-90.9090909090909,4,2,1,60,0,0
146828,-90.9090909090909,4,1,1,60,0,0
147028,-90.9090909090909,4,2,1,60,0,0
147228,-90.9090909090909,4,1,1,60,0,0
147428,-90.9090909090909,4,2,1,60,0,0
148828,-90.9090909090909,4,2,1,45,0,0
148928,-90.9090909090909,4,1,1,40,0,0
150428,-90.9090909090909,4,2,1,60,0,0
150528,-90.9090909090909,4,1,1,50,0,0
152028,-90.9090909090909,4,1,1,60,0,0
152628,-90.9090909090909,4,2,1,60,0,0
152828,-90.9090909090909,4,1,1,60,0,0
153028,-90.9090909090909,4,2,1,60,0,0
153228,-90.9090909090909,4,1,1,60,0,0
153428,-90.9090909090909,4,2,1,60,0,0
153628,-90.9090909090909,4,1,1,60,0,0
153828,-90.9090909090909,4,2,1,60,0,0
153928,-90.9090909090909,4,1,1,60,0,0
154128,-90.9090909090909,4,2,1,60,0,0
154228,-90.9090909090909,4,1,1,60,0,0
154428,-90.9090909090909,4,2,1,60,0,0
154528,-90.9090909090909,4,1,1,60,0,0
154728,-90.9090909090909,4,2,1,60,0,0
154828,-66.6666666666667,4,1,1,60,0,0
155228,-90.9090909090909,4,1,1,60,0,0
166328,-133.333333333333,4,1,1,60,0,0
168128,-133.333333333333,4,2,1,50,0,0
170328,-133.333333333333,4,1,1,50,0,0
171528,-133.333333333333,4,2,1,50,0,0
172028,-133.333333333333,4,1,1,50,0,0
172428,-133.333333333333,4,2,1,50,0,0
173628,-133.333333333333,4,1,1,50,0,0
174178,-133.333333333333,4,2,1,50,0,0
174328,-133.333333333333,4,2,1,50,0,0
174528,-133.333333333333,4,2,1,50,0,0
176728,-133.333333333333,4,1,1,50,0,0
177328,-133.333333333333,4,2,1,50,0,0
178928,-133.333333333333,4,2,1,5,0,0
179128,-133.333333333333,4,1,1,50,0,0
180078,-133.333333333333,4,2,1,50,0,0
180228,-133.333333333333,4,1,1,50,0,0
180578,-133.333333333333,4,2,1,50,0,0
180728,-133.333333333333,4,1,1,40,0,0
181028,-133.333333333333,4,2,1,30,0,0
183028,-133.333333333333,4,2,1,40,0,0
186628,-133.333333333333,4,2,1,50,0,0
186828,-133.333333333333,4,2,1,40,0,0
187028,-133.333333333333,4,2,1,50,0,0
187228,-133.333333333333,4,2,1,40,0,0
190728,-133.333333333333,4,2,1,50,0,0
191028,-133.333333333333,4,2,1,40,0,0
191528,-133.333333333333,4,2,1,50,0,0
191828,-133.333333333333,4,2,1,40,0,0
193628,-133.333333333333,4,1,1,40,0,0
193828,-133.333333333333,4,2,1,40,0,0
196128,-133.333333333333,4,1,1,40,0,0
196728,-133.333333333333,4,2,1,40,0,0
199428,-133.333333333333,4,1,1,40,0,0
199528,-133.333333333333,4,2,1,40,0,0
199628,-133.333333333333,4,1,1,40,0,0
199828,-133.333333333333,4,2,1,40,0,0
199928,-133.333333333333,4,1,1,40,0,0
200128,-133.333333333333,4,2,1,40,0,0
202528,-133.333333333333,4,1,1,40,0,0
202628,-133.333333333333,4,2,1,40,0,0
202728,-133.333333333333,4,1,1,40,0,0
202928,-133.333333333333,4,2,1,40,0,0
203228,-111.111111111111,4,1,1,40,0,0
203328,-111.111111111111,4,2,1,50,0,0
204828,-133.333333333333,4,1,1,50,0,0
205628,-133.333333333333,4,2,1,50,0,0
205728,-133.333333333333,4,2,1,45,0,0
205828,-133.333333333333,4,2,1,40,0,0
205928,-133.333333333333,4,2,1,35,0,0
206028,-133.333333333333,4,2,1,30,0,0
206128,-133.333333333333,4,2,1,25,0,0
206228,-133.333333333333,4,2,1,20,0,0
206328,-133.333333333333,4,2,1,15,0,0
206428,-200,4,2,1,15,0,0
207228,-133.333333333333,4,2,1,55,0,0
208428,-133.333333333333,4,2,1,45,0,0
209228,-133.333333333333,4,2,1,55,0,0
212428,-133.333333333333,4,2,1,45,0,0
212828,-133.333333333333,4,2,1,55,0,0
213828,-133.333333333333,4,2,1,5,0,0
214428,-133.333333333333,4,2,1,55,0,0
214828,-133.333333333333,4,2,1,60,0,0
215428,-133.333333333333,4,2,1,20,0,0
215628,-133.333333333333,4,2,1,55,0,0
217028,-133.333333333333,4,2,1,20,0,0
217228,-133.333333333333,4,2,1,55,0,0
218328,-133.333333333333,4,2,1,45,0,0
218628,-133.333333333333,4,2,1,55,0,0
219128,-133.333333333333,4,2,1,35,0,0
219228,-133.333333333333,4,2,1,55,0,0
219628,-133.333333333333,4,2,1,60,0,0
220428,-133.333333333333,4,2,1,30,0,0
220828,-117.647058823529,4,2,1,55,0,0
221228,-117.647058823529,4,2,1,60,0,0
222428,-117.647058823529,4,2,1,50,0,0
224028,-117.647058823529,4,2,1,60,0,0
225628,-117.647058823529,4,2,1,50,0,0
228628,-200,4,2,1,55,0,0
230428,-133.333333333333,4,1,1,55,0,0
231428,-100,4,1,1,55,0,0
232028,-100,4,2,1,55,0,1
232128,-100,4,2,1,55,0,0
232328,-100,4,1,1,60,0,0
232528,-100,4,2,1,60,0,0
233128,-100,4,1,1,60,0,0
233328,-100,4,2,1,60,0,0
233928,-100,4,1,1,60,0,0
234128,-100,4,2,1,60,0,0
234378,-100,4,1,1,60,0,0
234528,-100,4,2,1,60,0,0
235528,-100,4,1,1,60,0,0
235728,-100,4,2,1,60,0,0
235928,-100,4,1,1,60,0,0
236128,-100,4,2,1,60,0,0
236328,-100,4,1,1,60,0,0
236528,-100,4,2,1,60,0,0
236728,-100,4,1,1,60,0,0
236928,-100,4,2,1,60,0,0
237128,-100,4,1,1,60,0,0
237328,-100,4,2,1,60,0,0
237528,-100,4,1,1,60,0,0
237728,-100,4,2,1,60,0,0
238728,-100,4,1,1,60,0,0
238928,-100,4,2,1,60,0,0
239528,-100,4,1,1,60,0,0
239728,-100,4,2,1,60,0,0
240328,-100,4,1,1,60,0,0
240528,-100,4,2,1,60,0,0
240778,-100,4,1,1,60,0,0
240928,-100,4,2,1,60,0,0
241928,-100,4,1,1,60,0,0
242128,-100,4,2,1,60,0,0
242728,-100,4,1,1,60,0,0
242928,-100,4,2,1,60,0,0
245128,-100,4,1,1,60,0,0
245328,-100,4,2,1,60,0,0
245928,-100,4,1,1,60,0,0
246128,-100,4,2,1,60,0,0
246728,-100,4,1,1,60,0,0
246928,-100,4,2,1,60,0,0
247178,-100,4,1,1,60,0,0
247328,-100,4,2,1,60,0,0
247528,-100,4,1,1,60,0,0
247728,-100,4,2,1,60,0,0
248328,-100,4,1,1,60,0,0
248528,-100,4,2,1,60,0,0
249978,-100,4,1,1,60,0,0
250128,-100,4,2,1,60,0,0
250328,-100,4,1,1,60,0,0
250478,-100,4,2,1,60,0,0
250778,-100,4,1,1,60,0,0
250928,-100,4,2,1,60,0,0
251128,-100,4,2,1,45,0,0
251578,-100,4,1,1,45,0,0
251678,-100,4,2,1,45,0,0
251978,-133.333333333333,4,1,1,45,0,0
252128,-133.333333333333,4,2,1,45,0,0
252728,-100,4,2,1,60,0,0
253178,-100,4,1,1,60,0,0
253278,-100,4,2,1,60,0,0
253578,-100,4,1,1,60,0,0
253728,-100,4,2,1,60,0,0
254528,-100,4,1,1,60,0,0
255128,-100,4,2,1,60,0,0
255328,-100,4,1,1,60,0,0
255928,-100,4,2,1,60,0,0
256828,-90.9090909090909,4,2,1,55,0,0
257028,-90.9090909090909,4,1,1,55,0,0
257178,-90.9090909090909,4,2,1,55,0,0
257328,-90.9090909090909,4,2,1,55,0,0
257628,-133.333333333333,4,2,1,55,0,0
258828,-133.333333333333,4,1,1,45,0,0
259228,-133.333333333333,4,2,1,55,0,0
260228,-133.333333333333,4,1,1,45,0,0
260928,-133.333333333333,4,2,1,55,0,0
262028,-133.333333333333,4,1,1,45,0,0
262128,-133.333333333333,4,2,1,55,0,0
262228,-133.333333333333,4,1,1,45,0,0
262328,-133.333333333333,4,2,1,45,0,0
263428,-133.333333333333,4,1,1,45,0,0
263528,-133.333333333333,4,1,1,55,0,0
263628,-133.333333333333,4,1,1,45,0,0
263828,-133.333333333333,4,2,1,55,0,0
268428,-133.333333333333,4,1,1,45,0,0
268828,-133.333333333333,4,1,1,45,0,0
271028,-133.333333333333,4,2,1,55,0,0
274828,-133.333333333333,4,1,1,45,0,0
274928,-133.333333333333,4,2,1,45,0,0
275028,-133.333333333333,4,1,1,45,0,0
275228,-133.333333333333,4,2,1,55,0,0
276428,-133.333333333333,4,1,1,45,0,0
276928,-133.333333333333,4,2,1,55,0,0
280428,-133.333333333333,4,1,1,45,0,0
283328,-133.333333333333,4,2,1,40,0,0
285528,-133.333333333333,4,1,1,40,0,0
286328,-133.333333333333,4,2,1,40,0,0
287128,-133.333333333333,4,1,1,30,0,0
287328,-133.333333333333,4,2,1,40,0,0
288928,-133.333333333333,4,1,1,40,0,0
289728,-133.333333333333,4,2,1,40,0,0
291928,-133.333333333333,4,1,1,40,0,0
292528,-133.333333333333,4,2,1,40,0,0
293528,-133.333333333333,4,1,1,30,0,0
294528,-133.333333333333,4,2,1,40,0,0
294678,-133.333333333333,4,1,1,40,0,0
294828,-133.333333333333,4,2,1,40,0,0
295028,-133.333333333333,4,1,1,40,0,0
295328,-133.333333333333,4,2,1,40,0,0
295528,-133.333333333333,4,1,1,40,0,0
296128,-133.333333333333,4,2,1,40,0,0
296728,-133.333333333333,4,1,1,30,0,0
296928,-133.333333333333,4,2,1,40,0,0
298328,-133.333333333333,4,1,1,40,0,0
299328,-133.333333333333,4,2,1,40,0,0
299928,-133.333333333333,4,1,1,30,0,0
300128,-133.333333333333,4,2,1,40,0,0
301828,-133.333333333333,4,1,1,40,0,0
302428,-133.333333333333,4,1,1,30,0,0
302728,-133.333333333333,4,2,1,40,0,0
303128,-133.333333333333,4,1,1,30,0,0
303328,-133.333333333333,4,2,1,40,0,0
304728,-133.333333333333,4,1,1,40,0,0
305728,-133.333333333333,4,2,1,40,0,0
306328,-133.333333333333,4,1,1,30,0,0
306528,-133.333333333333,4,2,1,40,0,0
307428,-133.333333333333,4,1,1,30,0,0
307928,-133.333333333333,4,2,1,30,0,0
308128,-133.333333333333,4,1,1,30,0,0
308778,-133.333333333333,4,2,1,30,0,0

[Colours]
Combo1 : 255,255,255
Combo2 : 128,0,255
Combo3 : 100,100,255
Combo4 : 255,160,70
Combo5 : 255,255,128
Combo6 : 236,60,121
Combo7 : 248,169,204
Combo8 : 255,255,255

[HitObjects]
180,292,28,2,0,B|126:327|63:322,2,120,2|2|2
328,228,1628,2,0,B|381:192|444:197,2,120,2|2|2
256,324,3228,1,2
256,324,3828,6,0,B|256:160,1,160
184,228,6428,102,0,B|130:192|67:197,2,120,2|2|2
332,292,8028,2,0,B|385:327|448:322,2,120,2|2|2
256,152,9628,1,2
256,152,10228,6,0,B|256:328,1,160
256,192,11228,12,0,12628
320,130,12828,6,0,B|390:92|492:74,2,179.999994635582,4|2|2
184,249,14428,2,0,B|108:300|11:320,2,179.999994635582,2|2|2
257,84,16028,1,2
257,84,16628,2,0,B|256:260,1,160
257,84,17828,2,0,B|184:84,1,59.9999982118607,2|0
146,159,18228,1,0
95,233,18428,2,0,B|1:233,2,89.9999973177911
146,159,19228,6,0,B|236:144|341:162,2,179.999994635582,4|2|2
271,288,20828,2,0,B|177:303|76:289,2,179.999994635582,2|2|2
439,223,22428,1,2
439,223,23028,2,0,B|274:223,1,160
53,141,24028,2,0,B|172:142,1,120,2|0
255,53,24828,1,0
255,53,24928,2,0,B|256:195,1,140,0|4
267,282,25828,101,2
337,315,26028,1,2
337,315,26128,1,0
412,296,26328,1,2
465,239,26528,1,0
441,164,26728,1,2
441,164,26828,1,0
379,115,27028,1,2
301,105,27228,2,0,B|214:93|106:111,2,179.999994635582,0|2|2
198,253,28828,1,2
199,253,29228,2,0,B|315:263|418:251,1,200
256,143,30628,2,0,B|256:60,2,80,2|2|2
256,143,32028,5,2
253,220,32228,1,0
196,273,32428,2,0,B|177:299,1,29.9999991059304,2|0
103,274,32728,1,2
40,227,32928,1,0
37,149,33128,1,2
88,90,33328,2,0,B|127:82|160:68,1,59.9999982118607,2|0
145,73,33628,2,0,B|171:172|312:159,2,179.999994635582,2|2|2
145,73,35228,1,4
256,192,35528,12,0,38228
308,100,38428,70,0,B|339:82|400:84,1,71.9999965667726,4|0
364,192,38828,1,2
208,144,39028,1,0
208,144,39128,2,0,B|152:124|100:124,1,107.999994850159,2|0
136,228,39628,1,2
244,248,39828,1,0
244,248,39928,2,0,B|288:256,1,35.9999982833863,2|0
348,268,40228,1,2
316,164,40428,5,2
316,164,40528,2,0,B|276:40,1,107.999994850159,2|2
196,220,41128,2,0,B|236:344,1,107.999994850159,2|2
229,322,41628,101,0
320,376,41828,1,2
400,296,42028,1,2
352,200,42228,1,2
245,215,42428,1,0
245,215,42528,1,0
208,212,42628,6,0,B|172:212|140:188,2,71.9999965667726,0|2|2
316,208,43228,1,0
416,168,43428,1,0
488,88,43628,2,0,B|500:140,1,35.9999982833863,2|2
504,160,43828,102,0,B|504:204|480:228,2,71.9999965667726,0|2|0
496,123,44328,2,0,B|392:84,1,107.999994850159,2|2
364,72,44728,5,0
364,72,44828,1,0
264,112,45028,2,0,B|228:128|188:124,1,71.9999965667726,2|2
216,20,45428,2,0,B|296:-16|352:48,1,143.999993133545,0|0
264,112,46028,2,0,B|236:144|232:180,1,71.9999965667726,2|2
240,284,46428,101,0
240,284,46628,1,0
160,356,46828,2,0,B|124:304,1,35.9999982833863,2|2
212,180,47228,2,0,B|248:172|304:196,1,71.9999965667726,2|0
312,204,47528,2,0,B|400:184,1,71.9999965667726,2|0
416,180,47828,1,2
432,212,47928,5,0
444,244,48028,1,0
364,316,48228,2,0,B|396:348|432:352,1,71.9999965667726,2|2
444,244,48628,2,0,B|408:200|344:208,1,107.999994850159,2|2
312,204,49028,2,0,B|292:176|292:136,2,71.9999965667726,0|2|2
400,144,49628,101,0
400,144,49828,2,0,B|436:132|476:144,1,71.9999965667726,2|2
504,152,50128,2,0,B|452:28,2,107.999994850159,2|2|2
444,244,50928,5,0
424,272,51028,1,2
404,300,51128,1,0
384,328,51228,101,4
280,352,51428,1,2
196,284,51628,2,0,B|220:251|264:244,1,71.9999965667726,2|2
280,352,52028,2,0,B|288:388,2,35.9999982833863
255,245,52428,2,0,B|232:152,1,71.9999965667726,2|2
212,72,52828,5,0
212,72,53028,1,2
237,175,53228,1,0
237,175,53328,2,0,B|280:216|348:208,1,107.999994850159,2|2
316,104,53828,1,0
316,104,53928,2,0,B|300:24,1,71.9999965667726,2|0
336,20,54228,1,2
336,20,54328,1,0
336,20,54428,1,0
424,88,54628,102,0,B|428:132|400:180,1,71.9999965667726,2|2
316,104,55028,2,0,B|273:63|205:71,1,107.999994850159,2|2
180,80,55428,2,0,B|140:12,2,71.9999965667726,0|2|2
232,172,56028,1,0
232,172,56228,2,0,B|280:252,1,71.9999965667726,2|2
288,264,56528,1,2
304,296,56628,2,0,B|297:339|264:364,1,71.9999965667726,0|2
196,280,57028,5,0
196,280,57128,1,2
124,200,57328,1,0
113,234,57428,1,2
99,269,57528,1,0
89,303,57628,102,0,B|24:360,7,71.9999965667726,4|0|2|2|0|0|2|2
196,280,59228,2,0,B|168:361,3,71.9999965667726,4|2|2|2
304,256,60028,6,0,B|280:200|216:172,2,107.999994850159,2|2|2
411,233,60828,102,0,B|500:216,1,71.9999965667726,4|2
342,57,61228,2,0,B|354:-32,1,71.9999965667726,2|2
154,67,61628,2,0,B|72:29,1,71.9999965667726,4|2
106,249,62028,2,0,B|44:316,1,71.9999965667726,2|2
264,352,62428,6,0,B|308:431,1,71.9999965667726,4|2
304,252,62828,1,2
304,252,62928,2,0,B|260:214|192:204,1,107.999994850159,2|2
106,249,63428,2,0,B|122:280,1,35.9999982833863,0|2
152,336,63628,1,0
152,336,63728,1,0
152,336,63828,1,0
152,336,63928,1,0
152,336,64028,38,0,B|200:304|288:296,1,119.999996423721,4|0
224,240,64628,2,0,B|236:180|216:108,1,119.999996423721
352,48,65228,5,0
352,48,65428,2,0,B|372:108|428:148,2,119.999996423721,0|0|0
280,48,66428,1,0
260,116,66628,1,0
320,156,66828,1,0
320,156,66928,1,0
168,296,67228,101,0
124,240,67428,1,2
56,256,67628,1,0
56,256,67728,2,0,B|40:228|40:196,1,59.9999982118607,2|0
64,176,68028,2,0,B|84:148|80:84,1,89.9999973177911,2|2
48,68,68428,1,0
48,68,68528,1,0
48,68,68628,2,0,B|72:48|120:40,1,59.9999982118607
136,144,69028,5,2
376,144,69328,1,2
184,288,69628,1,2
256,60,69928,1,2
324,288,70228,1,2
324,288,70428,102,0,B|364:304|400:304,1,59.9999982118607,0|0
496,256,70828,2,0,B|452:228|420:232,1,59.9999982118607
440,232,71428,5,0
396,176,71628,1,0
328,200,71828,1,0
328,272,72028,1,0
328,272,72128,1,0
328,272,72228,1,2
396,288,72428,101,2
260,288,72628,1,2
328,200,72828,1,2
200,184,73028,5,0
144,228,73228,1,0
144,228,73328,1,0
88,184,73528,1,0
88,184,73628,1,0
108,116,73828,1,0
180,116,74028,1,0
216,52,74228,2,0,B|272:68|344:72,2,119.999996423721,0|0|0
244,116,75228,2,0,B|276:144|352:156,2,89.9999973177911,2|2|2
240,152,75928,101,0
104,180,76128,1,0
180,284,76328,2,0,B|248:312|312:312,1,119.999996423721,0|0
284,276,76828,6,0,B|336:272|360:252,1,59.9999982118607,4|0
428,184,77228,2,0,B|384:180|360:200,1,59.9999982118607
369,193,77828,1,0
308,148,78028,1,0
308,148,78228,2,0,B|256:168|188:164,1,119.999996423721
124,140,78828,1,0
80,84,79028,2,0,B|52:140|64:216,1,119.999996423721
92,268,79628,1,0
92,268,79728,1,0
164,284,79928,1,0
164,284,80028,102,0,B|236:288|280:320,1,119.999996423721
348,332,80628,2,0,B|404:288|408:220,1,119.999996423721
452,176,81228,1,0
444,104,81428,2,0,B|384:124|308:68,1,119.999996423721,0|2
272,40,82028,5,2
200,24,82228,1,2
144,72,82428,1,0
160,144,82628,1,2
224,172,82828,1,2
288,144,83028,1,2
352,180,83228,102,0,B|408:288,1,119.999996423721,4|0
348,324,83828,2,0,B|220:304,1,119.999996423721
164,340,84428,1,0
164,340,84628,2,0,B|132:284|132:204,2,119.999996423721
232,312,85628,5,0
292,352,85828,1,0
292,352,85928,1,0
292,352,86028,1,0
292,352,86128,1,2
292,352,86228,1,0
352,316,86428,1,2
332,248,86628,1,0
260,240,86828,1,2
248,168,87028,1,0
308,128,87228,101,2
360,180,87428,1,0
360,180,87528,1,0
360,180,87628,1,0
360,180,87728,1,2
360,180,87828,1,0
428,152,88028,6,0,B|504:112,1,59.9999982118607
376,44,88528,1,0
252,96,88828,1,0
232,228,89128,1,0
336,312,89428,1,0
360,180,89628,38,0,B|372:120,2,59.9999982118607,4|2|2
344,268,90228,1,0
344,268,90328,1,2
344,268,90428,1,2
344,268,90528,1,0
344,268,90628,1,0
328,356,90828,1,0
328,356,91028,1,0
260,296,91228,6,0,B|224:260|152:264,1,89.9999973177911,4|0
148,272,91628,2,0,B|112:224,1,59.9999982118607,2|0
164,148,92028,2,0,B|200:196,1,59.9999982118607,2|0
252,120,92428,1,2
252,120,92528,2,0,B|216:72,1,59.9999982118607,0|0
200,48,92828,102,0,B|228:32|264:28,2,59.9999982118607,4|2|2
252,120,93428,2,0,B|292:156|284:228,1,89.9999973177911,2|0
280,232,93828,1,2
256,320,94028,1,2
256,320,94228,1,2
344,296,94428,6,0,B|408:280|480:324,1,119.999996423721,4|2
392,372,95028,2,0,B|412:244,1,119.999996423721
424,164,95628,1,2
424,164,95728,1,0
340,196,95928,1,0
340,196,96028,2,0,B|324:296,1,89.9999973177911,4|0
320,316,96428,102,0,B|248:344,1,59.9999982118607,2|2
228,256,96828,1,0
128,295,97028,2,0,B|176:332,1,59.9999982118607,2|2
228,256,97428,1,0
236,168,97628,2,0,B|244:84,1,59.9999982118607,4|0
152,100,98028,6,0,B|144:184,1,59.9999982118607,2|0
360,284,98428,2,0,B|368:200,1,59.9999982118607,2|0
276,216,98828,101,0
276,216,98928,1,0
276,216,99028,2,0,B|272:260,1,29.9999991059304
264,304,99228,6,0,B|260:348,15,29.9999991059304,4|0|0|0|0|0|0|0|4|0|0|0|0|0|0|0
204,348,100828,102,0,B|140:364,2,35.9999982833863,6|0|0
180,324,101128,2,0,B|116:305,2,35.9999982833863,2|0|0
172,288,101428,2,0,B|126:240,2,35.9999982833863,2|0|4
184,252,101728,2,0,B|168:187,2,35.9999982833863,2|0|0
212,228,102028,5,2
248,216,102128,1,0
284,204,102228,1,0
316,192,102328,1,0
256,192,102628,12,0,103828
124,76,104028,37,4
203,129,104228,1,0
296,152,104428,1,0
380,200,104628,2,0,B|444:184,1,40,2|0
456,224,104828,1,0
456,224,104928,1,0
456,224,105028,1,2
456,224,105128,1,2
456,224,105228,1,0
464,320,105428,5,2
464,320,105528,1,0
464,320,105628,2,0,B|376:340|352:316,1,80,0|2
168,244,106028,101,2
188,56,106228,1,0
364,164,106428,2,0,B|428:156|500:120,2,120,2|2|2
232,308,107228,6,0,B|248:256|232:192,1,80,2|0
188,56,107628,2,0,B|176:112|188:156,1,80,2|0
320,264,108028,1,2
368,180,108228,1,2
368,180,108328,1,2
460,156,108528,1,2
460,156,108628,1,2
408,236,108828,101,4
256,368,109128,1,2
104,236,109428,1,4
128,144,109628,6,0,B|176:108,1,40,2|0
172,80,109828,1,0
172,80,109928,1,2
172,80,110028,1,2
172,80,110128,1,2
172,80,110228,1,0
248,92,110428,102,0,B|316:96|380:72,2,120,4|2|2
304,172,111228,1,2
320,176,111328,1,0
336,180,111428,1,0
352,184,111528,1,2
368,188,111628,1,0
400,280,111828,1,0
320,332,112028,1,0
256,260,112228,5,2
144,212,112428,1,2
64,316,112628,2,0,B|24:240,1,80,2|2
60,208,112928,2,0,B|88:120,1,80,0|2
44,108,113228,2,0,B|140:80,1,80,0|2
216,64,113628,102,0,B|256:112|344:148,1,120,2|0
360,120,114028,2,0,B|384:68|440:48,1,80,2|2
456,148,114428,1,0
484,240,114628,1,2
484,240,114728,2,0,B|436:320,1,80,0|0
400,332,115028,1,2
312,296,115228,1,4
264,164,115428,5,2
144,316,115628,1,2
136,108,115828,1,2
204,68,116028,102,0,B|256:44,1,40
276,64,116228,1,2
276,64,116328,1,2
276,64,116428,1,2
352,124,116628,1,2
440,88,116828,6,0,B|488:160,1,80,4|2
464,324,117228,2,0,B|416:252,1,80,0|2
332,220,117628,1,0
240,244,117828,1,2
240,244,117928,1,0
240,244,118028,2,0,B|200:216|196:160,1,80,2|2
144,100,118428,101,0
236,76,118628,1,2
340,16,118828,1,2
364,108,119028,1,0
464,128,119228,2,0,B|440:184|448:296,1,160,2|2
404,308,119728,1,0
404,308,119828,1,2
168,304,120028,6,0,B|213:297|285:325,2,120,2|2|2
136,268,120728,101,0
144,256,120828,1,2
152,244,120928,1,0
160,232,121028,1,0
168,220,121128,1,2
200,228,121228,2,0,B|244:208,2,40,0|0|2
176,140,121628,5,2
376,248,121828,1,0
376,248,121928,1,2
368,24,122128,1,0
368,24,122228,1,2
408,132,122428,101,2
424,144,122528,1,0
440,156,122628,1,2
456,168,122728,1,2
440,272,122928,1,2
440,272,123028,1,2
440,272,123128,1,0
440,272,123228,2,0,B|372:304|280:312,1,160,0|2
204,316,123828,2,0,B|160:241|100:184,1,160,2|2
106,190,124328,1,0
106,190,124428,2,0,B|132:161|180:145,1,80,2|2
252,248,124828,6,0,B|296:204|304:152,1,80,0|2
312,24,125228,2,0,B|264:80|264:120,1,80,0|2
252,248,125628,2,0,B|336:216,1,80
368,244,125928,1,2
368,244,126028,1,2
368,244,126128,1,0
368,244,126228,1,0
440,308,126428,102,0,B|480:260|472:216,1,80
448,144,126828,1,0
380,80,127028,1,2
380,80,127128,1,0
344,84,127228,1,0
344,84,127328,1,2
308,88,127428,1,0
308,88,127528,1,0
308,88,127628,1,0
272,92,127728,1,2
272,92,127828,2,0,B|184:104,1,80,2|0
96,120,128228,5,2
164,284,128428,1,0
276,144,128628,1,0
448,276,128828,101,0
448,276,128928,1,2
476,60,129128,1,2
476,60,129228,6,0,B|424:100|360:72,1,119.999996423721,4|2
256,32,129628,38,0,B|172:84,1,87.9999973773957,4|0
276,144,130028,2,0,B|360:92,1,87.9999973773957
296,256,130428,1,0
256,364,130628,1,0
148,324,130828,1,0
188,216,131028,1,0
296,256,131228,6,0,B|343:248|372:204,1,87.9999973773957,2|0
188,216,131628,2,0,B|170:260|195:307,1,87.9999973773957,0|0
276,144,132028,2,0,B|245:106|192:104,1,87.9999973773957,0|0
156,108,132328,2,0,B|100:136,1,43.9999986886979,0|2
76,236,132628,1,0
188,216,132828,102,0,B|287:223|334:299,1,175.999994754791,2|0
448,300,133428,2,0,B|484:212,1,87.9999973773957
334,299,133828,2,0,B|296:200,1,87.9999973773957
392,200,134228,6,0,B|368:124|272:128,1,131.999996066094,2|2
252,144,134628,2,0,B|224:176,2,43.9999986886979,0|2|0
140,132,135028,2,0,B|99:145,2,43.9999986886979,2|0|0
56,56,135428,2,0,B|14:47,2,43.9999986886979,2|0|0
168,76,135828,1,2
272,32,136028,102,0,B|318:43|352:88,1,87.9999973773957,2|0
252,144,136428,1,0
244,188,136528,1,0
236,232,136628,1,0
228,276,136728,2,0,B|216:336,1,43.9999986886979
336,312,137028,1,0
336,312,137128,1,0
336,312,137228,1,0
316,200,137428,1,0
336,312,137628,6,0,B|382:300|416:256,1,87.9999973773957,2|0
316,200,138028,2,0,B|269:188|236:144,1,87.9999973773957,0|0
243,153,138328,1,0
244,152,138428,2,0,B|164:124|140:200,1,131.999996066094
140,200,138828,2,0,B|132:324,1,87.9999973773957,2|0
236,268,139228,2,0,B|248:72,1,175.999994754791,2|0
356,128,139828,102,0,B|348:252,1,87.9999973773957,0|0
261,310,140228,2,0,B|158:241,1,87.9999973773957,0|0
150,137,140628,1,0
150,137,140828,6,0,B|261:82,1,87.9999973773957,2|0
268,80,141128,2,0,B|320:56,2,43.9999986886979,2|0|0
304,104,141428,2,0,B|355:128,2,43.9999986886979,2|0|0
312,148,141728,2,0,B|326:203,1,43.9999986886979,2|0
336,232,141928,1,2
368,260,142028,1,2
408,272,142128,1,2
452,272,142228,1,2
424,160,142428,102,0,B|396:64,1,87.9999973773957,4|0
312,148,142828,2,0,B|340:244,2,87.9999973773957
280,36,143428,1,0
200,116,143628,1,0
88,84,143828,1,0
172,4,144028,6,0,B|220:64|188:156,1,131.999996066094,2|0
168,164,144428,2,0,B|192:208|256:204,1,87.9999973773957,0|0
396,48,144828,101,0
56,192,145228,1,2
396,48,145628,2,0,B|444:240,1,175.999994754791,2|0
448,260,146128,5,2
448,260,146228,2,0,B|424:304|360:300,1,87.9999973773957,2|0
288,144,146628,2,0,B|338:142|366:200,1,87.9999973773957,2|0
269,342,147028,1,2
224,240,147228,102,0,B|180:260|152:324,1,87.9999973773957,2|0
156,344,147528,2,0,B|112:346|56:312,1,87.9999973773957,2|0
40,292,147828,1,2
40,292,147928,2,0,B|-4:340,3,43.9999986886979,2|0|0|0
116,208,148428,2,0,B|88:112,1,87.9999973773957
160,32,148828,5,4
168,64,148928,1,0
184,96,149028,1,0
204,124,149128,1,0
232,144,149228,1,0
264,156,149328,1,0
300,160,149428,1,0
336,156,149528,1,0
368,144,149628,1,0
396,124,149728,1,0
420,96,149828,2,0,B|480:20,2,87.9999973773957
348,184,150428,101,4
324,220,150528,1,0
324,264,150628,1,0
344,304,150728,1,0
384,324,150828,1,0
428,320,150928,1,0
464,296,151028,1,0
480,256,151128,1,0
480,212,151228,2,0,B|472:136|408:88,2,131.999996066094
456,324,152028,6,0,B|372:284|284:308,1,175.999994754791
180,352,152628,102,0,B|140:336|120:276,1,87.9999973773957,2|0
155,46,153028,2,0,B|189:19|251:32,1,87.9999973773957,2|0
432,177,153428,2,0,B|438:220|396:267,1,87.9999973773957,2|0
204,124,153828,6,0,B|140:112,1,43.9999986886979,2|0
188,244,154128,2,0,B|176:308,1,43.9999986886979,2|0
308,260,154428,2,0,B|372:272,1,43.9999986886979,2|0
324,140,154728,1,2
332,96,154828,2,0,B|356:32|428:20,1,119.999996423721,0|0
419,21,155228,69,4
199,242,166428,54,0,B|167:272|95:284,2,89.9999973177911,0|0|0
269,197,167228,1,2
269,197,167328,1,0
269,197,167428,1,0
336,158,167628,1,2
357,125,167728,1,0
347,87,167828,1,0
319,58,167928,1,0
281,48,168028,6,0,B|221:46|97:47,2,179.999994635582,4|2|2
230,258,169628,2,0,B|323:268|417:257,1,179.999994635582,2|0
433,183,170428,1,0
433,183,170528,1,0
414,107,170728,1,0
414,107,170828,1,0
414,107,171228,102,0,B|353:100|284:108,1,119.999996423721
107,214,172028,2,0,B|190:226|296:214,1,179.999994635582
286,136,172828,1,2
333,73,173028,1,0
410,75,173228,1,2
461,133,173428,1,2
461,133,173528,1,0
429,204,173728,1,0
351,214,173928,1,0
318,285,174128,1,0
318,285,174228,1,2
355,353,174428,6,0,B|288:356|234:352,1,119.999996423721,4|0
235,352,175028,2,0,B|220:244|99:215,1,179.999994635582,2|2
189,80,176028,2,0,B|270:138|377:72,1,179.999994635582,2|0
418,133,176828,1,0
418,133,176928,1,0
455,201,177128,1,0
455,201,177228,1,0
455,201,177628,102,0,B|461:254|458:335,1,119.999996423721,2|0
242,301,178428,2,0,B|237:215|240:116,1,179.999994635582,2|0
236,44,179228,2,0,B|176:33|140:33,2,89.9999973177911
306,76,180028,5,0
306,76,180128,1,2
363,130,180328,1,0
363,208,180528,1,0
363,208,180628,1,2
313,268,180828,69,4
242,301,181028,1,2
242,301,181128,2,0,B|232:336|232:368,1,59.9999982118607,2|2
308,344,181528,2,0,B|328:304|300:232,1,89.9999973177911,2|2
308,256,182628,5,2
242,301,182828,1,2
164,292,183028,1,2
164,292,183128,2,0,B|132:264,1,29.9999991059304,2|0
124,248,183328,102,0,B|92:212|36:212,1,89.9999973177911,2|2
56,288,183828,1,2
124,248,184028,6,0,B|196:208,1,59.9999982118607,2|0
200,200,184328,2,0,B|247:199|279:235,1,89.9999973177911,2|2
288,264,184728,2,0,B|296:312,1,29.9999991059304,2|0
376,324,185028,101,0
452,276,185228,1,0
372,236,185428,1,0
264,104,185828,1,0
348,76,186028,1,0
340,164,186228,1,0
256,192,186428,5,2
180,172,186628,1,2
156,100,186828,1,2
196,32,187028,1,2
272,28,187228,1,2
348,52,187428,102,0,B|396:24,2,29.9999991059304
292,104,187828,6,0,B|256:152|252:240,1,119.999996423721,2|2
268,292,188428,2,0,B|256:344,1,29.9999991059304,2|2
252,352,188828,101,2
268,292,189628,1,2
284,232,190428,5,2
304,156,190628,2,0,B|316:116,1,29.9999991059304,0|2
188,176,190928,2,0,B|176:216,1,29.9999991059304,0|2
207,99,191228,101,2
284,120,191428,2,0,B|312:128,1,29.9999991059304,0|2
208,212,191728,2,0,B|179:203,1,29.9999991059304,0|2
92,224,192028,5,2
72,300,192228,2,0,B|60:340,2,29.9999991059304
148,276,192628,1,2
148,276,192728,1,2
148,276,192828,2,0,B|192:264,5,29.9999991059304,2|0|0|0|0|0
148,276,193428,102,0,B|212:332,1,59.9999982118607,2|4
256,368,193828,2,0,B|322:368|360:312,2,119.999996423721,0|0|2
193,315,194828,5,2
204,240,195028,1,2
268,196,195228,1,2
339,225,195428,2,0,B|409:233|464:180,1,119.999996423721
468,116,196028,101,2
468,116,196128,2,0,B|484:44,1,59.9999982118607
488,28,196428,2,0,B|456:64|384:64,1,89.9999973177911,2|0
376,56,196828,6,0,B|352:156,1,89.9999973177911,2|2
348,172,197228,2,0,B|332:244,1,59.9999982118607,0|2
164,212,197828,2,0,B|180:140,1,59.9999982118607,2|2
196,76,198228,2,0,B|208:28,2,29.9999991059304,2|2|0
196,76,199228,102,0,B|180:148,1,59.9999982118607,2|0
176,164,199528,2,0,B|164:212,2,29.9999991059304,2|0|0
148,172,199828,2,0,B|100:185,2,29.9999991059304,2|0|0
120,144,200128,6,0,B|84:109,2,29.9999991059304,2|0|2
229,50,200528,2,0,B|241:2,2,29.9999991059304,2|0|2
365,98,200928,2,0,B|413:84,2,29.9999991059304,2|0|2
392,240,201328,2,0,B|427:274,2,29.9999991059304,2|0|2
282,333,201728,2,0,B|270:381,2,29.9999991059304,2|0|2
146,285,202128,2,0,B|98:299,2,29.9999991059304,2|0|2
120,144,202528,102,0,B|84:109,2,29.9999991059304,2|0|2
148,172,202828,1,2
176,200,202928,2,0,B|211:234,2,29.9999991059304,2|0|2
212,180,203228,6,0,B|196:128,1,35.9999982833863,2|0
252,116,203428,2,0,B|244:152,1,35.9999982833863,2|0
284,144,203628,2,0,B|320:104,1,35.9999982833863,2|0
358,145,203828,2,0,B|324:156,1,35.9999982833863,2|0
352,188,204028,2,0,B|404:200,1,35.9999982833863,2|0
390,256,204228,2,0,B|364:232,1,35.9999982833863,2|0
352,272,204428,2,0,B|368:324,1,35.9999982833863,2|0
311,335,204628,2,0,B|320:300,1,35.9999982833863,2|0
332,264,204828,102,0,B|296:296|224:288,2,89.9999973177911
240,108,205628,5,2
192,120,205728,1,2
160,156,205828,1,2
156,200,205928,1,2
168,240,206028,1,2
192,268,206128,1,2
224,284,206228,1,2
256,288,206328,1,0
284,284,206428,38,0,B|332:264|380:336|416:248,1,140
416,132,208028,5,2
356,80,208228,1,0
284,108,208428,1,2
284,184,208628,1,0
348,152,209228,101,2
348,152,209628,2,0,B|376:200|444:204,2,89.9999973177911,2|0|0
148,28,210828,6,0,B|72:36,1,59.9999982118607,0|0
104,112,211228,2,0,B|40:192,1,89.9999973177911,2|2
156,224,211828,2,0,B|120:328,1,89.9999973177911,2|0
160,332,212228,2,0,B|220:312,1,59.9999982118607,2|0
292,336,212628,102,0,B|312:260,1,59.9999982118607,2|0
356,216,213028,1,2
432,204,213228,1,0
492,256,213428,2,0,B|504:200|484:124,1,119.999996423721,2|0
272,48,214428,5,2
208,88,214628,1,0
216,164,214828,1,2
292,188,215028,2,0,B|348:200|420:176,1,119.999996423721
456,244,215628,1,2
320,320,216028,101,2
244,344,216228,1,0
220,268,216428,1,2
296,244,216628,2,0,B|352:272|428:236,1,119.999996423721
440,168,217228,1,0
472,96,217428,1,0
248,56,217828,5,2
208,120,218028,2,0,B|100:148,1,89.9999973177911,2|0
192,248,218628,1,2
232,312,218828,2,0,B|340:340,1,89.9999973177911,2|0
360,340,219228,102,0,B|412:292,2,59.9999982118607,2|0|2
324,268,219828,2,0,B|368:196|396:104,1,179.999994635582
152,340,220828,6,0,B|96:288,2,67.999997162819,2|0|2
188,268,221428,2,0,B|144:196|104:72,1,203.999991488457,0|2
268,52,222428,101,2
348,40,222628,1,0
408,96,222828,1,2
488,88,223028,1,0
488,88,223128,1,0
488,88,223228,2,0,B|526:60,1,33.9999985814095,2|2
500,168,223528,2,0,B|464:196,1,33.9999985814095
436,204,223728,6,0,B|324:176,1,101.999995744229,0|2
268,296,224228,2,0,B|232:224,1,67.999997162819,2|2
156,228,224628,1,0
156,228,224728,1,0
156,228,224828,1,2
156,228,224928,1,2
76,232,225128,2,0,B|64:184,1,33.9999985814095
76,160,225328,102,0,B|180:108,1,101.999995744229,0|2
244,16,225828,2,0,B|300:88,1,67.999997162819,2|2
364,48,226228,2,0,B|400:44,1,33.9999985814095
432,68,226428,2,0,B|456:100,1,33.9999985814095,2|2
460,176,226728,2,0,B|484:232|460:280,2,101.999995744229
424,192,227428,6,0,B|356:220,1,67.999997162819
292,172,227828,1,0
280,172,227928,1,0
268,172,228028,1,2
260,172,228128,1,2
252,172,228228,1,0
244,172,228328,1,0
240,172,228428,1,2
236,172,228528,1,2
232,172,228628,102,0,B|197:129|197:129|164:228|60:220|20:172|12:92,1,320
64,60,230428,2,0,B|168:40,1,89.9999973177911
224,96,231028,2,0,B|336:112,1,89.9999973177911
328,136,231428,6,0,B|400:192,1,80
392,224,231728,2,0,B|496:232,1,80
488,192,232028,69,4
448,104,232228,1,2
352,94,232428,1,0
309,180,232628,1,2
309,180,232728,1,0
309,180,233028,6,0,B|343:205|384:217,2,80
241,110,233628,1,4
150,142,233828,1,2
157,237,234028,1,0
249,260,234228,1,2
249,260,234328,1,0
249,260,234428,2,0,B|208:307|142:327,2,120
338,226,235228,102,0,B|378:201|422:189,1,80,4|2
361,109,235628,2,0,B|311:102|275:104,1,80,0|2
281,103,236028,2,0,B|267:198|149:201,1,160
75,186,236628,1,2
43,95,236828,2,0,B|119:44,1,80,0|2
191,185,237228,2,0,B|107:242,1,80,0|2
138,126,237628,2,0,B|206:81,1,80,0|2
296,213,238028,2,0,B|216:269,2,80,2|2|4
360,142,238628,5,2
453,162,238828,1,0
454,257,239028,1,2
454,257,239128,1,0
454,257,239428,101,0
361,282,239628,1,0
295,212,239828,1,0
206,173,240028,1,4
212,77,240228,1,2
306,62,240428,1,0
360,141,240628,1,2
360,141,240728,1,0
360,141,240828,2,0,B|422:167|478:179,2,120
306,62,241628,6,0,B|223:27,1,80,4|2
148,77,242028,2,0,B|236:114,1,80,0|2
291,215,242428,2,0,B|197:177,1,80,4|2
128,223,242828,2,0,B|209:258,1,80,0|2
293,284,243228,101,4
388,296,243428,1,2
432,211,243628,1,6
432,211,243728,1,0
359,148,243928,1,2
359,148,244028,1,4
274,192,244228,2,0,B|185:145,1,80,2|4
196,58,244628,2,0,B|274:100,1,80,2|4
273,192,245028,5,2
178,208,245228,1,0
134,122,245428,1,2
134,122,245528,2,0,B|121:169|64:177,1,80
82,222,245828,2,0,B|40:291,2,80
177,208,246428,1,4
187,112,246628,1,2
96,79,246828,1,0
31,149,247028,1,2
31,149,247128,1,0
31,149,247228,2,0,B|81:222,1,80,0|2
142,145,247628,2,0,B|201:227,1,80,0|2
267,153,248028,102,0,B|369:285,1,160,4|0
364,279,248628,2,0,B|530:279,2,160,2|0|0
268,290,249628,1,2
268,290,249728,1,0
220,206,249928,1,2
220,206,250028,1,0
288,138,250228,1,2
372,183,250428,1,2
372,183,250528,1,0
366,278,250728,1,2
366,278,250828,1,0
268,290,251028,1,2
220,206,251228,5,4
204,178,251328,1,0
175,163,251428,1,0
143,156,251528,1,0
112,165,251628,1,0
82,178,251728,1,0
63,204,251828,1,0
59,235,251928,1,0
62,266,252028,2,0,B|88:312|144:344,2,89.9999973177911
111,164,252828,101,4
149,175,252928,1,0
188,183,253028,1,0
227,177,253128,1,0
260,155,253228,1,0
276,118,253328,1,0
271,78,253428,1,0
254,41,253528,1,0
216,27,253628,2,0,B|156:46|86:38,2,120
260,155,254428,6,0,B|340:182,1,80,4|0
259,239,254828,2,0,B|159:205,1,80
320,259,255228,2,0,B|354:178,1,80,4|0
212,144,255628,2,0,B|172:221,1,80
264,82,256028,2,0,B|385:124,2,120,4|4|4
264,82,256828,101,4
264,82,256928,2,0,B|176:104,1,87.9999973773957,0|0
194,153,257228,2,0,B|101:215,1,87.9999973773957,4|4
120,201,257628,22,0,B|60:109|60:109|66:70|32:36,2,179.999994635582,6|2|0
132,272,259028,1,0
132,272,259228,2,0,B|244:304|244:304|276:288|328:316,1,179.999994635582,2|2
368,268,260028,1,0
432,232,260228,1,0
424,160,260428,1,0
424,160,260528,1,0
352,144,260728,1,0
352,144,260828,6,0,B|296:160|216:144,1,119.999996423721,2|0
172,188,261428,1,0
108,156,261628,1,2
108,156,261728,1,0
108,156,261828,1,2
108,156,261928,1,2
108,156,262028,1,0
108,156,262128,1,0
108,156,262228,1,0
108,156,262328,1,2
108,156,262428,1,0
116,84,262628,101,0
216,112,262828,1,2
300,24,263028,1,2
404,128,263228,1,0
404,128,263328,1,0
404,128,263428,1,0
404,128,263528,1,2
404,128,263628,1,0
456,176,263828,5,0
456,176,264028,2,0,B|403:210|380:288,1,119.999996423721,2|0
312,264,264628,2,0,B|308:201|253:142,1,119.999996423721,2|0
304,96,265228,2,0,B|360:124|438:105,1,119.999996423721,2|2
56,176,266028,1,0
56,176,266228,2,0,B|108:210|132:288,1,119.999996423721,2|0
200,264,266828,2,0,B|203:201|258:142,1,119.999996423721,2|0
208,96,267428,2,0,B|151:124|73:105,2,119.999996423721
264,48,268428,1,0
264,48,268628,1,0
396,68,268828,102,0,B|312:244,1,179.999994635582,0|0
400,128,269628,6,0,B|316:304,1,179.999994635582
404,192,270428,102,0,B|320:368,1,179.999994635582,0|2
256,348,271228,5,0
144,260,271628,2,0,B|84:296,2,59.9999982118607,2|0|2
180,196,272228,2,0,B|168:124,1,59.9999982118607
220,260,272628,2,0,B|288:292,1,59.9999982118607,2|0
332,240,273028,1,0
332,240,273228,1,2
332,240,273328,2,0,B|380:232|420:192,1,89.9999973177911,2|0
412,128,273828,101,0
372,68,274028,1,0
304,92,274228,1,2
304,92,274328,1,0
304,164,274528,1,0
304,164,274628,1,2
240,196,274828,1,0
240,196,274928,1,0
240,196,275028,1,2
184,152,275228,6,0,B|205:117|204:84,1,59.9999982118607,0|2
64,28,275628,2,0,B|45:55|40:96,1,59.9999982118607,2|0
48,156,276028,2,0,B|16:200,1,29.9999991059304,2|0
120,240,276328,2,0,B|160:268,1,29.9999991059304
176,324,276628,1,0
248,324,276828,102,0,B|428:324,2,179.999994635582,2|2|0
264,248,278428,2,0,B|84:248,2,179.999994635582,2|2|2
364,144,280028,1,2
196,44,280428,6,0,B|316:44,1,119.999996423721,2|0
108,252,281028,2,0,B|108:132,1,119.999996423721,2|0
316,340,281628,2,0,B|196:340,1,119.999996423721,2|0
404,132,282228,2,0,B|404:252,2,119.999996423721
404,132,283228,69,0
404,132,283628,2,0,B|352:96|288:84,1,119.999996423721
53,242,284828,6,0,B|91:318|208:336,1,179.999994635582,2|0
271,335,285628,1,2
271,335,285728,1,0
342,332,285928,1,2
342,332,286028,1,0
342,332,286428,2,0,B|472:332,2,119.999996423721,0|0|2
342,332,288028,102,0,B|433:332,2,89.9999973177911,2|2|2
275,305,288828,1,0
301,237,289028,1,2
233,211,289228,1,2
233,211,289328,1,0
233,211,289428,1,0
202,276,289628,6,0,B|88:223,2,119.999996423721
347,108,291228,2,0,B|468:61,1,119.999996423721,2|0
458,64,292028,1,2
458,64,292128,1,0
489,129,292328,1,2
489,129,292428,1,0
489,129,292828,2,0,B|366:186,2,119.999996423721,2|0|2
489,129,294428,101,0
424,160,294628,1,2
358,189,294828,1,0
358,189,294928,2,0,B|294:221,1,59.9999982118607,2|0
204,257,295428,2,0,B|131:289,1,59.9999982118607,2|0
65,191,295828,2,0,B|135:166,1,59.9999982118607,2|4
258,125,296428,6,0,B|376:79,1,119.999996423721,0|0
369,81,297628,2,0,B|369:201,1,119.999996423721
369,201,298428,1,0
227,217,298828,1,0
81,204,299228,2,0,B|81:84,1,119.999996423721
81,84,300028,2,0,B|169:126|252:73,1,179.999994635582
324,69,300828,102,0,B|427:115,2,89.9999973177911,2|2|2
251,75,301628,2,0,B|206:75,1,29.9999991059304
226,146,301928,2,0,B|254:166,1,29.9999991059304
204,218,302228,2,0,B|159:228,2,29.9999991059304,0|0|4
204,219,302828,6,0,B|344:219,1,119.999996423721,0|2
277,101,304028,2,0,B|153:101,1,119.999996423721,2|0
157,101,304828,1,0
140,195,305228,1,0
153,290,305628,2,0,B|297:290,2,119.999996423721
221,110,307228,38,0,B|119:109,2,89.9999973177911,2|0|0
264,172,308028,2,0,B|327:172,1,59.9999982118607,2|0
352,237,308428,2,0,B|393:237,3,29.9999991059304
