osu file format v7

[General]
AudioFilename: lotus_petal_demo.mp3
AudioLeadIn: 0
PreviewTime: 42365
Countdown: 0
SampleSet: Soft
StackLeniency: 0.7
Mode: 0
LetterboxInBreaks: 0

[Editor]
DistanceSpacing: 2
BeatDivisor: 4
GridSize: 8

[Metadata]
Title:Hydrangea
Artist:Sound Online
Creator:saymun
Version:Lunatic
Source:Touhou
Tags:Byakuren Hijiri Tsukasa Yatoki Lotus Petal NachoPiggy ignorethis yama_ko

[Difficulty]
HPDrainRate:7
CircleSize:5
OverallDifficulty:8
SliderMultiplier:1.6
SliderTickRate:1

[Events]
//Background and Video events
Video,-125,"lotus_petal_demo.AVI"
0,0,"bg.jpg"
//Break Periods
//Storyboard Layer 0 (Background)
//Storyboard Layer 1 (Fail)
//Storyboard Layer 2 (Pass)
//Storyboard Layer 3 (Foreground)
//Storyboard Sound Samples
//Background Colour Transformations
3,100,163,162,255

[TimingPoints]
16049,410.958904109589,4,2,1,85,1,0
28275,-100,4,1,0,30,0,0
28737,-100,4,1,0,45,0,0
28840,-100,4,1,0,60,0,0
29148,-100,4,2,0,85,0,0
34850,-100,4,1,0,30,0,0
35312,-100,4,1,0,45,0,0
35415,-100,4,1,0,60,0,0
35723,-100,4,2,1,85,0,0
40603,-100,4,2,1,50,0,0
41425,-100,4,1,0,30,0,0
41888,-100,4,1,0,45,0,0
41990,-100,4,1,0,60,0,0
42298,-100,4,2,0,85,0,0
54216,-100,4,1,0,30,0,0
54627,-100,4,1,0,45,0,0
55141,-100,4,1,0,60,0,0
58685,-200,4,1,0,60,0,0
60535,-100,4,1,0,60,0,0
65261,-200,4,1,0,60,0,0
68754,-100,4,1,0,30,0,0
69833,-100,4,1,0,45,0,0
69935,-100,4,1,1,60,0,0
70244,-100,4,2,1,85,0,0
70603,-100,4,2,1,75,0,0
70809,-100,4,2,1,85,0,0
74918,-100,4,2,1,40,0,0
75124,-100,4,2,1,85,0,0
75329,-100,4,2,1,45,0,0
75535,-100,4,2,1,85,0,0
75740,-100,4,2,1,60,0,0
75946,-100,4,2,1,85,0,0
81494,-100,4,2,1,45,0,0
81699,-100,4,2,1,85,0,0
81905,-100,4,2,1,45,0,0
82110,-100,4,2,1,85,0,0
82316,-100,4,2,1,65,0,0
82521,-100,4,2,1,85,0,0
82727,-100,4,2,1,65,0,0
82932,-100,4,2,1,85,0,0
83138,-100,4,2,1,85,0,0
86682,-100,4,1,0,80,0,0
86836,-100,4,1,0,60,0,0
88275,-100,4,1,0,80,0,0
88480,-100,4,1,0,60,0,0
89970,-100,4,2,1,85,0,0
93257,-100,4,1,0,50,0,0
94028,-100,4,1,0,65,0,0
96648,-100,4,2,0,60,0,0
100603,-200,4,2,0,60,0,0
101425,-100,4,2,0,0,0,0
101631,-100,4,2,0,60,0,0
108001,-100,4,2,1,20,0,0
108360,-100,4,2,1,35,0,0
108720,-100,4,2,1,50,0,0
109131,-100,4,2,1,65,0,0
109696,-100,4,2,1,80,0,0
116528,-100,4,1,0,40,0,0
117144,-100,4,1,0,20,0,0
117555,-100,4,2,0,0,0,0

[Colours]
Combo1 : 47,100,225
Combo2 : 154,43,255
Combo3 : 254,194,227
Combo4 : 254,214,118
Combo5 : 169,254,75

[HitObjects]
192,136,16048,1,4
256,88,16254,2,2,B|288:48|280:-8,2,80,0|8|0
320,136,16870,1,0
296,208,17076,2,0,B|296:256|336:296,2,80,0|8|0
216,208,17692,1,0
136,192,17898,6,2,B|32:192,2,80,0|8|0
176,120,18514,2,0,B|96:64,1,80,0|0
176,264,18925,2,0,B|96:320,1,80,8|0
256,336,19336,5,0
336,320,19542,1,0
376,312,19644,1,0
416,304,19747,2,0,B|464:296|512:312,2,80,8|0|0
392,224,20364,1,0
384,184,20466,1,0
392,144,20569,2,0,B|408:96|392:48,2,80,8|0|0
320,104,21185,5,2
280,88,21288,1,0
240,104,21391,1,10
176,152,21596,1,2
160,232,21802,1,2
176,272,21905,1,0
208,296,22007,1,2
280,336,22212,1,10
320,264,22418,1,2
360,192,22624,5,4
424,152,22829,1,0
440,192,22932,1,0
424,232,23035,1,8
440,312,23240,1,0
368,352,23446,1,0
288,328,23651,2,0,B|240:312|200:336,2,80,0|8|0
288,248,24268,1,0
216,208,24473,6,0,B|216:112,1,80,0|8
144,160,24884,2,0,B|144:256,1,80,0|0
72,208,25295,2,0,B|72:112,2,80,0|8|0
72,288,25912,5,0
112,360,26117,1,0
112,360,26220,1,0
112,360,26322,1,8
192,376,26528,1,0
264,344,26733,1,0
344,360,26939,1,0
416,328,27144,1,8
448,256,27350,1,0
448,176,27555,6,0,B|424:88,1,80
360,136,27966,2,0,B|280:72,1,80,8|0
224,56,28377,1,0
184,72,28480,1,0
152,96,28583,1,0
128,128,28685,1,0
112,168,28788,1,0
104,208,28891,1,0
104,248,28994,1,0
112,288,29096,1,0
128,328,29199,5,4
200,368,29405,1,0
272,336,29610,2,0,B|312:320|368:336,2,80,2|0|2
200,296,30227,2,0,B|208:208|312:184,1,160,2|2
376,216,30843,1,0
424,152,31048,2,2,B|408:112|424:48,2,80,0|2|0
448,184,31562,1,0
464,224,31665,1,2
448,304,31870,2,0,B|392:376|288:352,1,160,2|2
232,328,32487,5,0
192,320,32590,1,0
152,328,32692,1,0
72,304,32898,1,2
80,224,33103,1,0
88,184,33206,1,0
80,144,33309,2,0,B|72:96|96:48,2,80,2|2|2
256,48,34131,5,0
304,112,34336,1,0
376,80,34542,2,0,B|416:64|472:80,1,80,2|0
480,152,34953,1,0
480,192,35055,1,0
472,232,35158,1,0
456,272,35261,1,0
432,304,35364,1,0
400,328,35466,1,0
360,344,35569,1,0
320,352,35672,1,0
280,352,35775,6,0,B|192:344|112:384,1,160,4|0
56,344,36391,2,0,B|96:264|80:168,1,160,0|0
56,112,37007,1,0
88,40,37213,1,2
88,40,37316,1,0
88,40,37418,1,0
160,72,37624,1,2
240,56,37829,2,0,B|304:32|344:80|408:56,1,160,2|0
344,296,38651,5,0
272,328,38857,2,0,B|216:352|160:304|88:336,1,160
40,360,39473,1,0
24,280,39679,1,0
32,240,39781,1,0
40,200,39884,1,0
120,216,40090,1,0
128,176,40192,1,0
136,136,40295,1,0
216,152,40501,1,0
288,120,40706,6,0,B|312:88|304:24,1,80,8|0
224,264,41117,2,0,B|200:296|208:360,1,80,8|0
288,352,41528,5,0
328,344,41631,1,0
360,328,41733,1,0
392,304,41836,1,0
416,272,41939,1,0
440,240,42042,1,0
456,200,42144,1,0
464,160,42247,1,0
464,120,42350,5,4
400,72,42555,1,0
400,72,42658,1,0
400,72,42761,1,2
320,96,42966,2,0,B|271:86|224:96,2,80,0|2|2
304,176,43583,1,0
232,208,43788,2,0,B|224:251|240:304,2,80,2|0|0
152,192,44405,1,2
104,256,44610,1,0
104,256,44713,1,0
104,256,44816,1,2
24,232,45021,2,0,B|8:184|24:128,1,80,2|0
136,40,45432,6,0,B|208:24|240:64|320:32,1,160,2|0
368,64,46048,1,2
432,104,46254,1,0
424,144,46357,1,0
416,184,46459,1,2
336,176,46665,1,2
328,216,46768,1,0
320,256,46870,2,0,B|296:344|192:352,1,160,2|0
128,320,47487,2,0,B|32:320,2,80,0|2|0
176,256,48103,5,0
104,216,48309,1,0
176,184,48514,1,2
104,144,48720,1,0
176,112,48925,1,4
216,96,49028,1,0
256,88,49131,1,0
296,96,49233,1,0
336,112,49336,2,0,B|384:136|440:120,2,80
304,184,49953,5,0
312,264,50158,1,0
384,304,50364,1,0
384,304,50466,1,0
384,304,50569,1,0
456,272,50775,2,0,B|480:224|456:184,1,80
256,72,51391,6,0,B|208:88|152:80,1,80
112,128,51802,1,0
72,200,52007,1,0
96,280,52213,2,0,B|136:352|232:352,1,160
336,88,52829,2,0,B|256:56|176:88,1,160
282,351,53446,2,0,B|376:352|416:280,1,160
448,208,54062,1,0
456,128,54268,5,0
416,136,54370,1,0
384,152,54473,1,0
352,176,54576,1,0
320,200,54679,1,0
288,224,54781,1,0
248,240,54884,1,0
208,248,54987,1,0
168,248,55090,1,0
128,240,55192,1,0
88,224,55295,1,0
56,200,55398,1,0
32,168,55501,5,4
176,104,55912,1,0
104,136,56117,1,0
248,72,56528,1,0
176,104,56733,1,0
248,72,56939,1,0
320,40,57144,5,0
304,200,57555,1,0
312,120,57761,1,0
296,280,58172,1,0
304,200,58377,1,0
296,280,58583,1,0
287,360,58788,6,0,B|248:376|209:360,1,80
48,192,59405,2,0,B|144:192,1,80
287,23,60021,2,0,B|248:8|209:23,1,80
152,80,60638,5,0
200,144,60843,1,0
272,112,61048,1,0
312,120,61151,1,0
352,112,61254,1,0
424,152,61459,1,0
416,192,61562,1,0
400,232,61665,1,0
376,264,61768,1,0
344,288,61870,1,0
304,304,61973,1,0
264,312,62076,5,4
136,216,62487,1,0
200,264,62692,1,0
72,168,63103,1,0
136,216,63309,1,0
72,168,63514,1,0
16,112,63720,5,0
176,80,64131,1,0
96,96,64336,1,0
256,64,64747,1,0
176,80,64953,1,0
256,64,65158,1,0
336,48,65364,6,0,B|424:88|408:192,1,160
392,256,66391,1,0
392,256,66494,1,0
392,256,66596,1,0
328,304,66802,1,0
256,192,66905,12,4,68651
48,176,69473,5,0
56,216,69576,1,0
72,256,69679,1,0
96,288,69781,1,0
128,312,69884,1,0
168,328,69987,1,0
208,336,70090,1,0
248,336,70192,1,0
288,328,70295,6,0,B|480:296|472:64,1,320,4|0
416,48,71322,1,0
336,32,71528,1,8
264,64,71733,1,0
448,216,71939,6,0,B|384:352|144:336,1,320
96,320,72966,1,0
32,264,73172,1,8
16,184,73377,1,0
208,40,73583,6,0,B|304:64|296:184,1,160,0|8
304,344,74199,2,0,B|208:320|216:200,1,160
432,192,74816,6,0,B|456:112,1,80,8|4
312,128,75227,2,0,B|328:24,1,80,0|4
200,128,75638,2,0,B|184:24,1,80,8|4
80,192,76048,2,0,B|56:112,2,80,0|4|8
96,232,76562,1,0
120,264,76665,1,0
152,288,76768,1,0
192,296,76870,6,0,B|352:272|240:128|424:104,1,320,4|0
480,160,77898,1,0
472,240,78103,1,8
432,312,78309,1,0
192,344,78514,6,0,B|104:320|104:200,1,160,0|8
320,40,79131,2,0,B|408:64|408:184,1,160
256,192,79747,1,8
256,192,79953,1,0
344,272,80158,6,0,B|272:336,1,80
168,240,80569,2,0,B|72:280,1,80,8|0
344,144,80980,2,0,B|440:104,1,80
168,112,81391,2,0,B|240:48,1,80,8|4
328,304,81802,6,0,B|392:232,1,80,0|4
304,120,82213,2,0,B|336:24,1,80,0|4
208,264,82624,2,0,B|176:360,1,80,0|4
184,80,83035,2,0,B|120:152,1,80,8|0
96,280,83446,6,0,B|224:392|416:320,1,320,4|0
448,264,84473,1,0
480,192,84679,1,8
448,264,84884,1,0
384,216,85090,1,0
312,248,85295,1,0
272,256,85398,1,0
232,248,85501,1,8
152,232,85706,2,0,B|104:216|48:240,2,80
160,152,86322,1,8
168,112,86425,1,0
184,72,86528,1,0
216,40,86631,1,0
256,24,86733,5,4
120,352,87144,1,0
392,352,87350,1,0
56,64,87966,1,0
256,24,88172,1,0
456,64,88377,1,4
256,344,88788,5,0
256,344,88994,1,0
56,64,89405,1,0
456,64,89816,1,0
456,144,90021,6,0,B|440:192|456:256,1,80,4|0
392,280,90432,1,8
320,240,90638,1,0
320,240,90740,1,0
320,240,90843,1,0
240,256,91048,1,0
184,312,91254,2,0,B|144:336|80:304,1,80,8|0
56,256,91665,5,0
104,192,91870,1,0
120,152,91973,1,0
136,112,92076,1,8
216,136,92281,1,0
232,96,92384,1,0
248,56,92487,1,0
328,72,92692,1,0
360,96,92795,1,0
384,128,92898,1,8
400,168,93001,1,0
408,208,93103,1,0
408,248,93206,1,0
400,288,93309,5,0
240,352,93514,1,0
280,336,93617,1,0
320,320,93720,1,0
240,352,93925,1,0
144,280,94131,5,0
16,184,94336,1,0
48,208,94438,1,0
80,232,94542,1,0
16,184,94747,1,0
64,72,94953,5,0
104,64,95055,1,0
144,72,95158,1,0
176,96,95261,1,0
200,128,95364,1,0
216,168,95466,1,0
208,208,95569,1,0
176,240,95672,1,0
136,240,95775,1,0
112,208,95877,1,0
120,168,95980,1,0
152,144,96083,1,0
192,136,96185,1,0
232,136,96288,1,0
272,152,96391,1,0
304,176,96494,1,0
320,216,96596,5,4
448,120,97007,1,0
384,168,97213,1,0
256,264,97624,1,0
320,216,97829,1,0
256,264,98035,2,0,B|176:328|88:304,1,160
32,288,98651,1,0
112,64,99268,5,0
184,104,99473,1,0
256,64,99679,2,0,B|360:72|384:184,2,160
256,144,100706,2,0,B|240:240|128:232,1,160
448,328,102350,5,0
472,248,102555,1,0
448,328,102761,1,0
368,352,102966,1,0
288,336,103172,2,0,B|192:304|96:352,1,160
56,304,103788,1,0
144,80,104405,6,0,B|144:192|256:216,1,160
304,184,105021,1,0
368,136,105227,1,0
448,152,105432,1,0
472,232,105638,2,0,B|480:312|416:352,2,120
256,272,107487,6,0,B|256:176,2,80
256,352,108103,1,8
48,192,108514,1,8
256,32,108925,1,8
464,192,109336,1,8
256,352,109747,5,4
176,336,109953,1,0
176,336,110055,1,8
176,336,110158,1,0
96,344,110364,2,0,B|48:352|8:328,2,80,8|8|8
136,192,111185,1,0
200,144,111391,5,8
280,160,111596,1,0
280,160,111699,1,8
280,160,111802,1,0
352,128,112007,2,0,B|400:120|440:136,2,80,8|8|8
384,200,112624,1,2
352,272,112830,1,2
288,320,113035,5,4
48,320,113240,1,2
288,320,113446,1,2
128,344,113651,5,4
368,344,113857,1,2
128,344,114062,1,2
256,192,114473,5,4
384,40,114884,5,2
144,40,115090,1,2
384,40,115295,1,4
224,64,115501,5,2
464,64,115706,1,2
256,192,116117,5,4
256,192,116322,12,0,117966
