osu file format v12

[General]
AudioFilename: Sound Online - Hydrangea.mp3
AudioLeadIn: 0
PreviewTime: 171942
Countdown: 0
SampleSet: Soft
StackLeniency: 0.2
Mode: 0
LetterboxInBreaks: 1

[Editor]
Bookmarks: 23624,44957,118524,157976
DistanceSpacing: 1
BeatDivisor: 4
GridSize: 4

[Metadata]
Title:Hydrangea
TitleUnicode:Hydrangea
Artist:Sound Online
ArtistUnicode:Sound Online
Creator:0814587134
Version:Marathon
Source:Touhou
Tags:sound online hydrangea hijiri byakuren touhou ZUN
BeatmapID:233855
BeatmapSetID:84987

[Difficulty]
HPDrainRate:7
CircleSize:4
OverallDifficulty:7
ApproachRate:9
SliderMultiplier:2
SliderTickRate:2

[Events]
//Background and Video events
0,0,"BG.jpg",1,1
//Break Periods
2,56040,65372
2,82610,91673
2,122062,131125
2,199322,210440
2,250031,261810
//Storyboard Layer 0 (Background)
//Storyboard Layer 1 (Fail)
//Storyboard Layer 2 (Pass)
//Storyboard Layer 3 (Foreground)
//Storyboard Sound Samples
//Background Colour Transformations
3,100,255,255,0

[TimingPoints]
2675,333.333333333333,4,2,0,100,1,0
23674,333.333333333333,4,2,1,100,1,0
65972,410.958904109589,4,2,1,100,1,0
65972,-200,4,2,1,100,0,0
78300,-133.333333333333,4,2,2,70,0,0
79122,-100,4,2,2,70,0,0
92273,-100,4,2,2,70,0,0
102752,-200,4,2,2,70,0,0
103163,-100,4,2,2,70,0,0
109944,-200,4,2,2,70,0,0
110355,-100,4,2,2,70,0,0
111999,-200,4,2,2,70,0,0
112821,-100,4,2,2,70,0,0
144054,-100,4,2,2,30,0,0
144156,-100,4,2,2,35,0,0
144259,-100,4,2,2,40,0,0
144362,-100,4,2,2,45,0,0
144465,-100,4,2,2,50,0,0
144567,-100,4,2,2,55,0,0
144670,-100,4,2,2,60,0,0
144773,-100,4,2,2,65,0,0
144876,-100,4,2,2,70,0,0
158026,-133.333333333333,4,2,2,70,0,0
172821,-100,4,2,1,70,0,1
185150,-100,4,2,1,30,0,1
185252,-100,4,2,1,35,0,1
185355,-100,4,2,1,40,0,1
185458,-100,4,2,1,45,0,1
185561,-100,4,2,1,50,0,1
185663,-100,4,2,1,55,0,1
185766,-100,4,2,1,60,0,1
185869,-100,4,2,1,65,0,1
185972,-100,4,2,1,70,0,1
195835,-100,4,2,1,30,0,1
196656,-100,4,2,1,40,0,1
197478,-100,4,2,1,50,0,1
198300,-100,4,2,1,60,0,1
199122,-100,4,2,2,70,0,0
218437,-200,4,2,2,70,0,0
218848,-100,4,2,2,70,0,0
225424,-100,4,2,1,70,0,1
225425,-100,4,2,2,70,0,0
250081,-200,4,2,2,70,0,0
263232,-133.333333333333,4,2,2,70,0,0
269807,-200,4,2,2,70,0,0
271451,-133.333333333333,4,2,2,70,0,0
273095,-100,4,2,2,70,0,0
276382,-100,4,2,1,70,0,1
299396,-100,4,2,1,30,0,1
300218,-100,4,2,1,40,0,1
301040,-100,4,2,1,50,0,1
301862,-100,4,2,1,60,0,1
302684,-100,4,2,2,70,0,0

[Colours]
Combo1 : 255,0,255
Combo2 : 255,0,0
Combo3 : 255,128,0
Combo4 : 255,255,0
Combo5 : 128,255,0
Combo6 : 0,128,255
Combo7 : 0,0,255
Combo8 : 128,0,255

[HitObjects]
88,264,23341,1,0,0:0:0:0:
136,176,23508,1,0,0:0:0:0:
192,256,23674,6,0,L|300:244,1,100,4|0,0:0|0:0,0:0:0:0:
392,236,24007,2,0,L|328:328,1,100
236,344,24340,5,8,0:0:0:0:
192,256,24507,1,0,0:0:0:0:
284,220,24674,1,0,0:0:0:0:
334,318,24840,2,0,P|404:328|480:228,1,200
436,148,25340,2,0,L|384:252,1,100
334,319,25673,2,0,L|242:219,1,100,8|0,0:0|0:0,0:0:0:0:
340,176,26007,1,0,0:0:0:0:
436,148,26173,1,0,0:0:0:0:
352,92,26340,85,0,0:0:0:0:
256,124,26507,1,0,0:0:0:0:
160,92,26673,1,0,0:0:0:0:
184,188,26840,1,0,0:0:0:0:
160,92,27007,2,0,L|72:148,1,100,8|0,0:0|0:0,0:0:0:0:
184,188,27340,1,0,0:0:0:0:
256,256,27507,6,0,B|256:304|256:304|284:328|364:324|364:324|364:240,1,200
256,256,28007,2,0,B|256:304|256:304|228:328|148:324|148:324|148:240,1,200,0|8,0:0|0:0,0:0:0:0:
56,244,28507,2,0,L|112:156,1,100
208,168,28840,2,0,L|148:256,1,100,0|2,0:0|0:0,0:0:0:0:
224,320,29173,5,0,0:0:0:0:
312,268,29340,2,0,P|400:248|424:220,1,100
488,188,29673,2,0,P|432:148|380:148,1,100,8|0,0:0|0:0,0:0:0:0:
316,92,30007,2,0,P|312:176|328:204,1,100
317,188,30507,102,0,L|208:208,1,100
80,292,30840,2,0,L|189:272,1,100,0|8,0:0|0:0,0:0:0:0:
350,173,31173,2,0,L|210:198,1,100
46,306,31506,2,0,L|186:281,1,100,0|2,0:0|0:0,0:0:0:0:
240,320,31840,5,0,0:0:0:0:
340,308,32007,1,0,0:0:0:0:
284,224,32173,1,0,0:0:0:0:
384,212,32340,1,8,0:0:0:0:
332,128,32507,1,0,0:0:0:0:
432,116,32673,1,0,0:0:0:0:
376,32,32840,2,0,L|164:32,1,200
100,100,33340,86,0,L|144:216,1,100
48,244,33673,2,0,L|148:292,1,100,8|0,0:0|0:0,0:0:0:0:
196,372,34007,2,0,L|296:316,1,100
380,356,34340,2,0,L|384:252,1,100,4|0,0:0|0:0,0:0:0:0:
284,264,34673,5,0,0:0:0:0:
188,232,34840,1,0,0:0:0:0:
228,140,35007,1,8,0:0:0:0:
320,180,35173,1,0,0:0:0:0:
420,176,35340,1,0,0:0:0:0:
456,268,35507,1,0,0:0:0:0:
272,344,35840,6,0,L|168:324,1,100
76,352,36173,2,0,L|48:248,1,100,0|8,0:0|0:0,0:0:0:0:
148,280,36507,1,0,0:0:0:0:
50,255,36673,1,0,0:0:0:0:
148,280,36840,1,0,0:0:0:0:
50,255,37007,85,0,0:0:0:0:
148,280,37173,1,0,0:0:0:0:
124,184,37340,1,0,0:0:0:0:
60,108,37507,1,0,0:0:0:0:
144,52,37673,1,8,0:0:0:0:
208,128,37840,1,0,0:0:0:0:
124,184,38007,1,0,0:0:0:0:
60,108,38173,1,0,0:0:0:0:
60,108,38507,5,0,0:0:0:0:
124,184,38673,1,0,0:0:0:0:
208,128,38840,1,0,0:0:0:0:
292,72,39007,2,0,P|344:136|344:184,1,100,8|0,0:0|0:0,0:0:0:0:
451,155,39340,2,0,P|399:207|367:223,1,100
432,300,39673,6,0,P|392:256|376:220,1,100
276,236,40007,1,0,0:0:0:0:
176,252,40173,2,0,L|64:272,1,100,0|8,0:0|0:0,0:0:0:0:
160,328,40507,1,0,0:0:0:0:
192,180,40673,1,0,0:0:0:0:
77,270,40840,2,0,P|53:210|41:46,1,200
128,196,41340,86,0,P|64:176|36:148,1,100
192,180,41673,2,0,P|256:200|284:228,1,100,8|0,0:0|0:0,0:0:0:0:
392,328,42007,2,0,P|328:308|300:280,1,100
204,296,42340,1,0,0:0:0:0:
108,268,42507,1,0,0:0:0:0:
44,192,42673,1,0,0:0:0:0:
108,268,42840,1,0,0:0:0:0:
144,360,43007,5,8,0:0:0:0:
108,268,43173,1,0,0:0:0:0:
124,168,43340,1,0,0:0:0:0:
184,88,43507,2,0,P|264:56|384:76,1,200
416,164,44007,1,0,0:0:0:0:
336,224,44173,5,0,0:0:0:0:
272,148,44340,1,8,0:0:0:0:
352,88,44507,1,0,0:0:0:0:
416,164,44673,1,8,0:0:0:0:
336,224,44840,1,8,0:0:0:0:
272,148,45007,1,6,0:0:0:0:
256,192,45090,12,2,55673,0:0:0:0:
256,80,55840,85,2,0:0:0:0:
352,224,65972,53,0,0:0:0:0:
404,140,66177,2,0,L|336:128,1,50,0|2,0:0|0:0,0:0:0:0:
276,192,66588,2,0,L|260:144,1,50
160,144,66999,2,0,L|100:240,1,100
224,32,67821,5,0,0:0:0:0:
288,72,68026,1,2,0:0:0:0:
224,108,68232,1,0,0:0:0:0:
160,144,68437,1,0,0:0:0:0:
224,180,68643,1,0,0:0:0:0:
136,300,69054,6,0,P|116:236|88:196,1,100
48,264,69670,2,0,P|32:308|12:320,1,50,2|0,0:0|0:0,0:0:0:0:
196,228,70081,2,0,P|212:272|232:284,1,50
284,300,70492,1,2,0:0:0:0:
356,276,70698,6,0,L|336:220,1,50
396,180,71108,2,0,L|352:140,1,50,0|2,0:0|0:0,0:0:0:0:
396,80,71519,2,0,L|340:64,1,50
276,44,71930,1,0,0:0:0:0:
200,36,72136,1,2,0:0:0:0:
200,36,72547,54,0,B|140:72|128:72|96:56|96:56|124:96|140:108|140:152,1,200,4|0,0:0|0:0,0:0:0:0:
80,180,73574,2,0,P|132:208|188:188,2,100
140,132,74602,1,2,0:0:0:0:
212,108,74807,2,0,L|200:80,2,25
288,120,75218,1,0,0:0:0:0:
356,152,75424,1,0,0:0:0:0:
432,140,75629,1,0,0:0:0:0:
464,72,75835,6,0,P|412:36|368:40,1,100
312,72,76451,2,0,P|288:120|300:172,1,100
348,216,77067,2,0,P|372:264|360:316,1,100
432,344,77684,1,0,0:0:0:0:
452,272,77889,1,0,0:0:0:0:
428,200,78095,1,0,0:0:0:0:
368,296,78300,6,8,P|304:308|260:304,1,75.0000028610231,8|0,0:0|0:0,0:0:0:0:
184,280,78711,2,8,L|140:236,4,37.5000014305115,8|0|8|8|4,0:0|0:0|0:0|0:0|0:0,0:0:0:0:
256,192,79225,12,8,82410,0:0:0:0:
444,332,92273,101,4,0:0:0:0:
396,244,92478,2,0,P|440:208|448:168,1,100,0|2,0:0|0:0,0:0:0:0:
404,76,92889,2,0,P|344:40|300:40,1,100
348,132,93300,2,0,B|296:172|256:176|256:176|316:216|328:272,1,200
132,320,94122,6,0,L|40:280,1,100,0|2,0:0|0:0,0:0:0:0:
124,228,94533,2,0,L|224:280,1,100
212,274,94944,1,0,0:0:0:0:
212,274,95355,6,0,P|284:248|296:128,1,200
216,192,95972,1,2,0:0:0:0:
392,96,96177,1,0,0:0:0:0:
364,292,96382,1,0,0:0:0:0:
216,192,96588,1,0,0:0:0:0:
324,48,96793,6,2,P|312:116|420:16,1,400,2|2,0:0|0:0,0:0:0:0:
324,48,97821,1,0,0:0:0:0:
228,68,98026,53,0,0:0:0:0:
296,144,98232,1,0,0:0:0:0:
200,164,98437,1,2,0:0:0:0:
124,96,98643,1,0,0:0:0:0:
96,192,98848,2,0,B|72:248|36:272|36:272|132:284|168:240|168:240|192:296|312:304,1,400,4|2,0:0|0:0,0:0:0:0:
400,336,99876,6,0,P|400:268|284:204,2,200
304,304,100903,2,0,P|201:238|201:170,1,200,2|0,0:0|0:0,0:0:0:0:
372,60,101725,1,2,0:0:0:0:
444,132,101930,1,0,0:0:0:0:
348,160,102136,102,0,L|240:172,1,100
136,188,102547,1,2,0:0:0:0:
272,352,102752,2,0,L|200:264,1,100
64,92,103369,1,2,0:0:0:0:
136,188,103574,1,0,0:0:0:0:
64,92,103780,1,0,0:0:0:0:
160,72,103985,6,0,B|200:108|200:108|208:104|208:104|248:140,1,100
260,228,104396,1,0,0:0:0:0:
336,160,104602,1,8,0:0:0:0:
184,292,105013,1,8,0:0:0:0:
72,128,105424,6,0,L|184:148,2,100,4|0|0,0:0|0:0|0:0,0:0:0:0:
126,211,106040,2,0,L|186:295,1,100
184,292,106451,2,0,L|288:292,1,100,0|8,0:0|0:0,0:0:0:0:
356,216,106862,2,0,B|412:272|384:328|372:352|372:352|448:340,1,200
464,252,107478,2,0,L|504:352,1,100
464,252,107889,2,0,L|424:152,1,100
344,100,108300,5,8,0:0:0:0:
256,144,108506,1,0,0:0:0:0:
196,64,108711,1,0,0:0:0:0:
108,108,108917,2,0,P|56:164|64:204,1,100
156,180,109328,2,0,P|128:232|92:248,1,100
188,280,109739,1,0,0:0:0:0:
48,136,109944,6,0,L|32:24,1,100,8|0,0:0|0:0,0:0:0:0:
236,52,110561,2,0,L|156:120,1,100
260,124,110972,2,0,P|304:84|308:32,1,100
160,118,111382,1,0,0:0:0:0:
310,46,111588,6,0,L|420:64,1,100,8|0,0:0|0:0,0:0:0:0:
424,160,111999,2,2,B|452:284|392:224|424:356,1,200,4|0,0:0|0:0,0:0:0:0:
492,280,113026,1,0,0:0:0:0:
344,304,113232,2,0,L|224:328,1,100,8|0,0:0|0:0,0:0:0:0:
104,268,113643,6,0,B|36:196|100:176|100:176|52:152|100:124|100:124|76:92|88:56|88:56|76:24,2,300,0|0|8,0:0|0:0|0:0,0:0:0:0:
172,132,115081,1,0,0:0:0:0:
304,56,115287,2,0,B|284:108|284:108|348:100|280:128|280:128|352:120|284:152|368:144|368:144|292:172|376:168|376:168,2,300,0|0|8,0:0|0:0|0:0,0:0:0:0:
372,168,116725,1,0,0:0:0:0:
172,132,116930,1,0,0:0:0:0:
372,168,117136,6,0,L|484:192,2,100,0|8|0,0:0|0:0|0:0,0:0:0:0:
144,88,117752,2,0,P|212:76|252:80,1,100,8|0,0:0|0:0,0:0:0:0:
328,104,118163,2,0,L|376:152,4,50,8|0|8|8|4,0:0|0:0|0:0|0:0|0:0,0:0:0:0:
256,192,118677,12,0,121862,0:0:0:0:
188,84,131725,6,0,L|244:172,2,100,6|0|8,0:0|0:0|0:0,0:0:0:0:
160,180,132341,1,0,0:0:0:0:
124,276,132547,2,0,L|68:188,2,100,0|0|8,0:0|0:0|0:0,0:0:0:0:
200,308,133163,6,0,B|284:340|336:280|336:280|384:332,1,200
240,240,133780,2,0,B|264:264|284:228|296:208|336:196|348:216|348:216|360:220,1,100,8|0,0:0|0:0,0:0:0:0:
28,248,134191,2,0,L|135:280,1,100
140,184,134602,1,8,0:0:0:0:
160,92,134807,6,0,P|284:152|352:136,1,200
416,76,135424,1,8,0:0:0:0:
344,4,135630,1,0,0:0:0:0:
268,68,135835,1,0,0:0:0:0:
340,140,136040,1,0,0:0:0:0:
420,208,136245,2,8,B|468:256|468:320|408:352|392:352|348:368|284:324|308:272|272:256|196:248|164:320,1,400
216,200,137273,6,0,L|200:96,1,100
288,152,137684,2,0,L|304:264,1,100,0|8,0:0|0:0,0:0:0:0:
302,250,138095,1,0,0:0:0:0:
380,188,138300,22,0,B|416:228|424:192|424:192|432:232|440:188|440:188|448:236|456:184|456:184|468:240,2,200,4|8|0,0:0|0:0|0:0,0:0:0:0:
288,152,139328,2,0,P|348:96|472:152,2,200
380,188,140355,2,0,P|320:244|196:188,1,200,8|0,0:0|0:0,0:0:0:0:
144,148,140972,1,0,0:0:0:0:
224,88,141177,1,8,0:0:0:0:
156,16,141382,1,0,0:0:0:0:
72,72,141588,6,0,P|32:168|60:288,1,200,0|8,0:0|0:0,0:0:0:0:
80,356,142204,2,0,P|120:260|92:140,1,200,0|0,0:0|0:0,0:0:0:0:
72,72,142821,2,0,B|152:112|152:112|172:132|180:156|180:168|184:176|196:208|188:224|192:248,1,200,8|0,0:0|0:0,0:0:0:0:
247,305,143437,1,0,0:0:0:0:
339,261,143643,1,8,0:0:0:0:
283,177,143848,1,0,0:0:0:0:
191,213,144054,6,8,L|136:224,3,50
172,184,144465,2,8,L|208:144,3,50
236,188,144876,22,0,L|360:232,1,100
424,252,145287,1,8,0:0:0:0:
132,260,145492,2,0,L|256:304,1,100
236,188,145903,2,0,L|24:108,1,200
68,216,146519,6,0,P|124:172|148:132,1,100
308,120,146930,2,0,P|252:164|228:204,1,100,8|0,0:0|0:0,0:0:0:0:
47,118,147341,1,0,0:0:0:0:
236,188,147547,1,0,0:0:0:0:
320,244,147752,5,8,0:0:0:0:
396,176,147958,2,0,P|412:112|296:16,1,200
236,16,148574,2,0,P|300:28|340:14,1,100,8|0,0:0|0:0,0:0:0:0:
308,120,148985,2,0,P|243:107|203:121,1,100,0|0,0:0|0:0,0:0:0:0:
136,44,149396,6,8,B|80:36|40:72|24:112|32:160|48:192|76:204|96:204|112:216|172:200|192:220|200:248|200:272|200:296|196:312|184:320,1,400
192,308,150424,1,0,0:0:0:0:
28,320,150629,2,0,P|80:352|132:352,1,100,8|0,0:0|0:0,0:0:0:0:
268,264,151040,1,8,0:0:0:0:
288,248,151143,1,8,0:0:0:0:
308,232,151245,1,8,0:0:0:0:
328,216,151348,1,8,0:0:0:0:
348,200,151451,6,0,P|416:176|452:288,2,200,4|8|0,0:0|0:0|0:0,0:0:0:0:
248,208,152478,1,0,0:0:0:0:
232,108,152684,1,8,0:0:0:0:
340,96,152889,2,0,P|312:44|168:40,1,200
76,40,153506,2,0,P|104:92|248:96,1,200,8|0,0:0|0:0,0:0:0:0:
336,96,154122,1,0,0:0:0:0:
232,108,154328,1,8,0:0:0:0:
140,148,154533,1,0,0:0:0:0:
56,204,154739,6,0,P|24:124|24:8,1,200,0|8,0:0|0:0,0:0:0:0:
140,148,155355,2,0,P|172:228|172:344,1,200
55,204,155972,2,0,P|127:251|241:276,1,200,8|0,0:0|0:0,0:0:0:0:
332,248,156588,1,0,0:0:0:0:
300,156,156793,1,8,0:0:0:0:
396,132,156999,1,0,0:0:0:0:
360,40,157204,1,8,0:0:0:0:
260,60,157410,5,0,0:0:0:0:
300,156,157615,1,8,0:0:0:0:
204,188,157821,1,0,0:0:0:0:
156,88,158026,6,0,P|80:136|56:276,1,225.000008583069,4|0,0:0|0:0,0:0:0:0:
180,344,159054,1,0,0:0:0:0:
152,276,159259,1,8,0:0:0:0:
224,256,159465,1,0,0:0:0:0:
252,324,159670,2,0,L|380:272,2,112.500004291535
196,184,160698,5,0,0:0:0:0:
268,160,160903,1,8,0:0:0:0:
300,228,161108,1,0,0:0:0:0:
368,192,161314,2,0,L|292:52,1,150.000005722046
220,252,161930,2,0,L|296:392,1,150.000005722046
464,228,162547,2,0,L|324:304,1,150.000005722046,8|0,0:0|0:0,0:0:0:0:
260,320,163163,5,0,0:0:0:0:
184,324,163369,1,8,0:0:0:0:
124,280,163574,1,0,0:0:0:0:
88,212,163780,1,8,0:0:0:0:
128,148,163985,1,0,0:0:0:0:
84,88,164191,1,8,0:0:0:0:
124,24,164396,1,8,0:0:0:0:
172,80,164602,6,0,L|324:156,1,150.000005722046,4|0,0:0|0:0,0:0:0:0:
488,168,165218,2,0,L|336:92,1,150.000005722046
368,188,165835,1,8,0:0:0:0:
288,64,166040,1,0,0:0:0:0:
328,128,166245,5,2,0:0:0:0:
328,128,166554,1,2,0:0:0:0:
328,128,166862,1,0,0:0:0:0:
368,188,167067,1,0,0:0:0:0:
376,264,167273,1,0,0:0:0:0:
452,256,167478,1,8,0:0:0:0:
444,180,167684,1,0,0:0:0:0:
368,188,167889,6,0,B|264:184|304:220|200:220,2,150.000005722046,0|0|0,0:0|0:0|0:0,0:0:0:0:
376,264,168917,1,0,0:0:0:0:
304,284,169122,1,8,0:0:0:0:
256,192,169328,12,8,171177,0:0:0:0:
304,284,171999,5,8,0:0:0:0:
164,236,172410,1,8,0:0:0:0:
244,96,172821,1,4,0:0:0:0:
228,196,173026,6,0,L|236:300,1,100,0|8,0:0|0:0,0:0:0:0:
140,320,173437,1,0,0:0:0:0:
44,352,173643,2,0,P|24:268|56:136,1,200,0|8,0:0|0:0,0:0:0:0:
228,196,174259,1,0,0:0:0:0:
45,158,174465,6,0,P|98:90|222:34,1,200,0|8,0:0|0:0,0:0:0:0:
45,158,175081,1,0,0:0:0:0:
44,56,175287,2,0,P|97:123|221:179,1,200,0|8,0:0|0:0,0:0:0:0:
224,80,175903,1,0,0:0:0:0:
164,272,176108,6,8,P|256:306|359:260,1,200,0|8,0:0|0:0,0:0:0:0:
252,236,176725,2,8,P|160:202|57:248,1,200,0|0,0:0|0:0,0:0:0:0:
164,272,177341,1,8,0:0:0:0:
340,200,177547,1,0,0:0:0:0:
360,296,177752,5,0,0:0:0:0:
460,280,177958,1,0,0:0:0:0:
440,184,178163,1,8,0:0:0:0:
340,200,178369,1,0,0:0:0:0:
240,216,178574,1,0,0:0:0:0:
220,116,178780,1,0,0:0:0:0:
320,100,178985,1,8,0:0:0:0:
220,116,179191,1,0,0:0:0:0:
240,216,179396,6,8,P|320:300|424:256,1,200,4|8,0:0|0:0,0:0:0:0:
340,200,180013,1,0,0:0:0:0:
440,184,180218,2,8,P|360:100|256:144,1,200,2|8,0:0|0:0,0:0:0:0:
340,200,180835,1,8,0:0:0:0:
240,216,181040,6,8,P|200:284|60:296,1,200,0|8,0:0|0:0,0:0:0:0:
136,220,181656,2,8,P|176:152|316:140,1,200,0|0,0:0|0:0,0:0:0:0:
240,216,182273,1,8,0:0:0:0:
136,220,182478,1,0,0:0:0:0:
124,120,182684,5,0,0:0:0:0:
224,112,182889,1,0,0:0:0:0:
240,216,183095,1,8,0:0:0:0:
136,220,183300,1,0,0:0:0:0:
148,320,183506,2,0,P|80:336|44:324,1,100
40,228,183917,2,8,P|108:212|144:224,1,100,8|0,0:0|0:0,0:0:0:0:
148,320,184328,6,8,P|208:340|264:316,1,100,8|0,0:0|0:0,0:0:0:0:
332,288,184739,1,8,0:0:0:0:
420,244,184944,1,0,0:0:0:0:
368,160,185150,5,8,0:0:0:0:
352,136,185252,1,8,0:0:0:0:
336,112,185355,1,8,0:0:0:0:
320,88,185458,1,8,0:0:0:0:
304,64,185561,1,8,0:0:0:0:
304,64,185663,1,8,0:0:0:0:
304,64,185766,1,8,0:0:0:0:
304,64,185869,1,8,0:0:0:0:
304,64,185972,1,4,0:0:0:0:
400,36,186177,6,8,P|464:60|480:88,1,100,0|8,0:0|0:0,0:0:0:0:
500,184,186588,2,0,P|436:160|420:132,1,100
344,200,186999,6,0,L|364:308,1,100,0|8,0:0|0:0,0:0:0:0:
436,232,187410,1,0,0:0:0:0:
260,264,187615,2,0,P|244:164|316:96,1,200,0|8,0:0|0:0,0:0:0:0:
148,176,188232,2,0,P|164:276|92:344,1,200,0|0,0:0|0:0,0:0:0:0:
99,341,188848,2,0,L|36:252,1,100,8|0,0:0|0:0,0:0:0:0:
148,176,189259,5,4,0:0:0:0:
157,34,189465,1,0,0:0:0:0:
275,113,189670,1,8,0:0:0:0:
89,97,189876,5,4,0:0:0:0:
254,22,190082,1,0,0:0:0:0:
236,202,190287,1,0,0:0:0:0:
264,228,190492,1,12,0:0:0:0:
292,256,190698,1,0,0:0:0:0:
364,208,190903,5,4,0:0:0:0:
355,350,191109,1,0,0:0:0:0:
237,271,191314,1,8,0:0:0:0:
422,286,191520,5,4,0:0:0:0:
257,361,191726,1,0,0:0:0:0:
275,181,191931,1,0,0:0:0:0:
248,156,192136,1,12,0:0:0:0:
220,128,192342,1,0,0:0:0:0:
132,172,192547,6,0,L|72:264,1,100,4|0,0:0|0:0,0:0:0:0:
144,332,192958,2,0,L|204:240,1,100,8|0,0:0|0:0,0:0:0:0:
296,268,193369,1,0,0:0:0:0:
198,248,193574,1,0,0:0:0:0:
228,152,193780,1,8,0:0:0:0:
324,172,193985,1,0,0:0:0:0:
296,268,194191,6,0,L|376:336,1,100,4|0,0:0|0:0,0:0:0:0:
384,232,194602,1,8,0:0:0:0:
480,204,194807,2,0,L|400:136,1,100,0|0,0:0|0:0,0:0:0:0:
424,40,195218,1,0,0:0:0:0:
404,140,195424,1,8,0:0:0:0:
500,112,195629,1,0,0:0:0:0:
268,68,195835,6,8,L|324:68,3,50
288,108,196245,2,8,L|228:108,3,50
212,152,196656,2,8,L|272:152,3,50
236,196,197067,2,8,L|176:196,3,50
160,240,197478,1,8,0:0:0:0:
148,256,197581,1,8,0:0:0:0:
136,272,197684,1,8,0:0:0:0:
124,288,197787,1,8,0:0:0:0:
112,304,197889,1,8,0:0:0:0:
100,320,197992,1,8,0:0:0:0:
88,336,198095,1,8,0:0:0:0:
76,352,198198,1,8,0:0:0:0:
76,352,198300,1,8,0:0:0:0:
76,352,198403,1,8,0:0:0:0:
76,352,198506,1,8,0:0:0:0:
76,352,198608,1,8,0:0:0:0:
76,352,198711,1,8,0:0:0:0:
76,352,198814,1,8,0:0:0:0:
76,352,198917,1,8,0:0:0:0:
76,352,199019,1,8,0:0:0:0:
76,352,199122,1,4,0:0:0:0:
256,64,211040,5,0,0:0:0:0:
412,192,211451,1,8,0:0:0:0:
256,316,211862,1,8,0:0:0:0:
100,192,212273,6,0,P|72:268|112:336,2,150,12|0|0,0:0|0:0|0:0,0:0:0:0:
56,104,213095,1,0,0:0:0:0:
148,68,213300,1,0,0:0:0:0:
244,104,213506,1,8,0:0:0:0:
340,72,213711,1,0,0:0:0:0:
396,156,213917,6,0,P|444:80|408:0,2,150,0|0|0,0:0|0:0|0:0,0:0:0:0:
328,232,214739,1,0,0:0:0:0:
404,296,214944,1,0,0:0:0:0:
472,220,215150,1,8,0:0:0:0:
396,156,215355,1,0,0:0:0:0:
256,156,215561,5,4,0:0:0:0:
136,228,215766,1,0,0:0:0:0:
260,296,215972,1,0,0:0:0:0:
109,229,216177,5,4,0:0:0:0:
273,320,216382,1,0,0:0:0:0:
269,130,216588,1,0,0:0:0:0:
269,130,216793,2,0,P|320:108|368:100,1,100,8|4,0:0|0:0,0:0:0:0:
448,284,217410,5,0,0:0:0:0:
364,232,217615,1,0,0:0:0:0:
273,320,217821,1,4,0:0:0:0:
184,224,218026,1,0,0:0:0:0:
96,320,218232,1,0,0:0:0:0:
184,224,218437,2,0,L|176:172,1,50,8|0,0:0|0:0,0:0:0:0:
308,104,218848,6,0,P|398:54|476:136,2,200,2|0|0,0:0|0:0|0:0,0:0:0:0:
388,168,219876,1,0,0:0:0:0:
468,228,220081,1,8,0:0:0:0:
388,288,220287,1,0,0:0:0:0:
308,228,220492,6,0,P|218:178|140:260,2,200,2|0|0,0:0|0:0|0:0,0:0:0:0:
388,288,221519,1,0,0:0:0:0:
468,228,221725,1,8,0:0:0:0:
388,168,221930,1,0,0:0:0:0:
308,104,222136,6,2,L|108:104,1,200,2|8,0:0|0:0,0:0:0:0:
172,28,222752,2,2,P|212:96|172:208,1,200
175,204,223369,1,10,0:0:0:0:
256,192,223574,12,4,225424,0:0:0:0:
108,236,225732,6,8,L|156:272,1,50
240,304,226040,1,0,0:0:0:0:
136,332,226245,1,0,0:0:0:0:
108,236,226451,1,0,0:0:0:0:
200,204,226656,1,8,0:0:0:0:
240,304,226862,5,0,0:0:0:0:
336,328,227067,2,0,P|420:304|468:192,2,200
368,232,228095,1,0,0:0:0:0:
468,208,228300,2,0,L|392:132,1,100,8|0,0:0|0:0,0:0:0:0:
428,44,228711,6,0,P|344:68|296:180,2,200
399,137,229739,1,0,0:0:0:0:
368,232,229944,2,0,L|295:163,1,100,8|0,0:0|0:0,0:0:0:0:
296,163,230355,6,0,P|213:134|109:198,1,200,0|8,0:0|0:0,0:0:0:0:
200,244,230972,2,0,P|228:161|164:57,1,200,0|0,0:0|0:0,0:0:0:0:
178,66,231588,1,8,0:0:0:0:
371,67,231999,6,0,P|423:161|406:296,1,200,0|0,0:0|0:0,0:0:0:0:
102,120,232821,2,0,P|89:226|155:345,1,200,0|8,0:0|0:0,0:0:0:0:
324,296,233643,6,0,P|432:344|480:264,1,200
188,88,234465,2,0,P|80:40|32:120,1,200,0|8,0:0|0:0,0:0:0:0:
35,88,235081,1,0,0:0:0:0:
256,192,235287,12,8,238163,0:0:0:0:
256,296,238369,5,8,0:0:0:0:
344,340,238574,1,4,0:0:0:0:
256,296,238780,1,0,0:0:0:0:
168,340,238985,2,0,L|64:340,2,100,8|0|0,0:0|0:0|0:0,0:0:0:0:
124,252,239602,1,0,0:0:0:0:
212,204,239807,5,8,0:0:0:0:
56,116,240013,1,0,0:0:0:0:
212,24,240218,1,0,0:0:0:0:
212,24,240424,1,0,0:0:0:0:
368,112,240629,5,8,0:0:0:0:
368,112,240835,1,0,0:0:0:0:
212,204,241040,1,0,0:0:0:0:
212,204,241245,1,0,0:0:0:0:
368,112,241451,1,8,0:0:0:0:
212,24,241656,1,0,0:0:0:0:
368,112,241862,6,0,P|436:64|444:160,2,200,0|8|0,0:0|0:0|0:0,0:0:0:0:
368,112,242889,1,0,0:0:0:0:
376,208,243095,2,0,P|304:248|192:204,1,200,8|0,0:0|0:0,0:0:0:0:
8,144,243917,2,0,P|80:104|192:148,1,200,8|0,0:0|0:0,0:0:0:0:
100,192,244533,1,0,0:0:0:0:
8,236,244739,2,0,P|80:276|192:232,1,200,8|2,0:0|0:0,0:0:0:0:
248,316,245355,5,0,0:0:0:0:
185,239,245561,2,0,L|185:126,1,100,8|0,0:0|0:0,0:0:0:0:
248,216,245972,5,0,0:0:0:0:
185,139,246177,2,0,L|184:25,1,100,0|8,0:0|0:0,0:0:0:0:
256,192,246588,12,8,248437,0:0:0:0:
92,200,262410,5,0,0:0:0:0:
176,256,262821,1,8,0:0:0:0:
162,107,263232,6,0,B|214:139|430:27|166:-1|186:55|306:139|358:107,1,300.000011444092,12|0,0:0|0:0,0:0:0:0:
420,148,264259,1,0,0:0:0:0:
444,220,264465,1,8,0:0:0:0:
398,279,264876,2,0,P|286:319|104:272,1,300.000011444092,8|0,0:0|0:0,0:0:0:0:
114,278,266108,5,8,0:0:0:0:
68,220,266519,6,0,P|116:156|128:80,1,150.000005722046,4|8,0:0|0:0,0:0:0:0:
68,220,267136,2,0,B|68:304|68:304|64:308|64:308|72:308|72:308|64:312|64:312|72:312|72:312|68:316|68:316|68:348,1,150.000005722046,4|0,0:0|0:0,0:0:0:0:
140,328,267752,1,8,0:0:0:0:
192,272,267958,1,8,0:0:0:0:
252,228,268163,6,0,P|324:208|432:216,1,150.000005722046,4|8,0:0|0:0,0:0:0:0:
252,228,268780,2,0,P|184:160|172:100,1,150.000005722046,4|0,0:0|0:0,0:0:0:0:
172,109,269396,1,8,0:0:0:0:
312,192,269807,6,0,B|332:124|360:96|388:124|380:164|380:164|372:200|400:228|428:200|448:112,1,300,4|8,0:0|0:0,0:0:0:0:
200,192,271451,6,0,B|180:260|152:288|124:260|132:220|132:220|140:184|112:156|84:184|64:272,2,300,4|0|12,0:0|0:0|0:0,0:0:0:0:
256,192,273198,12,8,274328,0:0:0:0:
256,192,274739,6,8,L|316:192,3,50
256,248,275150,2,8,L|200:248,3,50
184,228,275561,1,8,0:0:0:0:
160,212,275663,1,8,0:0:0:0:
132,204,275766,1,8,0:0:0:0:
100,204,275869,1,8,0:0:0:0:
72,212,275972,1,8,0:0:0:0:
48,232,276074,1,8,0:0:0:0:
44,272,276177,1,8,0:0:0:0:
72,312,276280,1,8,0:0:0:0:
112,312,276382,5,6,0:0:0:0:
228,340,276588,2,0,L|336:304,1,100,0|8,0:0|0:0,0:0:0:0:
360,192,276999,1,0,0:0:0:0:
324,308,277204,1,0,0:0:0:0:
444,332,277410,1,0,0:0:0:0:
476,216,277615,1,8,0:0:0:0:
360,192,277821,1,0,0:0:0:0:
312,84,278026,6,0,P|240:56|196:72,1,100
108,100,278437,2,0,P|180:128|224:112,1,100,8|0,0:0|0:0,0:0:0:0:
292,200,278848,1,0,0:0:0:0:
199,124,279054,1,0,0:0:0:0:
108,200,279259,1,8,0:0:0:0:
200,276,279465,1,0,0:0:0:0:
292,200,279670,6,0,P|312:280|424:324,1,200,0|8,0:0|0:0,0:0:0:0:
220,184,280287,2,0,P|200:104|88:60,1,200
148,168,280903,1,8,0:0:0:0:
284,108,281108,1,0,0:0:0:0:
252,256,281314,1,0,0:0:0:0:
120,324,281519,6,0,L|16:356,3,100,0|8|0|0,0:0|0:0|0:0|0:0,0:0:0:0:
136,252,282341,1,0,0:0:0:0:
288,244,282547,1,8,0:0:0:0:
152,180,282752,1,0,0:0:0:0:
304,172,282958,6,0,P|356:216|300:316,2,200,4|8|0,0:0|0:0|0:0,0:0:0:0:
432,248,283985,1,0,0:0:0:0:
288,244,284191,2,0,L|172:236,1,100,8|0,0:0|0:0,0:0:0:0:
172,308,284602,2,0,P|120:264|176:164,1,200,0|8,0:0|0:0,0:0:0:0:
52,172,285218,2,0,P|40:244|96:356,1,200
120,236,285835,1,8,0:0:0:0:
256,192,286040,12,0,287889,0:0:0:0:
364,144,288095,6,0,L|428:240,1,100,0|8,0:0|0:0,0:0:0:0:
256,192,288506,1,0,0:0:0:0:
136,244,288711,2,0,L|72:148,1,100
182,97,289122,2,0,P|266:41|330:101,1,200,8|4,0:0|0:0,0:0:0:0:
364,212,289739,5,0,0:0:0:0:
480,180,289944,1,8,0:0:0:0:
444,64,290150,1,0,0:0:0:0:
329,97,290355,1,0,0:0:0:0:
364,212,290561,1,0,0:0:0:0:
336,328,290766,2,2,L|204:328|200:328,1,100,8|0,0:0|0:0,0:0:0:0:
244,208,291177,6,0,L|92:32,1,200,0|8,0:0|0:0,0:0:0:0:
88,172,291793,2,0,P|192:120|252:28,1,200
241,54,292410,2,0,L|320:128,1,100,8|0,0:0|0:0,0:0:0:0:
314,121,292821,5,4,0:0:0:0:
184,165,293026,1,0,0:0:0:0:
395,233,293232,1,8,0:0:0:0:
314,344,293437,1,4,0:0:0:0:
183,302,293643,1,0,0:0:0:0:
280,232,293848,1,0,0:0:0:0:
280,232,294054,1,12,0:0:0:0:
216,252,294259,5,0,0:0:0:0:
149,275,294465,5,4,0:0:0:0:
280,232,294670,1,0,0:0:0:0:
68,163,294876,1,8,0:0:0:0:
149,52,295081,1,4,0:0:0:0:
280,95,295287,1,0,0:0:0:0:
184,165,295492,1,0,0:0:0:0:
184,165,295698,1,12,0:0:0:0:
280,232,295903,1,0,0:0:0:0:
172,284,296108,6,0,P|136:272|80:228,1,100,4|0,0:0|0:0,0:0:0:0:
40,124,296519,2,0,P|76:136|132:180,1,100,8|0,0:0|0:0,0:0:0:0:
144,52,296930,1,0,0:0:0:0:
292,80,297136,1,0,0:0:0:0:
144,52,297341,1,8,0:0:0:0:
292,80,297547,1,0,0:0:0:0:
340,284,297752,6,0,P|376:272|432:228,1,100,4|0,0:0|0:0,0:0:0:0:
472,124,298163,2,0,P|436:136|380:180,1,100,8|0,0:0|0:0,0:0:0:0:
368,52,298574,1,0,0:0:0:0:
220,80,298780,1,0,0:0:0:0:
368,52,298985,1,8,0:0:0:0:
220,80,299191,1,0,0:0:0:0:
316,196,299396,5,8,0:0:0:0:
244,228,299602,1,8,0:0:0:0:
120,80,299807,1,8,0:0:0:0:
152,152,300013,1,8,0:0:0:0:
444,256,300218,1,8,0:0:0:0:
412,184,300424,1,8,0:0:0:0:
92,304,300629,1,8,0:0:0:0:
164,272,300835,1,8,0:0:0:0:
356,280,301040,5,8,0:0:0:0:
328,272,301143,1,8,0:0:0:0:
304,252,301245,1,8,0:0:0:0:
288,228,301348,1,8,0:0:0:0:
280,200,301451,1,8,0:0:0:0:
284,172,301554,1,8,0:0:0:0:
296,144,301656,1,8,0:0:0:0:
316,124,301759,1,8,0:0:0:0:
344,112,301862,2,8,P|380:104|412:112,7,50
364,196,302684,1,6,0:0:0:0:
