osu file format v12

[General]
AudioFilename: Sound Online - Hydrangea.mp3
AudioLeadIn: 0
PreviewTime: 171942
Countdown: 0
SampleSet: Soft
StackLeniency: 0.2
Mode: 0
LetterboxInBreaks: 1

[Editor]
Bookmarks: 23624,44957,118524,157976,248437
DistanceSpacing: 1
BeatDivisor: 4
GridSize: 4

[Metadata]
Title:Hydrangea
TitleUnicode:Hydrangea
Artist:Sound Online
ArtistUnicode:Sound Online
Creator:0814587134
Version:Hard
Source:Touhou
Tags:sound online hydrangea hijiri byakuren touhou ZUN
BeatmapID:234207
BeatmapSetID:84987

[Difficulty]
HPDrainRate:6
CircleSize:4
OverallDifficulty:5
ApproachRate:7
SliderMultiplier:1.6
SliderTickRate:2

[Events]
//Background and Video events
0,0,"BG.jpg",1,1
//Break Periods
2,82610,91373
2,122062,130825
2,199322,210551
//Storyboard Layer 0 (Background)
//Storyboard Layer 1 (Fail)
//Storyboard Layer 2 (Pass)
//Storyboard Layer 3 (Foreground)
//Storyboard Sound Samples
//Background Colour Transformations
3,100,255,255,0

[TimingPoints]
2341,333.333333333333,4,2,0,100,1,0
2674,333.333333333333,4,2,0,100,1,0
23674,333.333333333333,4,2,1,100,1,0
65972,410.958904109589,4,2,1,100,1,0
65972,-200,4,2,1,100,0,0
78300,-133.333333333333,4,2,2,70,0,0
79122,-100,4,2,2,70,0,0
92273,-100,4,2,2,70,0,0
102752,-200,4,2,2,70,0,0
103163,-100,4,2,2,70,0,0
109944,-200,4,2,2,70,0,0
110355,-100,4,2,2,70,0,0
111999,-200,4,2,2,70,0,0
112821,-100,4,2,2,70,0,0
144054,-100,4,2,2,30,0,0
144156,-100,4,2,2,35,0,0
144259,-100,4,2,2,40,0,0
144362,-100,4,2,2,45,0,0
144465,-100,4,2,2,50,0,0
144567,-100,4,2,2,55,0,0
144670,-100,4,2,2,60,0,0
144773,-100,4,2,2,65,0,0
144876,-100,4,2,2,70,0,0
158026,-133.333333333333,4,2,2,70,0,0
172821,-100,4,2,1,70,0,1
185150,-100,4,2,1,30,0,1
185252,-100,4,2,1,35,0,1
185355,-100,4,2,1,40,0,1
185458,-100,4,2,1,45,0,1
185561,-100,4,2,1,50,0,1
185663,-100,4,2,1,55,0,1
185766,-100,4,2,1,60,0,1
185869,-100,4,2,1,65,0,1
185972,-100,4,2,1,70,0,1
195835,-100,4,2,1,30,0,1
196656,-100,4,2,1,40,0,1
197478,-100,4,2,1,50,0,1
198300,-100,4,2,1,60,0,1
199122,-100,4,2,2,70,0,0
218437,-200,4,2,2,70,0,0
218848,-100,4,2,2,70,0,0
225424,-100,4,2,1,70,0,1
225425,-100,4,2,2,70,0,0
250081,-200,4,2,2,70,0,0
263232,-133.333333333333,4,2,2,70,0,0
269807,-200,4,2,2,70,0,0
271451,-133.333333333333,4,2,2,70,0,0
273095,-100,4,2,2,70,0,0
276382,-100,4,2,1,70,0,1
299396,-100,4,2,1,30,0,1
300218,-100,4,2,1,40,0,1
301040,-100,4,2,1,50,0,1
301862,-100,4,2,1,60,0,1
302684,-100,4,2,2,70,0,0

[Colours]
Combo1 : 255,0,255
Combo2 : 255,0,0
Combo3 : 255,128,0
Combo4 : 255,255,0
Combo5 : 128,255,0
Combo6 : 0,128,255
Combo7 : 0,0,255
Combo8 : 128,0,255

[HitObjects]
256,192,65972,1,0,0:0:0:0:
288,120,66177,1,0,0:0:0:0:
352,76,66382,2,0,P|304:44|276:40,1,80,2|0,0:0|0:0,0:0:0:0:
282,40,66999,1,0,0:0:0:0:
124,64,67410,6,0,L|68:140,1,80
128,188,68026,1,2,0:0:0:0:
76,248,68232,1,0,0:0:0:0:
124,312,68437,1,0,0:0:0:0:
176,252,68643,2,2,L|264:292,1,80
400,332,69465,5,0,0:0:0:0:
356,264,69670,1,2,0:0:0:0:
436,264,69876,1,0,0:0:0:0:
392,196,70081,1,0,0:0:0:0:
472,196,70287,1,0,0:0:0:0:
432,128,70492,2,2,P|344:124|296:180,1,160
268,248,71519,2,0,L|228:248,2,40
344,276,72136,1,2,0:0:0:0:
197,212,72547,6,2,B|157:192|145:156|145:156|133:192|85:216,1,160,4|0,0:0|0:0,0:0:0:0:
144,272,73574,2,0,L|144:352,2,80,2|0|0,0:0|0:0|0:0,0:0:0:0:
90,213,74602,1,2,0:0:0:0:
56,56,75013,5,0,0:0:0:0:
212,24,75424,1,2,0:0:0:0:
228,104,75629,1,0,0:0:0:0:
252,180,75835,2,0,P|312:188|324:172,1,80,0|2,0:0|0:0,0:0:0:0:
296,100,76451,2,0,P|356:92|368:108,1,80,0|2,0:0|0:0,0:0:0:0:
388,176,77067,2,0,P|448:184|460:168,2,80,2|0|2,0:0|0:0|0:0,0:0:0:0:
396,256,78095,5,0,0:0:0:0:
288,308,78300,2,0,L|192:308|152:308,2,120.000004577637,8|8|4,0:0|0:0|0:0,0:0:0:0:
256,192,79328,12,10,82410,0:0:0:0:
160,296,92273,5,4,0:0:0:0:
88,264,92478,1,0,0:0:0:0:
128,196,92684,1,2,0:0:0:0:
56,164,92889,1,0,0:0:0:0:
96,92,93095,2,0,P|176:48|252:48,2,160,0|2|0,0:0|0:0|0:0,0:0:0:0:
56,164,94122,6,0,L|72:252,1,80,0|2,0:0|0:0,0:0:0:0:
144,208,94533,2,0,L|160:288,1,80
240,300,94944,2,0,L|208:140,1,160,0|2,0:0|0:0,0:0:0:0:
240,300,95766,5,0,0:0:0:0:
320,264,95972,1,2,0:0:0:0:
344,180,96177,1,0,0:0:0:0:
420,136,96382,1,0,0:0:0:0:
452,60,96588,1,0,0:0:0:0:
452,60,96793,2,0,P|376:32|296:68,2,160,2|0|2,0:0|0:0|0:0,0:0:0:0:
420,136,97821,5,0,0:0:0:0:
344,180,98026,2,0,L|420:236,1,80
472,276,98437,2,0,L|407:227,1,80,2|0,0:0|0:0,0:0:0:0:
356,288,98848,6,2,B|316:288|300:264|292:248|292:248|284:264|268:288|256:320|256:320|244:288|228:264|220:248|220:248|212:264|192:288|152:288,1,320,6|2,0:0|0:0,0:0:0:0:
156,208,99876,2,0,P|192:176|232:172,1,80,0|2,0:0|0:0,0:0:0:0:
356,208,100287,2,0,P|320:176|280:172,1,80
289,170,100698,1,0,0:0:0:0:
216,92,100903,2,0,P|116:136|80:184,1,160,2|0,0:0|0:0,0:0:0:0:
52,332,101725,5,2,0:0:0:0:
24,256,101930,2,0,B|84:236|108:272|120:280|120:292|136:296|132:320|136:336|132:352|132:352|204:316,1,240,0|2,0:0|0:0,0:0:0:0:
232,256,102752,2,2,L|288:328,1,80
324,252,103369,1,2,0:0:0:0:
396,220,103574,2,0,L|340:148,2,80
392,300,104191,5,0,0:0:0:0:
324,252,104396,1,0,0:0:0:0:
260,204,104602,1,8,0:0:0:0:
260,204,105013,1,8,0:0:0:0:
144,80,105424,6,0,P|100:100|76:120,2,80,4|0|0,0:0|0:0|0:0,0:0:0:0:
200,140,106040,2,2,P|244:120|268:100,1,80
268,99,106451,2,0,L|268:20,1,80,0|8,0:0|0:0,0:0:0:0:
340,60,106862,6,0,B|372:60|372:60|392:72|424:80|412:104|428:112|444:124|392:172|456:152|404:180|420:184|420:184,1,160
352,132,107478,1,2,0:0:0:0:
422,165,107684,1,0,0:0:0:0:
352,132,107889,1,2,0:0:0:0:
422,165,108095,1,0,0:0:0:0:
384,236,108300,5,8,0:0:0:0:
312,200,108506,2,0,P|272:212|228:320,1,160
148,296,109122,1,0,0:0:0:0:
92,236,109328,1,0,0:0:0:0:
156,188,109533,1,0,0:0:0:0:
92,136,109739,1,0,0:0:0:0:
156,88,109944,2,0,P|192:60|236:56,1,80,8|0,0:0|0:0,0:0:0:0:
344,68,110561,5,0,0:0:0:0:
421,50,110766,1,0,0:0:0:0:
439,127,110972,1,0,0:0:0:0:
361,145,111177,1,0,0:0:0:0:
284,163,111382,1,0,0:0:0:0:
206,181,111588,1,8,0:0:0:0:
224,259,111793,1,0,0:0:0:0:
304,240,111999,6,0,L|396:216,2,80,4|2|0,0:0|0:0|0:0,0:0:0:0:
224,259,113026,2,0,L|60:304,2,160,2|2|0,0:0|0:0|0:0,0:0:0:0:
180,192,114054,1,0,0:0:0:0:
132,128,114259,1,0,0:0:0:0:
204,92,114465,1,0,0:0:0:0:
252,156,114670,1,2,0:0:0:0:
180,192,114876,1,10,0:0:0:0:
180,192,115081,1,0,0:0:0:0:
100,200,115287,6,0,B|63:255|85:275|119:268|144:285|119:343,1,160,0|2,0:0|0:0,0:0:0:0:
201,329,115903,2,0,B|237:273|215:253|181:260|156:243|181:185,1,160
260,180,116519,2,0,B|366:179|422:82|333:18|251:108|357:173|413:169|477:125,1,320,8|8,0:0|0:0,0:0:0:0:
458,137,117547,1,0,0:0:0:0:
440,216,117752,6,0,P|404:256|452:360,2,160,8|8|4,0:0|0:0|0:0,0:0:0:0:
256,192,118780,12,8,121862,0:0:0:0:
128,304,131725,6,0,P|72:272|56:240,2,80,4|0|8,0:0|0:0|0:0,0:0:0:0:
184,248,132341,1,0,0:0:0:0:
240,304,132547,1,0,0:0:0:0:
300,248,132752,2,0,P|344:232|368:208,2,80,0|8|0,0:0|0:0|0:0,0:0:0:0:
392,116,133574,5,0,0:0:0:0:
344,52,133780,1,8,0:0:0:0:
412,12,133985,1,0,0:0:0:0:
460,76,134191,1,0,0:0:0:0:
392,116,134396,1,0,0:0:0:0:
344,52,134602,1,8,0:0:0:0:
264,68,134807,6,0,B|216:28|180:40|180:40|168:72|208:108,1,160
260,156,135424,1,8,0:0:0:0:
316,212,135629,1,0,0:0:0:0:
236,232,135835,1,0,0:0:0:0:
180,176,136040,1,0,0:0:0:0:
200,100,136245,6,8,P|156:76|48:108,2,160,8|0|8,0:0|0:0|0:0,0:0:0:0:
180,176,137273,1,0,0:0:0:0:
260,156,137478,2,0,P|280:108|216:28,1,160,0|8,0:0|0:0,0:0:0:0:
256,232,138300,6,0,P|236:280|300:360,2,160,4|8|0,0:0|0:0|0:0,0:0:0:0:
316,180,139328,2,0,P|348:144|308:48,2,160,0|2|0,0:0|0:0|0:0,0:0:0:0:
316,180,140355,1,8,0:0:0:0:
256,236,140561,6,0,P|320:260|360:248,1,80
392,212,140972,1,0,0:0:0:0:
329,258,141177,1,8,0:0:0:0:
404,288,141382,1,0,0:0:0:0:
256,236,141588,6,0,L|84:236,1,160,0|8,0:0|0:0,0:0:0:0:
56,304,142204,2,0,L|228:304,1,160,0|0,0:0|0:0,0:0:0:0:
256,236,142821,2,0,P|208:200|212:88,1,160,8|0,0:0|0:0,0:0:0:0:
256,48,143437,1,0,0:0:0:0:
280,124,143643,1,8,0:0:0:0:
200,105,143848,1,0,0:0:0:0:
124,124,144054,2,8,L|76:124,8,40,0|8|8|8|8|8|8|8|4,0:0|0:0|0:0|0:0|0:0|0:0|0:0|0:0|0:0,0:0:0:0:
108,204,145081,5,0,0:0:0:0:
252,276,145287,2,0,L|216:200,1,80,8|0,0:0|0:0,0:0:0:0:
340,308,145698,2,0,L|336:216,1,80
340,308,146108,2,0,P|400:328|480:284,1,160,8|0,0:0|0:0,0:0:0:0:
436,216,146725,5,0,0:0:0:0:
444,136,146930,1,8,0:0:0:0:
368,108,147136,1,0,0:0:0:0:
320,172,147341,1,0,0:0:0:0:
360,236,147547,1,0,0:0:0:0:
340,308,147752,1,8,0:0:0:0:
260,312,147958,2,0,B|232:216|176:384|128:248,1,160
100,200,148574,5,8,0:0:0:0:
216,92,148780,1,0,0:0:0:0:
156,144,148985,1,0,0:0:0:0:
216,92,149191,1,0,0:0:0:0:
156,144,149396,1,8,0:0:0:0:
216,92,149602,1,0,0:0:0:0:
296,52,149807,6,0,P|344:64|372:84,2,80,0|0|8,0:0|0:0|0:0,0:0:0:0:
216,52,150424,2,0,P|168:64|140:84,2,80,0|0|0,0:0|0:0|0:0,0:0:0:0:
216,140,151040,2,0,B|272:184|256:264|240:180|300:136,2,160,8|4|8,0:0|0:0|0:0,0:0:0:0:
136,176,152067,6,0,P|168:212|180:256,1,80
260,280,152478,1,0,0:0:0:0:
260,280,152684,1,8,0:0:0:0:
376,176,152889,2,0,P|344:212|332:256,2,80
444,232,153506,6,0,P|464:176|400:92,1,160,8|0,0:0|0:0,0:0:0:0:
384,272,154328,1,8,0:0:0:0:
308,320,154533,1,0,0:0:0:0:
236,268,154739,2,0,P|198:316|91:309,1,160,0|8,0:0|0:0,0:0:0:0:
20,300,155355,2,0,P|57:251|164:258,1,160
236,268,155972,1,8,0:0:0:0:
256,192,156177,12,4,158026,0:0:0:0:
116,56,158437,6,0,B|104:168|168:152|212:100|144:80|92:100|80:132|96:172|116:204,1,240.000009155274,0|8,0:0|0:0,0:0:0:0:
148,256,159465,1,0,0:0:0:0:
260,296,159670,2,0,B|308:272|308:272|308:280|308:280|352:260,2,90.0000034332277,2|0|0,0:0|0:0|0:0,0:0:0:0:
372,340,160492,1,0,0:0:0:0:
436,312,160698,1,0,0:0:0:0:
472,248,160903,1,8,0:0:0:0:
468,176,161108,1,0,0:0:0:0:
436,112,161314,2,0,P|384:64|320:64,1,120.000004577637,0|2,0:0|0:0,0:0:0:0:
320,128,161930,6,0,L|196:64,1,120.000004577637
204,144,162547,2,0,P|157:139|105:91,1,120.000004577637,8|2,0:0|0:0,0:0:0:0:
80,24,163163,1,0,0:0:0:0:
105,91,163369,1,8,0:0:0:0:
92,160,163574,1,0,0:0:0:0:
48,220,163780,1,8,0:0:0:0:
116,240,163985,1,0,0:0:0:0:
64,288,164191,1,8,0:0:0:0:
132,312,164396,1,0,0:0:0:0:
184,260,164602,6,0,B|196:220|180:208|172:188|160:184|160:184|160:180|180:140|180:88|172:64,1,180.000006866455,4|0,0:0|0:0,0:0:0:0:
64,288,165629,2,0,P|48:328|32:352,2,60.0000022888184,0|8|0,0:0|0:0|0:0,0:0:0:0:
176,332,166245,1,0,0:0:0:0:
288,288,166554,1,0,0:0:0:0:
400,332,166862,1,0,0:0:0:0:
416,188,167273,5,0,0:0:0:0:
419,116,167478,1,8,0:0:0:0:
480,156,167684,1,0,0:0:0:0:
479,232,167889,2,0,P|379:255|364:132,1,240.000009155274
304,92,168917,1,0,0:0:0:0:
256,144,169122,1,8,0:0:0:0:
208,92,169328,1,0,0:0:0:0:
157,144,169533,2,0,P|132:255|33:232,1,240.000009155274,2|0,0:0|0:0,0:0:0:0:
96,188,170561,5,0,0:0:0:0:
93,116,170766,1,8,0:0:0:0:
32,156,170972,1,0,0:0:0:0:
96,188,171177,1,8,0:0:0:0:
196,240,172821,5,4,0:0:0:0:
380,292,173232,6,0,L|472:272,2,80,8|0|0,0:0|0:0|0:0,0:0:0:0:
288,264,173848,1,0,0:0:0:0:
196,240,174054,2,0,L|104:260,2,80,8|0|0,0:0|0:0|0:0,0:0:0:0:
260,168,174670,1,0,0:0:0:0:
168,144,174876,2,0,P|200:96|300:84,1,160,8|0,0:0|0:0,0:0:0:0:
295,82,175492,1,0,0:0:0:0:
376,88,175698,5,10,0:0:0:0:
328,256,175903,1,2,0:0:0:0:
352,172,176108,2,0,P|444:228|464:280,1,160,0|8,0:0|0:0,0:0:0:0:
328,256,176725,2,0,P|236:200|216:148,1,160,0|2,0:0|0:0,0:0:0:0:
217,155,177341,1,8,0:0:0:0:
280,104,177547,5,0,0:0:0:0:
244,32,177752,1,0,0:0:0:0:
164,44,177958,1,0,0:0:0:0:
144,120,178163,1,8,0:0:0:0:
217,155,178369,1,0,0:0:0:0:
196,232,178574,1,8,0:0:0:0:
116,244,178780,1,0,0:0:0:0:
80,172,178985,1,8,0:0:0:0:
116,244,179191,1,0,0:0:0:0:
148,316,179396,6,0,L|52:352,2,80,4|0|8,0:0|0:0|0:0,0:0:0:0:
228,332,180013,1,0,0:0:0:0:
308,316,180218,2,0,P|352:256|296:192,1,160,0|8,0:0|0:0,0:0:0:0:
328,116,180835,1,0,0:0:0:0:
440,100,181040,2,0,P|396:160|452:224,1,160,0|8,0:0|0:0,0:0:0:0:
308,316,181656,6,0,P|352:256|296:192,1,160,0|0,0:0|0:0,0:0:0:0:
228,192,182273,1,8,0:0:0:0:
152,168,182478,1,0,0:0:0:0:
256,192,182684,12,8,184328,0:0:0:0:
140,160,184739,6,0,L|120:244,1,80,8|0,0:0|0:0,0:0:0:0:
188,284,185150,2,8,L|228:300,8,40,8|8|8|8|8|8|8|8|4,0:0|0:0|0:0|0:0|0:0|0:0|0:0|0:0|0:0,0:0:0:0:
228,216,186177,5,0,0:0:0:0:
188,284,186382,2,0,P|232:296|308:208,1,160,8|0,0:0|0:0,0:0:0:0:
384,248,186999,1,0,0:0:0:0:
308,224,187204,2,0,P|331:185|447:197,1,160,8|0,0:0|0:0,0:0:0:0:
384,248,187821,5,0,0:0:0:0:
460,272,188026,2,0,P|436:310|320:298,1,160,8|0,0:0|0:0,0:0:0:0:
384,248,188643,1,0,0:0:0:0:
448,196,188848,2,0,L|436:28,1,160,8|4,0:0|0:0,0:0:0:0:
276,40,189670,5,8,0:0:0:0:
240,112,189876,2,0,P|268:120|324:104,1,80,4|0,0:0|0:0,0:0:0:0:
356,180,190287,1,0,0:0:0:0:
280,212,190492,1,12,0:0:0:0:
200,180,190698,1,0,0:0:0:0:
240,112,190903,6,0,P|184:84|80:80,1,160,4|8,0:0|0:0,0:0:0:0:
16,44,191519,2,0,P|12:96|104:152,1,160,4|0,0:0|0:0,0:0:0:0:
116,232,192136,1,8,0:0:0:0:
152,304,192547,1,4,0:0:0:0:
72,292,192752,5,0,0:0:0:0:
116,232,192958,1,8,0:0:0:0:
152,304,193163,1,0,0:0:0:0:
152,304,193369,2,0,P|212:344|308:344,1,160,0|8,0:0|0:0,0:0:0:0:
368,324,193985,1,0,0:0:0:0:
292,228,194191,6,0,L|208:228,1,80,4|0,0:0|0:0,0:0:0:0:
160,168,194602,1,8,0:0:0:0:
112,104,194807,1,0,0:0:0:0:
160,168,195013,2,0,P|224:160|296:96,1,160,0|8,0:0|0:0,0:0:0:0:
294,99,195629,1,8,0:0:0:0:
376,92,195835,5,8,0:0:0:0:
408,116,196040,1,8,0:0:0:0:
460,208,196245,1,8,0:0:0:0:
420,220,196451,1,8,0:0:0:0:
280,196,196656,1,8,0:0:0:0:
248,172,196862,1,8,0:0:0:0:
116,80,197067,1,8,0:0:0:0:
84,104,197273,1,8,0:0:0:0:
256,192,197478,12,6,199122,0:0:0:0:
88,244,211451,5,8,0:0:0:0:
160,276,211862,1,8,0:0:0:0:
240,280,212273,2,0,P|328:256|380:200,2,160,4|0|0,0:0|0:0|0:0,0:0:0:0:
124,168,213506,1,8,0:0:0:0:
124,168,213711,1,0,0:0:0:0:
200,196,213917,6,0,P|152:244|56:216,2,160
256,192,214944,1,0,0:0:0:0:
312,188,215150,2,0,P|360:140|456:168,1,160,8|4,0:0|0:0,0:0:0:0:
324,48,215972,6,0,L|412:68,1,80,8|6,0:0|0:0,0:0:0:0:
244,76,216588,1,0,0:0:0:0:
168,48,216793,1,8,0:0:0:0:
92,76,216999,1,0,0:0:0:0:
168,48,217204,2,0,L|168:212,1,160,4|8,0:0|0:0,0:0:0:0:
100,248,217821,2,0,P|188:280|244:228,1,160,4|0,0:0|0:0,0:0:0:0:
264,220,218437,6,2,P|308:204|352:216,1,80,12|4,0:0|0:0,0:0:0:0:
264,220,219259,1,0,0:0:0:0:
159,181,219670,1,0,0:0:0:0:
163,71,220081,1,8,0:0:0:0:
269,40,220492,1,2,0:0:0:0:
331,131,220903,1,0,0:0:0:0:
437,171,221314,5,0,0:0:0:0:
433,281,221725,1,8,0:0:0:0:
380,296,221930,1,0,0:0:0:0:
327,312,222136,1,2,0:0:0:0:
265,221,222547,1,0,0:0:0:0:
265,221,222752,1,2,0:0:0:0:
144,260,223163,1,0,0:0:0:0:
144,260,223369,1,10,0:0:0:0:
256,192,223780,12,6,225424,0:0:0:0:
96,284,225835,5,0,0:0:0:0:
132,212,226040,1,0,0:0:0:0:
52,216,226245,2,0,L|84:136,1,80
200,36,226656,1,10,0:0:0:0:
120,52,226862,2,2,P|144:92|184:112,1,80
324,56,227478,5,0,0:0:0:0:
272,208,227889,1,0,0:0:0:0:
388,100,228300,1,8,0:0:0:0:
236,144,228506,1,0,0:0:0:0:
392,172,228711,2,0,B|432:172|452:212|432:252|452:288|496:288,2,160,2|0|0,0:0|0:0|0:0,0:0:0:0:
236,144,229739,1,0,0:0:0:0:
176,196,229944,6,0,B|148:148|164:128|156:120|172:100|176:88|204:76|204:76|192:40,1,160,8|0,0:0|0:0,0:0:0:0:
296,92,230766,2,0,B|324:140|308:160|316:168|300:188|296:200|268:212|268:212|280:248,1,160,8|0,0:0|0:0,0:0:0:0:
204,272,231382,1,0,0:0:0:0:
204,272,231588,1,8,0:0:0:0:
353,207,231999,6,0,P|326:167|389:65,1,160,0|2,0:0|0:0,0:0:0:0:
407,144,232821,2,0,P|433:184|370:286,1,160,0|8,0:0|0:0,0:0:0:0:
367,73,233643,6,0,B|402:56|422:57|443:68|457:82|457:82|494:139,1,160,0|2,0:0|0:0,0:0:0:0:
392,278,234465,2,0,B|357:295|337:293|316:283|302:268|302:268|265:211,1,160,2|8,0:0|0:0,0:0:0:0:
268,217,235081,1,0,0:0:0:0:
256,192,235287,12,6,238574,0:0:0:0:
184,308,238985,6,0,P|300:328|346:281,1,160,8|0,0:0|0:0,0:0:0:0:
372,240,239602,2,0,L|432:308|432:308,2,80,0|8|0,0:0|0:0|0:0,0:0:0:0:
292,220,240218,2,0,P|324:172|372:160,1,80
484,80,240629,2,0,P|452:128|404:140,1,80,8|0,0:0|0:0,0:0:0:0:
342,163,241040,2,0,B|332:120|312:104|280:96|252:96|252:96|236:136,1,160,0|8,0:0|0:0,0:0:0:0:
216,208,241656,1,0,0:0:0:0:
196,284,241862,6,0,B|185:327|165:343|133:351|105:351|105:351|89:311,1,160,0|8,0:0|0:0,0:0:0:0:
216,208,242684,2,0,B|172:196|168:144|168:144|144:188|72:168,1,160,0|8,0:0|0:0,0:0:0:0:
264,144,243506,2,0,P|296:192|248:280,2,160,0|8|0,0:0|0:0|0:0,0:0:0:0:
228,72,244533,1,0,0:0:0:0:
308,76,244739,1,8,0:0:0:0:
364,136,244944,1,0,0:0:0:0:
444,148,245150,6,0,P|416:200|308:188,1,160,0|8,0:0|0:0,0:0:0:0:
68,236,245766,2,0,P|96:184|204:196,1,160,0|0,0:0|0:0,0:0:0:0:
256,228,246382,1,8,0:0:0:0:
256,192,246588,12,8,248437,0:0:0:0:
