osu file format v5

[General]
AudioFilename: ao to siro no kyoukaisen.mp3
AudioLeadIn: 0
PreviewTime: -1
Countdown: 1
SampleSet: Normal
StackLeniency: 0.7
Mode: 0
LetterboxInBreaks: 1
EditorBookmarks: 0,4640,16340,31040,35540,45140,64340,73640,93140,118040,133340
EditorDistanceSpacing: 0.800000011920929

[Metadata]
Title:ao to siro no kyoukaisen
Artist:Sound Horizon
Creator:angelkidd
Version:Hard
Source:
Tags:Sound Horizon

[Difficulty]
HPDrainRate:5
CircleSize:5
OverallDifficulty:5
SliderMultiplier:1
SliderTickRate:1

[Events]
//Background and Video events
0,0,"rzssqohxmc.jpg"
//Break Periods
2,73540,92540
//Storyboard Layer 0 (Background)
//Storyboard Layer 1 (Failing)
//Storyboard Layer 2 (Passing)
//Storyboard Layer 3 (Foreground)
//Storyboard Sound Samples
//Background Colour Transformations
3,100,163,162,255

[TimingPoints]
1640,300,4,1,0,100,1,0

[HitObjects]
256,192,4640,12,0,5840
224,128,7340,5,0
352,128,7640,1,0
320,256,7940,1,4
288,256,8090,1,4
256,256,8240,1,4
160,256,8840,1,8
96,160,9440,5,0
224,160,9740,1,0
352,160,10040,1,0
320,256,10340,1,0
224,256,10640,2,0,B|192:288|160:224,2,50
256,96,12140,5,0
192,160,12440,1,0
160,256,12740,1,4
192,256,12890,1,4
224,256,13040,1,4
352,256,13640,1,8
160,192,14540,6,0,B|384:192,2,200
160,64,16940,5,0
160,128,17240,1,0
160,192,17540,1,4
160,224,17690,1,4
160,256,17840,1,4
160,352,18440,1,8
288,352,19340,5,0
288,288,19640,1,0
288,224,19940,1,4
288,192,20090,1,4
288,160,20240,1,4
288,64,20840,1,8
96,128,21740,5,0
160,128,22040,1,0
224,128,22340,1,4
256,128,22490,1,4
288,128,22640,1,4
384,128,23240,1,8
352,256,24140,5,0
288,256,24440,1,0
224,256,24740,1,4
192,256,24890,1,4
160,256,25040,1,4
32,256,25640,1,8
64,192,25940,6,0,B|64:96|128:96,1,100
160,96,26540,1,0
224,96,26840,1,0
288,128,27140,1,4
320,160,27290,1,4
352,192,27440,1,4
416,256,28040,1,8
288,256,28940,5,0
256,192,29240,1,0
224,128,29540,1,4
192,128,29690,1,4
160,128,29840,1,4
64,128,30440,1,8
96,32,31040,5,0
192,32,31340,1,0
288,32,31640,1,0
384,32,31940,1,0
384,96,32240,2,0,B|256:96|256:192|352:192|352:288|224:288,1,300
320,128,33740,5,0
192,128,34040,1,0
224,256,34340,1,4
256,256,34490,1,4
288,256,34640,1,4
256,352,35240,1,8
128,288,35540,5,0
128,224,35840,1,0
128,160,36140,2,2,B|128:-32|352:-32|352:160,1,400
352,160,38240,5,0
352,192,38390,1,0
352,224,38540,2,2,B|352:416|128:416|128:224,1,400
320,288,40340,5,0
256,288,40640,1,0
216,287,40940,2,2,B|32:288|32:64|224:64,1,400
224,64,43040,5,0
256,64,43190,1,0
288,64,43340,2,2,B|480:64|480:288|288:288,1,400
256,32,45140,5,0
160,32,45440,1,0
160,128,45740,1,0
256,128,46040,1,0
352,128,46340,1,0
352,224,46640,2,4,B|352:320,2,50
256,192,48140,5,2
160,288,48440,1,2
256,288,48740,1,2
352,288,49040,1,2
96,160,50240,5,4
128,160,50390,1,4
160,160,50540,1,4
224,160,50840,1,0
320,160,51140,1,0
320,224,51440,2,8,B|320:352|256:352|256:224,2,200
352,160,52940,5,0
160,160,53240,1,0
224,256,53540,1,4
256,288,53690,1,4
288,256,53840,1,4
256,128,54440,1,8
192,192,55340,5,0
320,192,55640,1,0
256,192,55940,1,0
288,128,56240,2,0,B|256:64|224:64|192:128|192:128|256:128,1,200
416,160,57740,5,0
320,160,58040,1,0
224,160,58340,1,4
224,128,58490,1,4
224,96,58640,1,4
128,96,59240,1,8
128,160,59540,6,0,B|128:224|192:224,1,100
256,224,60140,1,0
256,160,60440,1,0
256,96,60740,1,0
256,32,61040,1,0
192,32,61640,6,0,B|96:32|96:192,1,200
160,256,62540,1,0
352,256,62840,1,0
256,224,63140,1,4
256,256,63290,1,4
256,288,63440,1,4
128,256,64340,5,0
128,192,64640,1,0
128,128,64940,2,2,B|128:-64|352:-64|352:128,1,400
352,192,67040,5,0
352,224,67190,2,2,B|352:416|128:416|128:224,1,400
128,192,69140,5,0
192,192,69440,1,0
256,192,69740,1,0
352,192,70340,5,0
384,192,70640,2,4,B|320:128|256:64|192:128|128:192|192:256|256:320|320:256|352:224|352:224|416:160|352:96|288:32|224:96|160:160,1,700
224,160,73040,1,8
320,64,93140,5,0
288,64,93440,1,0
224,64,93740,2,0,B|64:96|64:320|256:320,1,400
256,320,95240,1,8
320,96,95840,5,0
256,96,96140,2,0,B|96:96|96:288|256:288|256:288|256:224|256:224|288:224,1,400
288,224,97640,1,8
160,224,98240,5,0
128,224,98540,2,0,B|160:64|160:64|256:64|256:128|192:160|192:160|224:224|224:224|192:224,1,400
160,224,100040,1,8
128,64,100640,5,0
192,64,100940,2,0,B|320:64,1,100
224,96,101540,2,0,B|224:320,1,200
224,320,102440,1,8
160,32,102740,5,0
224,64,103040,1,0
256,128,103340,1,0
224,192,103640,1,0
224,256,103940,1,4
256,256,104090,1,4
288,256,104240,1,4
384,256,104540,1,8
416,256,104840,1,8
352,224,105440,5,0
288,224,105740,1,0
224,224,106040,1,0
160,224,106340,1,4
128,224,106490,1,4
96,224,106640,1,4
96,128,106940,1,8
96,96,107240,1,8
128,32,107840,5,0
192,64,108140,1,0
192,128,108440,1,0
192,192,108740,1,4
224,192,108890,1,4
256,192,109040,1,4
352,192,109340,1,8
384,192,109640,1,12
128,288,110240,5,0
192,256,110540,1,0
256,224,110840,1,0
320,192,111140,1,4
352,192,111290,1,4
384,192,111440,1,4
384,96,111740,1,8
352,96,112040,1,8
192,64,112340,5,0
192,128,112640,1,0
192,192,112940,2,0,B|256:256|192:320|128:256,2,100
256,192,113840,1,8
256,224,113990,1,8
256,256,114140,1,8
192,320,114440,6,0,B|288:192|384:192,1,200
416,192,115340,1,8
224,64,115640,5,0
256,64,115790,1,0
288,64,115940,1,0
352,64,116240,1,8
416,128,116540,5,0
352,128,116840,1,0
288,128,117140,1,0
224,128,117440,1,0
128,128,117740,1,8
256,192,118340,5,0
256,128,118640,1,0
256,64,118940,1,8
192,64,119540,5,0
192,128,119840,1,0
192,192,120140,1,8
128,192,120740,5,0
128,128,121040,1,0
128,64,121340,1,8
192,192,121940,5,4
256,192,122240,1,4
320,192,122540,1,8
320,128,123140,5,4
256,128,123440,1,4
192,128,123740,1,8
192,192,124340,5,4
256,192,124640,1,4
320,192,124940,1,8
256,192,125540,5,8
256,192,125840,1,8
256,192,126140,1,8
256,192,127340,12,0,133190
