osu file format v14

[General]
AudioFilename: SH - Yoiyami no uta.mp3
AudioLeadIn: 0
PreviewTime: 287153
Countdown: 0
SampleSet: Soft
StackLeniency: 0.5
Mode: 0
LetterboxInBreaks: 0
EpilepsyWarning: 1
WidescreenStoryboard: 0

[Editor]
DistanceSpacing: 2
BeatDivisor: 3
GridSize: 4
TimelineZoom: 2.1

[Metadata]
Title:Yoiyami no Uta
TitleUnicode:宵闇の唄
Artist:Sound Horizon
ArtistUnicode:Sound Horizon
Creator:P A N
Version:Retribution
Source:
Tags:fur Für Elise Ludwig van Beethoven Eine Kleine Nacht Musik Wolfgang Amadeus Mozart Ode to Joy Ludwig van Beethoven Fantasie Impromptu Frédéric François Chopin Pictures at an Exhibition Promenade Modest Mussorgsky 7th Story Märchen Marchen mercury2004
BeatmapID:861889
BeatmapSetID:396118

[Difficulty]
HPDrainRate:7
CircleSize:4.5
OverallDifficulty:8.8
ApproachRate:9.5
SliderMultiplier:1.9
SliderTickRate:1

[Events]
//Background and Video events
0,0,"BG.jpg",0,0
//Break Periods
2,73562,77946
2,378177,382397
2,383452,387672
2,399276,409100
2,430842,432177
2,462572,469760
2,498177,502562
2,601034,604924
//Storyboard Layer 0 (Background)
//Storyboard Layer 1 (Fail)
//Storyboard Layer 2 (Pass)
//Storyboard Layer 3 (Foreground)
//Storyboard Sound Samples

[TimingPoints]
73362,329.67032967033,4,2,1,80,1,0
78636,-200,4,2,1,80,0,0
82427,-133.333333333333,4,2,1,80,0,0
88856,-200,4,2,1,80,0,0
89186,-100,4,2,1,80,0,1
100065,-66.6666666666667,4,2,1,80,0,1
100394,-100,4,2,1,80,0,1
110285,-200,4,2,1,80,0,0
120834,-133.333333333333,4,2,1,80,0,0
131383,-100,4,2,1,80,0,1
141933,-100,4,2,1,80,0,0
142263,-133.333333333333,4,2,1,80,0,0
163032,-100,4,2,1,80,0,0
163362,-80,4,2,1,80,0,0
163691,-100,4,2,2,80,0,0
168307,-80,4,2,1,80,0,0
168636,-100,4,2,2,80,0,0
170944,-100,4,2,1,80,0,0
171274,-100,4,2,2,80,0,0
172263,-100,4,2,1,80,0,0
173581,-133.333333333333,4,2,1,80,0,0
184131,-100,4,2,1,80,0,1
192043,-100,4,2,1,80,0,0
196246,-133.333333333333,4,2,1,80,0,0
197318,-200,4,2,1,80,0,0
197977,-133.333333333333,4,2,1,80,0,0
198636,-100,4,2,1,80,0,0
199296,-80,4,2,1,80,0,0
199955,-80,4,2,1,80,0,1
225010,-80,4,2,1,80,0,0
225175,-133.333333333333,4,2,1,80,0,0
247427,-80,4,2,1,80,0,1
255340,-100,4,2,1,80,0,0
276438,-133.333333333333,4,2,1,80,0,0
285669,-200,4,2,1,80,0,0
286164,-160,4,2,1,80,0,0
286658,-133.333333333333,4,2,1,80,0,0
287153,-121.212121212121,4,2,1,80,0,0
287647,-100,4,2,1,80,0,0
288307,-100,4,2,1,80,0,1
309405,-80,4,2,1,80,0,1
314680,-66.6666666666667,4,2,1,80,0,1
318636,-200,4,2,1,80,0,0
330175,-100,4,2,1,80,0,0
330340,-100,4,2,1,60,0,0
330504,-100,4,2,1,80,0,1
331905,-100,4,2,1,40,0,1
331988,-100,4,2,1,80,0,1
338362,-100,4,2,1,5,0,1
338416,-100,4,2,1,80,0,1
351603,-133.333333333333,4,2,1,80,0,0
351933,-133.333333333333,4,2,2,80,0,0
354241,-133.333333333333,4,2,1,80,0,0
354570,-133.333333333333,4,2,2,80,0,0
356878,-133.333333333333,4,2,1,80,0,0
357208,-133.333333333333,4,2,2,80,0,0
359515,-100,4,2,1,80,0,0
361329,-100,4,2,3,30,0,0
362153,-100,4,2,1,80,0,1
374021,-133.333333333333,4,2,1,80,0,0
388197,-200,4,2,1,70,0,0
388526,-133.333333333333,4,2,1,70,0,0
392482,-100,4,2,1,80,0,0
393471,-133.333333333333,4,2,1,80,0,0
398087,-133.333333333333,4,2,1,40,0,0
413581,-100,4,2,1,80,0,0
413911,-100,4,2,1,40,0,0
414900,-100,4,2,1,80,0,1
430642,-100,4,2,1,80,0,0
437977,-200,4,2,1,80,0,0
438636,-133.333333333333,4,2,1,80,0,0
480999,-133.333333333333,4,2,1,5,0,0
481493,-133.333333333333,4,2,1,80,0,0
481823,-133.333333333333,4,2,1,5,0,0
482318,-133.333333333333,4,2,1,80,0,0
482647,-133.333333333333,4,2,1,5,0,0
483307,-133.333333333333,4,2,1,80,0,0
491219,-80,4,2,1,80,0,1
496658,-133.333333333333,4,2,1,80,0,0
503581,-200,4,2,1,80,0,0
507043,-133.333333333333,4,2,1,80,0,0
513801,-100,4,2,1,80,0,0
514131,-100,4,2,2,80,0,0
519076,-100,4,2,1,80,0,0
519405,-100,4,2,2,80,0,0
521713,-100,4,2,1,80,0,0
522043,-100,4,2,2,80,0,0
523032,-100,4,2,1,80,0,0
524351,-133.333333333333,4,2,1,80,0,0
534900,-100,4,2,1,80,0,1
547015,-133.333333333333,4,2,1,80,0,0
548087,-200,4,2,1,80,0,0
548746,-133.333333333333,4,2,1,80,0,0
549405,-100,4,2,1,80,0,0
550065,-80,4,2,1,80,0,0
550724,-200,4,2,1,80,0,0
551383,-133.333333333333,4,2,1,80,0,0
552043,-100,4,2,1,80,0,0
552702,-80,4,2,1,80,0,0
553362,-80,4,2,1,80,0,1
578416,-133.333333333333,4,2,1,80,0,0
579735,-80,4,2,1,80,0,1
589131,-80,4,2,1,50,0,1
590285,-80,4,2,1,90,0,1
599680,-133.333333333333,4,2,1,80,0,1
600010,-100,4,2,1,80,0,1
600340,-80,4,2,1,80,0,0

[Colours]
Combo1 : 255,117,117
Combo2 : 253,255,170
Combo3 : 0,240,240
Combo4 : 255,125,184
Combo5 : 34,45,172
Combo6 : 255,255,255
Combo7 : 139,139,139
Combo8 : 255,0,0

[HitObjects]
256,192,72702,12,12,73362,0:0:0:0:
398,105,78471,69,8,0:0:0:0:
398,105,78554,1,8,0:0:0:0:
398,105,78636,1,12,0:0:0:0:
315,200,78966,2,0,P|215:214|120:198,2,190
473,35,80779,5,8,0:0:0:0:
289,36,81109,1,8,0:0:0:0:
289,36,82427,2,0,L|230:36,1,35.625001358986,8|8,0:0|0:0,0:0:0:0:
171,95,82592,102,0,L|122:95,3,35.625001358986,8|8|8|8,0:0|0:0|0:0|0:0,0:0:0:0:
255,157,82922,2,0,L|304:157,3,35.625001358986,8|8|8|8,0:0|0:0|0:0|0:0,0:0:0:0:
174,234,83252,1,8,0:0:0:0:
343,234,83416,1,8,0:0:0:0:
343,234,83746,6,0,P|413:244|477:200,1,142.500005435944,4|0,0:0|0:0,0:0:0:0:
406,81,84241,2,0,L|333:84,1,71.2500027179719,2|0,0:0|0:0,0:0:0:0:
183,153,84570,2,0,L|257:157,1,71.2500027179719,2|0,0:0|0:0,0:0:0:0:
343,234,84900,2,0,P|352:269|350:309,1,71.2500027179719,2|0,0:0|0:0,0:0:0:0:
238,357,85230,102,0,P|229:322|230:287,1,71.2500027179719,2|0,0:0|0:0,0:0:0:0:
343,234,85559,2,0,L|422:238,1,71.2500027179719,2|0,0:0|0:0,0:0:0:0:
512,297,85889,1,8,0:0:0:0:
512,84,86054,1,8,0:0:0:0:
512,84,86383,6,0,B|452:85|452:85|430:93|430:93|364:95,1,142.500005435944,4|0,0:0|0:0,0:0:0:0:
265,97,86878,101,8,0:0:0:0:
362,191,87043,1,8,0:0:0:0:
340,23,87208,5,8,0:0:0:0:
281,243,87372,1,8,0:0:0:0:
176,22,87537,101,8,0:0:0:0:
447,148,87702,1,8,0:0:0:0:
257,320,87867,6,0,P|196:336|121:310,1,142.500005435944,4|8,0:0|0:0,0:0:0:0:
88,285,88279,1,8,0:0:0:0:
67,247,88362,1,8,0:0:0:0:
56,205,88444,1,8,0:0:0:0:
54,162,88526,1,8,0:0:0:0:
59,119,88609,1,8,0:0:0:0:
79,81,88691,2,0,L|121:81,1,35.625001358986,8|2,0:0|0:0,0:0:0:0:
264,113,88856,102,0,P|270:148|263:190,1,71.25,8|0,0:0|0:0,0:0:0:0:
186,145,89186,53,6,0:0:0:0:
288,26,89351,1,0,0:0:0:0:
364,163,89515,2,0,L|468:161,1,95,8|0,0:0|0:0,0:0:0:0:
390,22,89845,5,2,0:0:0:0:
264,113,90010,1,2,0:0:0:0:
323,260,90175,2,0,P|372:268|421:255,1,95,8|0,0:0|0:0,0:0:0:0:
470,119,90504,5,2,0:0:0:0:
463,285,90669,1,2,0:0:0:0:
364,163,90834,2,0,P|353:117|363:69,1,95,8|0,0:0|0:0,0:0:0:0:
511,26,91164,85,2,0:0:0:0:
219,30,91329,1,2,0:0:0:0:
362,70,91493,1,8,0:0:0:0:
89,68,91658,6,0,P|43:133|65:239,1,190,4|2,0:0|0:0,0:0:0:0:
242,208,92153,1,8,0:0:0:0:
157,278,92318,1,0,0:0:0:0:
145,176,92482,1,2,0:0:0:0:
253,311,92647,1,2,0:0:0:0:
326,141,92812,5,8,0:0:0:0:
242,208,92977,1,0,0:0:0:0:
340,252,93142,1,2,0:0:0:0:
226,111,93307,1,2,0:0:0:0:
157,278,93471,2,0,P|148:320|162:377,1,95,8|0,0:0|0:0,0:0:0:0:
340,252,93801,85,2,0:0:0:0:
77,254,93966,1,2,0:0:0:0:
340,252,94131,1,8,0:0:0:0:
77,254,94296,6,0,P|46:174|82:78,1,190,4|2,0:0|0:0,0:0:0:0:
295,24,94790,1,8,0:0:0:0:
163,26,94955,1,0,0:0:0:0:
399,144,95120,1,2,0:0:0:0:
397,23,95285,1,2,0:0:0:0:
400,267,95449,2,0,L|401:374,1,95,8|0,0:0|0:0,0:0:0:0:
163,119,95779,5,2,0:0:0:0:
164,249,95944,1,2,0:0:0:0:
295,24,96109,1,8,0:0:0:0:
163,25,96274,1,0,0:0:0:0:
442,23,96438,85,2,0:0:0:0:
441,300,96603,1,2,0:0:0:0:
399,144,96768,1,8,0:0:0:0:
269,346,96933,6,0,P|199:357|111:269,1,190,6|2,0:0|0:0,0:0:0:0:
118,129,97427,1,8,0:0:0:0:
223,241,97592,2,0,L|331:239,1,95,0|2,0:0|0:0,0:0:0:0:
512,150,97922,5,2,0:0:0:0:
441,300,98087,1,8,0:0:0:0:
399,144,98252,1,0,0:0:0:0:
353,268,98416,85,2,0:0:0:0:
241,330,98581,1,2,0:0:0:0:
91,309,98746,1,8,0:0:0:0:
2,187,98911,1,0,0:0:0:0:
47,35,99076,5,8,0:0:0:0:
87,56,99158,1,0,0:0:0:0:
119,91,99241,1,0,0:0:0:0:
138,133,99323,1,0,0:0:0:0:
145,180,99405,1,8,0:0:0:0:
138,226,99488,1,8,0:0:0:0:
118,269,99570,1,8,0:0:0:0:
91,309,99653,1,8,0:0:0:0:
51,331,99735,6,0,L|155:329,1,95,6|0,0:0|0:0,0:0:0:0:
256,187,100065,86,0,B|250:128|250:128|257:117|257:117|255:46,1,142.500005435944,12|0,0:0|0:0,0:0:0:0:
367,180,100394,5,2,0:0:0:0:
256,287,100559,1,2,0:0:0:0:
145,180,100724,2,0,P|134:133|148:82,1,95,8|0,0:0|0:0,0:0:0:0:
301,41,101054,5,2,0:0:0:0:
367,180,101219,1,2,0:0:0:0:
256,287,101383,2,0,P|217:296|162:289,1,95,8|0,0:0|0:0,0:0:0:0:
32,180,101713,85,2,0:0:0:0:
367,180,101878,1,2,0:0:0:0:
145,180,102043,1,8,0:0:0:0:
480,180,102208,6,0,P|506:260|480:360,1,190,4|2,0:0|0:0,0:0:0:0:
257,179,102702,1,8,0:0:0:0:
365,289,102867,1,0,0:0:0:0:
367,180,103032,1,2,0:0:0:0:
256,287,103197,1,2,0:0:0:0:
257,179,103362,5,8,0:0:0:0:
365,289,103526,1,0,0:0:0:0:
142,222,103691,2,0,P|133:176|147:119,1,95,2|2,0:0|0:0,0:0:0:0:
272,14,104021,2,0,P|281:60|267:117,1,95,8|0,0:0|0:0,0:0:0:0:
218,222,104351,85,2,0:0:0:0:
458,222,104515,1,2,0:0:0:0:
218,222,104680,1,8,0:0:0:0:
458,222,104845,6,0,B|466:174|466:174|457:129|457:129|466:82|456:33,1,190,4|2,0:0|0:0,0:0:0:0:
342,16,105340,1,8,0:0:0:0:
228,12,105504,1,0,0:0:0:0:
128,68,105669,1,2,0:0:0:0:
66,164,105834,1,2,0:0:0:0:
82,276,105999,2,0,P|101:317|143:345,1,95,8|0,0:0|0:0,0:0:0:0:
365,237,106329,5,2,0:0:0:0:
342,125,106493,1,2,0:0:0:0:
243,66,106658,1,8,0:0:0:0:
128,68,106823,1,0,0:0:0:0:
31,129,106988,85,2,0:0:0:0:
342,125,107153,1,2,0:0:0:0:
128,68,107318,1,8,0:0:0:0:
418,68,107482,6,0,P|435:133|352:219,1,190,4|2,0:0|0:0,0:0:0:0:
255,106,107977,1,8,0:0:0:0:
217,255,108142,2,0,L|221:362,1,95,0|2,0:0|0:0,0:0:0:0:
342,125,108471,5,2,0:0:0:0:
199,167,108636,1,8,0:0:0:0:
302,265,108801,1,0,0:0:0:0:
327,115,108966,85,8,0:0:0:0:
192,183,109131,1,8,0:0:0:0:
339,298,109296,5,8,0:0:0:0:
220,54,109460,1,8,0:0:0:0:
157,337,109625,5,8,0:0:0:0:
448,172,109790,1,8,0:0:0:0:
141,37,109955,85,8,0:0:0:0:
104,45,110037,1,8,0:0:0:0:
73,67,110120,1,8,0:0:0:0:
56,101,110202,1,8,0:0:0:0:
49,141,110285,6,0,L|53:239,1,95,4|0,0:0|0:0,0:0:0:0:
154,288,110779,1,0,0:0:0:0:
60,347,110944,2,0,P|26:352|-5:347,1,47.5,0|2,0:0|0:0,0:0:0:0:
154,288,111274,2,0,P|188:283|219:288,1,47.5
291,347,111603,5,2,0:0:0:0:
380,283,111768,2,0,P|388:229|377:186,1,95,0|2,0:0|0:0,0:0:0:0:
303,108,112263,1,0,0:0:0:0:
271,213,112427,1,2,0:0:0:0:
412,95,112592,1,8,0:0:0:0:
100,95,112922,85,2,0:0:0:0:
412,95,113252,1,0,0:0:0:0:
345,11,113416,1,0,0:0:0:0:
303,108,113581,2,0,P|295:155|308:208,1,95
493,299,114241,5,2,0:0:0:0:
382,320,114405,2,0,L|285:318,1,95,0|2,0:0|0:0,0:0:0:0:
193,261,114900,1,0,0:0:0:0:
193,368,115065,1,2,0:0:0:0:
290,213,115230,1,8,0:0:0:0:
86,313,115559,5,2,0:0:0:0:
89,91,115889,2,0,P|135:84|183:92,1,95
270,128,116383,1,2,0:0:0:0:
364,119,116548,1,0,0:0:0:0:
443,66,116713,1,0,0:0:0:0:
356,26,116878,85,2,0:0:0:0:
364,119,117043,2,0,L|370:229,1,95,0|2,0:0|0:0,0:0:0:0:
426,289,117537,2,0,P|451:293|480:290,1,47.5
512,151,117867,1,8,0:0:0:0:
339,293,118197,5,2,0:0:0:0:
293,73,118526,1,0,0:0:0:0:
199,57,118691,1,2,0:0:0:0:
105,72,118856,1,0,0:0:0:0:
40,141,119021,1,2,0:0:0:0:
132,162,119186,1,0,0:0:0:0:
105,72,119351,1,0,0:0:0:0:
40,141,119515,5,2,0:0:0:0:
73,230,119680,2,0,P|119:251|173:243,1,95,0|2,0:0|0:0,0:0:0:0:
343,119,120340,1,8,0:0:0:0:
368,336,120669,1,8,0:0:0:0:
279,289,120834,86,0,P|308:254|411:252,1,142.500005435944,4|8,0:0|0:0,0:0:0:0:
368,336,121329,1,0,0:0:0:0:
228,356,121493,2,0,L|155:354,1,71.2500027179719,0|2,0:0|0:0,0:0:0:0:
16,281,121823,2,0,L|94:278,1,71.2500027179719,8|0,0:0|0:0,0:0:0:0:
213,232,122153,5,0,0:0:0:0:
90,199,122318,2,0,P|61:177|46:146,1,71.2500027179719,2|8,0:0|0:0,0:0:0:0:
124,40,122647,2,0,B|183:43|183:43|204:36|204:36|268:39,1,142.500005435944,0|2,0:0|0:0,0:0:0:0:
411,40,123142,1,8,0:0:0:0:
170,140,123471,5,2,0:0:0:0:
402,263,123801,2,0,P|440:244|467:152,1,142.500005435944,8|0,0:0|0:0,0:0:0:0:
372,171,124296,1,2,0:0:0:0:
306,244,124460,2,0,P|305:283|317:314,1,71.2500027179719,8|0,0:0|0:0,0:0:0:0:
372,171,124790,86,0,P|373:132|361:101,1,71.2500027179719,2|0,0:0|0:0,0:0:0:0:
256,47,125120,1,8,0:0:0:0:
196,150,125285,2,0,B|188:203|188:203|202:295,1,142.500005435944,2|2,0:0|0:0,0:0:0:0:
278,377,125779,1,8,0:0:0:0:
65,228,126109,5,2,0:0:0:0:
300,135,126438,2,0,P|352:122|436:164,1,142.500005435944,8|0,0:0|0:0,0:0:0:0:
460,265,126933,1,2,0:0:0:0:
349,288,127098,2,0,L|354:215,1,71.2500027179719,8|0,0:0|0:0,0:0:0:0:
256,306,127427,6,0,L|260:377,1,71.2500027179719,0|2,0:0|0:0,0:0:0:0:
164,305,127757,1,8,0:0:0:0:
241,214,127922,2,0,P|309:230|348:287,1,142.500005435944,2|2,0:0|0:0,0:0:0:0:
256,306,128416,1,8,0:0:0:0:
255,52,128746,85,2,0:0:0:0:
33,187,129076,2,0,P|31:245|100:308,1,142.500005435944,8|0,0:0|0:0,0:0:0:0:
172,214,129570,1,2,0:0:0:0:
256,306,129735,2,0,L|251:381,1,71.2500027179719,8|0,0:0|0:0,0:0:0:0:
375,209,130065,6,0,L|372:132,1,71.2500027179719,0|2,0:0|0:0,0:0:0:0:
255,52,130394,1,8,0:0:0:0:
337,296,130724,2,0,P|379:303|447:277,1,106.875004076958,8|0,0:0|0:0,0:0:0:0:
464,257,131054,1,8,0:0:0:0:
474,223,131136,1,8,0:0:0:0:
474,187,131219,1,8,0:0:0:0:
462,153,131301,1,8,0:0:0:0:
437,128,131383,38,0,L|240:135,1,190,12|8,0:0|0:0,0:0:0:0:
29,177,132043,2,0,P|7:257|62:353,1,190,2|8,0:0|0:0,0:0:0:0:
159,240,132537,1,0,0:0:0:0:
109,111,132702,2,0,P|71:82|13:75,1,95,2|0,0:0|0:0,0:0:0:0:
159,240,133032,2,0,P|197:269|255:276,1,95,8|0,0:0|0:0,0:0:0:0:
387,165,133362,5,2,0:0:0:0:
386,366,133526,1,2,0:0:0:0:
387,165,133691,1,8,0:0:0:0:
386,366,133856,102,0,B|328:373|328:373|275:366|275:366|237:376|192:366,1,190,4|2,0:0|0:0,0:0:0:0:
159,240,134351,1,8,0:0:0:0:
66,334,134515,1,0,0:0:0:0:
68,156,134680,1,2,0:0:0:0:
159,240,134845,1,2,0:0:0:0:
202,117,135010,1,8,0:0:0:0:
65,245,135175,1,0,0:0:0:0:
197,367,135340,6,0,P|239:375|295:362,1,95,2|0,0:0|0:0,0:0:0:0:
406,250,135669,2,0,P|414:205|402:147,1,95,8|0,0:0|0:0,0:0:0:0:
281,56,135999,101,2,0:0:0:0:
280,266,136164,1,2,0:0:0:0:
281,56,136329,1,8,0:0:0:0:
280,266,136493,6,0,P|187:280|110:220,1,190,4|2,0:0|0:0,0:0:0:0:
283,143,136988,2,0,L|384:144,1,95,8|0,0:0|0:0,0:0:0:0:
494,252,137318,1,2,0:0:0:0:
411,122,137482,1,2,0:0:0:0:
359,263,137647,2,0,P|352:310|366:370,1,95,8|0,0:0|0:0,0:0:0:0:
494,252,137977,102,0,P|501:205|487:145,1,95,2|0,0:0|0:0,0:0:0:0:
322,38,138307,2,0,L|224:40,1,95,8|0,0:0|0:0,0:0:0:0:
48,43,138636,5,2,0:0:0:0:
46,247,138801,1,2,0:0:0:0:
48,43,138966,1,8,0:0:0:0:
46,247,139131,102,0,P|74:314|182:335,1,190,4|2,0:0|0:0,0:0:0:0:
284,219,139625,1,8,0:0:0:0:
150,139,139790,2,0,P|141:185|155:239,1,95,0|2,0:0|0:0,0:0:0:0:
281,348,140120,5,2,0:0:0:0:
406,238,140285,2,0,P|415:191|406:144,1,95,8|0,0:0|0:0,0:0:0:0:
214,185,140614,101,0,0:0:0:0:
279,47,140779,1,2,0:0:0:0:
482,187,140944,5,8,0:0:0:0:
417,49,141109,1,2,0:0:0:0:
188,185,141273,101,8,0:0:0:0:
253,47,141438,1,2,0:0:0:0:
512,187,141603,5,12,0:0:0:0:
447,49,141768,1,2,0:0:0:0:
252,331,141933,102,0,P|207:339|146:329,1,95,12|0,0:0|0:0,0:0:0:0:
88,187,142263,54,0,P|94:139|171:85,1,142.500005435944,8|2,0:0|0:0,0:0:0:0:
188,185,142757,1,2,0:0:0:0:
111,270,142922,2,0,P|75:271|38:258,1,71.2500027179719,8|0,0:0|0:0,0:0:0:0:
188,185,143252,6,0,P|224:184|261:197,1,71.2500027179719,2|0,0:0|0:0,0:0:0:0:
323,290,143581,1,8,0:0:0:0:
410,215,143746,2,0,P|425:173|406:72,1,142.500005435944,0|2,0:0|0:0,0:0:0:0:
309,20,144241,1,8,0:0:0:0:
309,137,144405,1,0,0:0:0:0:
309,20,144570,6,0,L|233:22,1,71.2500027179719,2|0,0:0|0:0,0:0:0:0:
150,96,144900,2,0,P|96:119|3:84,1,142.500005435944,8|2,0:0|0:0,0:0:0:0:
82,25,145394,1,2,0:0:0:0:
150,96,145559,2,0,L|143:172,1,71.2500027179719,8|0,0:0|0:0,0:0:0:0:
133,280,145889,85,2,0:0:0:0:
28,289,146054,2,0,P|30:251|51:213,1,71.2500027179719,2|8,0:0|0:0,0:0:0:0:
143,166,146383,2,0,L|288:168,1,142.500005435944,0|2,0:0|0:0,0:0:0:0:
417,167,146878,1,8,0:0:0:0:
292,204,147043,1,0,0:0:0:0:
321,74,147208,5,2,0:0:0:0:
321,74,147537,2,0,P|366:78|399:73,1,71.2500027179719,8|0,0:0|0:0,0:0:0:0:
498,137,147867,2,0,P|494:182|499:215,1,71.2500027179719,2|2,0:0|0:0,0:0:0:0:
500,323,148197,6,0,P|457:291|361:309,1,142.500005435944,8|0,0:0|0:0,0:0:0:0:
265,354,148691,2,0,L|189:352,1,71.2500027179719,2|8,0:0|0:0,0:0:0:0:
79,350,149021,2,0,P|53:298|72:208,1,142.500005435944,2|2,0:0|0:0,0:0:0:0:
142,125,149515,1,8,0:0:0:0:
22,122,149680,1,0,0:0:0:0:
142,125,149845,86,0,L|217:126,1,71.2500027179719,2|0,0:0|0:0,0:0:0:0:
332,112,150175,1,8,0:0:0:0:
225,42,150340,1,0,0:0:0:0:
216,164,150504,2,0,P|212:204|218:240,1,71.2500027179719,0|2,0:0|0:0,0:0:0:0:
309,311,150834,2,0,L|382:309,1,71.2500027179719,8|0,0:0|0:0,0:0:0:0:
471,236,151164,5,0,0:0:0:0:
368,325,151329,2,0,L|296:326,1,71.2500027179719,2|8,0:0|0:0,0:0:0:0:
181,299,151658,2,0,P|114:286|52:327,1,142.500005435944,0|8,0:0|0:0,0:0:0:0:
368,325,152318,1,8,0:0:0:0:
471,236,152482,6,0,P|474:199|470:161,1,71.2500027179719,4|0,0:0|0:0,0:0:0:0:
386,82,152812,2,0,P|327:103|248:65,1,142.500005435944,12|2,0:0|0:0,0:0:0:0:
161,13,153307,1,2,0:0:0:0:
120,121,153471,2,0,L|123:193,1,71.2500027179719,8|0,0:0|0:0,0:0:0:0:
0,162,153801,85,2,0:0:0:0:
124,223,153966,2,0,L|198:219,1,71.2500027179719,2|8,0:0|0:0,0:0:0:0:
301,175,154296,2,0,P|283:258|313:318,1,142.500005435944,2|2,0:0|0:0,0:0:0:0:
418,359,154790,1,8,0:0:0:0:
372,240,154955,1,0,0:0:0:0:
286,335,155120,5,2,0:0:0:0:
286,335,155449,2,0,L|213:334,1,71.2500027179719,8|0,0:0|0:0,0:0:0:0:
49,260,155779,2,0,L|121:258,1,71.2500027179719,2|2,0:0|0:0,0:0:0:0:
241,182,156109,1,8,0:0:0:0:
190,316,156274,1,0,0:0:0:0:
152,179,156438,5,2,0:0:0:0:
264,267,156603,2,0,P|298:272|337:265,1,71.2500027179719,2|8,0:0|0:0,0:0:0:0:
420,175,156933,2,0,B|408:128|408:128|409:23,1,142.500005435944,2|2,0:0|0:0,0:0:0:0:
512,112,157427,1,8,0:0:0:0:
409,3,157592,1,0,0:0:0:0:
317,112,157757,86,0,P|301:174|328:261,1,142.500005435944,4|8,0:0|0:0,0:0:0:0:
449,255,158252,1,0,0:0:0:0:
361,346,158416,2,0,P|326:353|290:347,1,71.2500027179719,2|2,0:0|0:0,0:0:0:0:
219,247,158746,2,0,L|222:174,1,71.2500027179719,8|0,0:0|0:0,0:0:0:0:
229,53,159076,5,2,0:0:0:0:
120,104,159241,2,0,P|115:142|124:181,1,71.2500027179719,2|8,0:0|0:0,0:0:0:0:
219,247,159570,2,0,B|268:245|268:245|308:256|308:256|363:253,1,142.500005435944,2|2,0:0|0:0,0:0:0:0:
498,267,160065,1,8,0:0:0:0:
385,319,160230,1,0,0:0:0:0:
389,191,160394,5,2,0:0:0:0:
389,191,160724,2,0,L|392:116,1,71.2500027179719,8|0,0:0|0:0,0:0:0:0:
299,18,161054,2,0,L|303:92,1,71.2500027179719,2|2,0:0|0:0,0:0:0:0:
212,189,161383,2,0,L|215:114,1,71.2500027179719,8|0,0:0|0:0,0:0:0:0:
128,20,161713,85,2,0:0:0:0:
41,121,161878,2,0,P|38:159|43:198,1,71.2500027179719,0|8,0:0|0:0,0:0:0:0:
120,291,162208,1,2,0:0:0:0:
120,291,162290,1,2,0:0:0:0:
120,291,162372,1,8,0:0:0:0:
212,189,162537,1,0,0:0:0:0:
212,189,162620,1,0,0:0:0:0:
212,189,162702,1,8,0:0:0:0:
302,291,162867,2,0,L|302:328,1,35.625001358986
361,225,163032,6,0,P|413:210|494:252,1,142.5,4|0,0:0|0:0,0:0:0:0:
503,272,163362,6,0,L|508:153,1,118.75,12|0,0:0|0:0,0:0:0:0:
386,51,163691,86,0,P|340:44|285:52,1,95,6|0,0:0|0:0,0:0:0:0:
212,189,164021,2,0,P|258:196|313:188,1,95,12|0,0:0|0:0,0:0:0:0:
411,59,164351,5,6,0:0:0:0:
406,235,164515,2,0,L|403:342,1,95,0|12,0:0|0:0,0:0:0:0:
212,189,164845,2,0,L|215:82,2,95,0|6|0,0:0|0:0|0:0,0:0:0:0:
122,329,165340,2,0,P|74:337|18:326,1,95,12|0,0:0|0:0,0:0:0:0:
78,170,165669,5,6,0:0:0:0:
192,288,165834,1,0,0:0:0:0:
63,178,165999,2,0,P|52:132|63:77,1,95,12|0,0:0|0:0,0:0:0:0:
229,24,166329,2,0,L|331:28,1,95,6|0,0:0|0:0,0:0:0:0:
497,105,166658,1,12,0:0:0:0:
318,135,166823,1,0,0:0:0:0:
435,11,166988,85,6,0:0:0:0:
415,181,167153,2,0,P|411:226|418:283,1,95,2|12,0:0|0:0,0:0:0:0:
270,323,167482,2,0,P|225:317|174:323,2,95,2|4|2,0:0|0:0|0:0,0:0:0:0:
418,368,167977,1,12,0:0:0:0:
418,368,168307,6,0,L|424:235,1,118.75,12|0,0:0|0:0,0:0:0:0:
292,105,168636,6,0,L|296:208,1,95,12|0,0:0|0:0,0:0:0:0:
326,29,168966,2,0,P|278:23|226:47,1,95,4|2,0:0|0:0,0:0:0:0:
172,178,169296,1,12,0:0:0:0:
64,70,169460,1,0,0:0:0:0:
213,33,169625,85,4,0:0:0:0:
97,149,169790,2,0,P|96:197|126:245,1,95,2|12,0:0|0:0,0:0:0:0:
287,284,170120,2,0,L|386:279,2,95,0|4|2,0:0|0:0|0:0,0:0:0:0:
120,322,170614,1,12,0:0:0:0:
120,322,170944,6,0,L|325:315,1,190,4|12,0:0|0:0,0:0:0:0:
468,258,171438,1,0,0:0:0:0:
295,210,171603,2,0,P|253:196|221:153,1,95,4|2,0:0|0:0,0:0:0:0:
359,51,171933,1,12,0:0:0:0:
390,213,172098,1,0,0:0:0:0:
390,213,172180,1,0,0:0:0:0:
390,213,172263,6,0,L|387:360,1,142.5,4|0,0:0|0:0,0:0:0:0:
410,347,172592,2,0,P|353:366|266:334,1,142.5,12|0,0:0|0:0,0:0:0:0:
257,320,172922,1,12,0:0:0:0:
225,149,173087,1,8,0:0:0:0:
91,259,173252,1,12,0:0:0:0:
91,259,173581,6,0,P|72:196|98:112,1,142.500005435944,4|2,0:0|0:1,0:0:0:0:
177,34,174076,1,0,0:0:0:0:
225,149,174241,2,0,P|295:168|365:145,1,142.500005435944,12|2,0:0|0:1,0:0:0:0:
454,29,174900,85,12,0:0:0:0:
495,127,175065,1,8,0:0:0:0:
483,233,175230,1,2,0:1:0:0:
421,319,175394,1,0,0:0:0:0:
317,345,175559,2,0,L|175:341,1,142.500005435944,12|2,0:0|0:0,0:0:0:0:
145,340,175971,1,2,0:0:0:0:
116,339,176054,1,2,0:0:0:0:
87,338,176136,1,2,0:0:0:0:
58,338,176219,22,0,P|43:298|60:195,1,142.500005435944,4|2,0:0|0:1,0:0:0:0:
152,125,176713,1,0,0:0:0:0:
243,205,176878,2,0,L|237:287,1,71.2500027179719,12|0,0:0|0:0,0:0:0:0:
152,125,177208,2,0,L|159:48,1,71.2500027179719,2|0,0:1|0:0,0:0:0:0:
300,17,177537,86,0,P|336:27|365:52,1,71.2500027179719,4|8,0:0|0:0,0:0:0:0:
422,136,177867,1,2,0:1:0:0:
413,242,178032,1,0,0:0:0:0:
509,195,178197,1,12,0:0:0:0:
422,136,178362,1,2,0:0:0:0:
400,136,178444,1,2,0:0:0:0:
378,136,178526,1,2,0:0:0:0:
356,136,178609,1,2,0:0:0:0:
334,137,178691,1,2,0:0:0:0:
312,138,178774,1,2,0:0:0:0:
290,139,178856,22,0,P|274:210|295:279,1,142.500005435944,4|2,0:0|0:1,0:0:0:0:
404,330,179351,1,0,0:0:0:0:
509,265,179515,2,0,P|513:232|507:189,1,71.2500027179719,12|0,0:0|0:0,0:0:0:0:
439,87,179845,2,0,L|365:88,1,71.2500027179719,2|0,0:1|0:0,0:0:0:0:
257,28,180175,85,12,0:0:0:0:
205,121,180340,1,8,0:0:0:0:
201,227,180504,1,2,0:1:0:0:
243,325,180669,1,0,0:0:0:0:
338,373,180834,2,0,L|422:371,1,71.2500027179719,12|0,0:0|0:0,0:0:0:0:
493,369,181081,1,0,0:0:0:0:
493,369,181164,1,12,0:0:0:0:
433,160,181493,22,0,P|371:171|322:234,1,142.500005435944,4|8,0:0|0:0,0:0:0:0:
511,202,181988,2,0,P|518:159|464:74,1,142.500005435944,4|0,0:0|0:0,0:0:0:0:
355,28,182482,1,8,0:0:0:0:
275,119,182647,1,0,0:0:0:0:
275,119,182730,1,0,0:0:0:0:
275,119,182812,86,0,P|235:123|194:118,1,71.2500027179719
100,73,183142,2,0,B|109:111|109:111|104:192,1,106.875004076958,12|0,0:0|0:0,0:0:0:0:
91,194,183471,2,0,L|217:194,1,106.875004076958,4|0,0:0|0:0,0:0:0:0:
217,205,183801,2,0,L|343:205,1,106.875004076958,4|0,0:0|0:0,0:0:0:0:
348,214,184131,21,4,0:0:0:0:
473,111,184296,1,2,0:0:0:0:
473,111,184378,1,2,0:0:0:0:
473,111,184460,2,0,L|468:215,1,95,12|0,0:0|0:0,0:0:0:0:
463,351,184790,1,0,0:0:0:0:
348,214,184955,1,2,0:0:0:0:
348,214,185037,1,2,0:0:0:0:
348,214,185120,2,0,P|338:163|349:112,1,95,12|2,0:0|0:0,0:0:0:0:
402,54,185367,1,2,0:0:0:0:
402,54,185449,69,2,0:0:0:0:
261,134,185614,1,0,0:0:0:0:
100,123,185779,1,12,0:0:0:0:
0,20,185944,1,0,0:0:0:0:
87,137,186109,2,0,P|94:182|86:239,1,95,0|2,0:0|0:0,0:0:0:0:
36,296,186356,1,2,0:0:0:0:
36,296,186438,1,12,0:0:0:0:
3,124,186603,1,2,0:0:0:0:
3,124,186686,1,2,0:0:0:0:
3,124,186768,22,0,P|22:79|64:54,1,95
172,163,187098,1,12,0:0:0:0:
224,22,187263,1,0,0:0:0:0:
321,141,187427,2,0,P|331:186|321:243,1,95,0|2,0:0|0:0,0:0:0:0:
271,300,187675,1,2,0:0:0:0:
271,300,187757,2,0,L|171:298,1,95,12|0,0:0|0:0,0:0:0:0:
287,123,188087,53,0,0:0:0:0:
362,316,188252,1,2,0:0:0:0:
362,316,188334,1,2,0:0:0:0:
362,316,188416,1,12,0:0:0:0:
196,196,188581,1,0,0:0:0:0:
405,202,188746,1,0,0:0:0:0:
225,313,188911,1,2,0:0:0:0:
225,313,188993,1,2,0:0:0:0:
225,313,189076,1,12,0:0:0:0:
198,113,189241,1,2,0:0:0:0:
198,113,189323,1,2,0:0:0:0:
198,113,189405,6,0,P|189:63|200:12,1,95,4|0,0:0|0:0,0:0:0:0:
273,150,189735,2,0,P|241:185|196:196,1,95,12|0,0:0|0:0,0:0:0:0:
50,118,190065,2,0,L|54:216,1,95,0|2,0:0|0:0,0:0:0:0:
59,298,190312,1,2,0:0:0:0:
59,298,190394,2,0,P|104:304|156:294,1,95,12|0,0:0|0:0,0:0:0:0:
273,150,190724,102,0,B|273:10|273:10|293:57,1,190,0|12,0:0|0:0,0:0:0:0:
455,100,191219,2,0,P|461:54|452:6,1,95
293,57,191548,1,0,0:0:0:0:
420,172,191713,1,12,0:0:0:0:
312,44,191878,1,0,0:0:0:0:
246,188,192043,6,0,P|238:238|253:290,1,95,12|2,0:0|0:0,0:0:0:0:
304,344,192290,1,2,0:0:0:0:
304,344,192372,1,8,0:0:0:0:
467,239,192537,1,12,0:0:0:0:
467,239,192867,101,2,0:0:0:0:
158,238,193032,1,12,0:0:0:0:
158,238,193362,6,0,P|147:192|162:133,1,95,12|2,0:0|0:0,0:0:0:0:
208,79,193609,1,2,0:0:0:0:
208,79,193691,1,8,0:0:0:0:
206,331,193856,1,12,0:0:0:0:
206,331,194186,101,2,0:0:0:0:
507,332,194351,1,12,0:0:0:0:
507,332,194680,6,0,L|502:234,1,95,12|2,0:0|0:0,0:0:0:0:
499,153,194927,1,2,0:0:0:0:
499,153,195010,1,8,0:0:0:0:
209,153,195175,1,12,0:0:0:0:
209,153,195504,101,12,0:0:0:0:
468,157,195669,2,0,L|521:155,1,47.5,12|0,0:0|0:0,0:0:0:0:
339,62,195834,2,0,L|339:13,1,47.5
209,153,195999,5,12,0:0:0:0:
110,329,196246,2,0,P|75:314|50:282,1,71.2500027179719
9,202,196576,2,0,P|-1:167|4:125,1,71.2500027179719
3,38,196905,1,0,0:0:0:0:
3,38,196988,1,0,0:0:0:0:
420,40,197318,6,0,L|423:104,1,47.5,12|0,0:0|0:0,0:0:0:0:
426,209,197647,1,2,0:0:0:0:
426,209,197812,1,8,0:0:0:0:
310,44,197977,6,0,L|316:133,1,71.2500027179719,12|0,0:0|0:0,0:0:0:0:
320,257,198307,1,2,0:0:0:0:
320,257,198471,1,8,0:0:0:0:
203,43,198636,6,0,L|207:144,1,95,12|0,0:0|0:0,0:0:0:0:
214,311,198966,1,2,0:0:0:0:
214,311,199131,1,8,0:0:0:0:
83,43,199296,86,0,L|89:181,1,118.75,12|0,0:0|0:0,0:0:0:0:
214,311,199625,2,0,P|299:335|392:303,1,178.125,4|0,0:0|0:0,0:0:0:0:
401,321,199955,6,0,L|398:200,1,118.75,4|8,0:0|0:0,0:0:0:0:
388,13,200285,1,4,0:0:0:0:
305,181,200449,1,8,0:0:0:0:
487,180,200614,1,4,0:0:0:0:
290,164,200779,1,8,0:0:0:0:
499,163,200944,2,0,P|512:106|497:45,1,118.75,0|8,0:0|0:0,0:0:0:0:
401,321,201274,5,4,0:0:0:0:
261,353,201438,1,8,0:0:0:0:
124,312,201603,1,4,0:0:0:0:
36,198,201768,1,8,0:0:0:0:
263,9,201933,85,4,0:0:0:0:
351,149,202098,1,8,0:0:0:0:
294,303,202263,1,0,0:0:0:0:
138,353,202427,1,8,0:0:0:0:
2,259,202592,6,0,P|-11:201|7:136,1,118.75,4|8,0:0|0:0,0:0:0:0:
113,21,202922,1,4,0:0:0:0:
169,176,203087,1,8,0:0:0:0:
3,115,203252,1,4,0:0:0:0:
140,20,203416,2,0,P|190:10|260:24,1,118.75,8|0,0:0|0:0,0:0:0:0:
340,144,203746,6,0,L|334:272,1,118.75,8|0,0:0|0:0,0:0:0:0:
512,239,204076,1,8,0:0:0:0:
381,358,204241,2,0,P|325:366|266:344,1,118.75,0|8,0:0|0:0,0:0:0:0:
91,291,204570,1,0,0:0:0:0:
271,231,204735,1,8,0:0:0:0:
159,379,204900,1,0,0:0:0:0:
160,194,205065,1,8,0:0:0:0:
160,194,205147,1,0,0:0:0:0:
160,194,205230,86,0,L|160:75,1,118.75,12|8,0:0|0:0,0:0:0:0:
357,18,205559,2,0,L|357:142,1,118.75,0|8,0:0|0:0,0:0:0:0:
357,306,205889,2,0,P|413:317|479:298,1,118.75,0|8,0:0|0:0,0:0:0:0:
234,252,206219,2,0,P|223:308|242:374,1,118.75,0|8,0:0|0:0,0:0:0:0:
488,187,206548,5,4,0:0:0:0:
416,63,206713,1,8,0:0:0:0:
277,27,206878,1,0,0:0:0:0:
138,62,207043,1,8,0:0:0:0:
44,169,207208,2,0,L|48:290,1,118.75,0|8,0:0|0:0,0:0:0:0:
226,352,207537,2,0,P|286:365|347:346,1,118.75,0|8,0:0|0:0,0:0:0:0:
472,216,207867,5,4,0:0:0:0:
416,63,208032,1,8,0:0:0:0:
276,151,208197,2,0,P|265:213|280:272,2,118.75,0|8|0,0:0|0:0|0:0,0:0:0:0:
458,63,208691,1,8,0:0:0:0:
354,212,208856,1,0,0:0:0:0:
245,66,209021,86,0,L|126:63,1,118.75,8|0,0:0|0:0,0:0:0:0:
0,204,209351,1,8,0:0:0:0:
98,42,209515,1,0,0:0:0:0:
187,202,209680,2,0,P|196:260|187:322,1,118.75,8|0,0:0|0:0,0:0:0:0:
77,160,210010,1,8,0:0:0:0:
245,66,210175,1,8,0:0:0:0:
289,49,210257,1,8,0:0:0:0:
336,44,210340,1,8,0:0:0:0:
383,48,210422,1,8,0:0:0:0:
425,67,210504,5,4,0:0:0:0:
336,216,210669,1,8,0:0:0:0:
512,126,210834,1,4,0:0:0:0:
337,125,210999,1,8,0:0:0:0:
511,217,211164,1,4,0:0:0:0:
339,315,211329,1,8,0:0:0:0:
187,202,211493,2,0,P|172:147|191:82,1,118.75,0|8,0:0|0:0,0:0:0:0:
431,208,211823,5,4,0:0:0:0:
339,315,211988,1,8,0:0:0:0:
201,353,212153,1,4,0:0:0:0:
62,320,212318,1,8,0:0:0:0:
65,45,212482,85,4,0:0:0:0:
240,21,212647,1,8,0:0:0:0:
388,115,212812,1,0,0:0:0:0:
433,285,212977,1,8,0:0:0:0:
489,119,213142,5,4,0:0:0:0:
341,231,213307,1,8,0:0:0:0:
512,294,213471,1,4,0:0:0:0:
341,231,213636,1,8,0:0:0:0:
512,137,213801,1,4,0:0:0:0:
402,308,213966,2,0,P|348:322|281:310,1,118.75,8|0,0:0|0:0,0:0:0:0:
234,139,214296,6,0,L|240:15,1,118.75,8|0,0:0|0:0,0:0:0:0:
56,14,214625,1,8,0:0:0:0:
0,175,214790,2,0,P|-11:236|7:297,1,118.75,0|8,0:0|0:0,0:0:0:0:
182,353,215120,2,0,L|307:351,1,118.75,0|8,0:0|0:0,0:0:0:0:
416,194,215449,1,4,0:0:0:0:
234,139,215614,1,8,0:0:0:0:
234,139,215697,1,0,0:0:0:0:
234,139,215779,86,0,P|174:127|111:143,1,118.75,4|8,0:0|0:0,0:0:0:0:
182,353,216109,2,0,P|243:363|307:347,1,118.75,0|8,0:0|0:0,0:0:0:0:
416,194,216438,2,0,L|417:74,1,118.75,0|8,0:0|0:0,0:0:0:0:
178,238,216768,2,0,P|167:297|182:354,1,118.75,0|8,0:0|0:0,0:0:0:0:
392,357,217098,5,4,0:0:0:0:
509,205,217263,1,8,0:0:0:0:
316,142,217427,2,0,P|303:207|325:267,1,118.75,0|8,0:0|0:0,0:0:0:0:
373,29,217757,2,0,P|319:15|256:28,1,118.75,0|8,0:0|0:0,0:0:0:0:
46,75,218087,2,0,P|32:127|50:197,1,118.75,0|8,0:0|0:0,0:0:0:0:
235,261,218416,5,4,0:0:0:0:
121,131,218581,1,8,0:0:0:0:
122,306,218746,1,0,0:0:0:0:
237,172,218911,2,0,P|293:159|352:171,1,118.75,8|0,0:0|0:0,0:0:0:0:
440,322,219241,1,8,0:0:0:0:
459,150,219405,1,0,0:0:0:0:
342,280,219570,1,8,0:0:0:0:
512,243,219735,21,4,0:0:0:0:
512,243,219900,1,0,0:0:0:0:
440,322,220065,1,4,0:0:0:0:
342,280,220230,1,0,0:0:0:0:
342,280,220312,1,8,0:0:0:0:
342,280,220394,1,4,0:0:0:0:
440,322,220559,1,0,0:0:0:0:
440,53,220724,1,6,0:0:0:0:
395,35,220807,1,2,0:0:0:0:
348,27,220889,1,2,0:0:0:0:
301,32,220971,1,2,0:0:0:0:
256,48,221054,53,4,0:0:0:0:
55,204,221219,2,0,P|44:255|60:325,1,118.75,12|0,0:0|0:0,0:0:0:0:
140,359,221466,1,0,0:0:0:0:
140,359,221548,2,0,P|202:347|265:362,1,118.75,12|0,0:0|0:0,0:0:0:0:
417,233,221878,2,0,B|427:174|427:174|416:112,1,118.75,12|0,0:0|0:0,0:0:0:0:
344,64,222125,1,0,0:0:0:0:
344,64,222208,2,0,P|287:52|222:65,1,118.75,12|0,0:0|0:0,0:0:0:0:
55,204,222537,6,0,P|112:216|177:203,1,118.75,12|0,0:0|0:0,0:0:0:0:
246,159,222785,1,0,0:0:0:0:
246,159,222867,2,0,L|237:288,1,118.75,12|0,0:0|0:0,0:0:0:0:
421,351,223197,2,0,L|416:229,1,118.75,12|0,0:0|0:0,0:0:0:0:
465,157,223444,1,0,0:0:0:0:
465,157,223526,2,0,L|473:35,1,118.75,12|0,0:0|0:0,0:0:0:0:
246,159,223856,6,0,P|234:222|251:280,1,118.75,12|0,0:0|0:0,0:0:0:0:
382,163,224186,1,12,0:0:0:0:
262,38,224351,2,0,P|187:13|86:42,1,178.125,0|8,0:0|0:0,0:0:0:0:
41,93,224680,2,0,B|22:178|22:178|43:276,1,178.125,2|12,0:0|0:0,0:0:0:0:
68,338,225010,37,2,0:0:0:0:
198,329,225175,2,0,L|273:325,1,71.2500027179719
317,162,225504,2,0,L|245:158,1,71.2500027179719
362,322,225834,1,0,0:0:0:0:
362,322,225916,1,0,0:0:0:0:
362,322,225999,1,8,0:0:0:0:
409,172,226164,1,0,0:0:0:0:
283,277,226329,102,0,L|211:280,1,71.2500027179719,4|2,0:0|0:0,0:0:0:0:
113,211,226658,2,0,P|94:142|121:68,1,142.500005435944,8|0,0:0|0:0,0:0:0:0:
228,45,227153,1,2,0:0:0:0:
284,142,227318,6,0,P|303:211|276:285,1,142.500005435944,8|0,0:0|0:0,0:0:0:0:
63,363,227977,1,8,0:0:0:0:
158,307,228142,2,0,L|304:312,1,142.500005435944,2|2,0:0|0:0,0:0:0:0:
415,316,228636,1,8,0:0:0:0:
472,90,228966,102,0,P|428:120|334:106,1,142.500005435944,2|8,0:0|0:0,0:0:0:0:
254,34,229460,2,0,L|260:188,1,142.500005435944,2|2,0:0|0:0,0:0:0:0:
286,291,229955,6,0,P|347:278|418:320,1,142.500005435944,8|0,0:0|0:0,0:0:0:0:
340,372,230449,1,2,0:0:0:0:
209,328,230614,2,0,P|202:297|211:249,1,71.2500027179719,8|2,0:0|0:0,0:0:0:0:
282,166,230944,2,0,L|355:168,1,71.2500027179719
441,170,231191,1,0,0:0:0:0:
441,170,231274,1,12,0:0:0:0:
260,47,231603,102,0,L|104:52,1,142.500005435944,4|8,0:0|0:0,0:0:0:0:
112,255,232263,1,2,0:0:0:0:
16,193,232427,1,2,0:0:0:0:
11,307,232592,6,0,P|50:354|140:364,1,142.500005435944,8|0,0:0|0:0,0:0:0:0:
230,317,233087,1,2,0:0:0:0:
333,365,233252,1,8,0:0:0:0:
436,317,233416,2,0,B|447:264|447:264|441:174,1,142.500005435944,2|2,0:0|0:0,0:0:0:0:
431,61,233911,1,8,0:0:0:0:
226,161,234241,102,0,P|291:169|357:117,1,142.500005435944,2|8,0:0|0:0,0:0:0:0:
142,34,234900,1,2,0:0:0:0:
98,139,235065,1,2,0:0:0:0:
48,241,235230,6,0,L|53:385,1,142.500005435944,8|0,0:0|0:0,0:0:0:0:
10,156,235889,1,8,0:0:0:0:
188,297,236219,1,2,0:0:0:0:
221,308,236301,1,2,0:0:0:0:
256,311,236383,1,2,0:0:0:0:
291,308,236466,1,2,0:0:0:0:
325,299,236548,1,2,0:0:0:0:
356,281,236631,1,2,0:0:0:0:
381,255,236713,1,2,0:0:0:0:
399,224,236796,1,2,0:0:0:0:
404,188,236878,101,4,0:0:0:0:
333,98,237043,1,0,0:0:0:0:
265,189,237208,2,0,P|262:223|268:267,1,71.2500027179719,12|0,0:0|0:0,0:0:0:0:
333,98,237537,5,2,0:0:0:0:
404,188,237702,1,2,0:0:0:0:
475,98,237867,2,0,P|478:64|472:20,1,71.2500027179719,8|0,0:0|0:0,0:0:0:0:
360,11,238197,102,0,L|211:15,1,142.500005435944,2|8,0:0|0:0,0:0:0:0:
138,97,238691,2,0,P|67:100|13:41,1,142.500005435944,0|2,0:0|0:0,0:0:0:0:
102,11,239186,1,8,0:0:0:0:
181,224,239515,6,0,L|174:370,1,142.500005435944,2|8,0:0|0:0,0:0:0:0:
66,327,240010,2,0,P|51:259|73:184,1,142.500005435944,2|2,0:0|0:0,0:0:0:0:
138,97,240504,2,0,B|185:103|185:103|234:94|234:94|289:100,1,142.500005435944,8|0,0:0|0:0,0:0:0:0:
480,207,241164,102,0,L|478:282,1,71.2500027179719,8|2,0:0|0:0,0:0:0:0:
401,367,241493,2,0,L|391:289,1,71.2500027179719
379,206,241741,1,0,0:0:0:0:
379,206,241823,1,12,0:0:0:0:
150,214,242153,6,0,P|177:260|268:274,1,142.500005435944,6|8,0:0|0:0,0:0:0:0:
426,102,242812,1,2,0:0:0:0:
379,206,242977,1,2,0:0:0:0:
302,121,243142,102,0,L|143:125,1,142.500005435944,8|0,0:0|0:0,0:0:0:0:
61,182,243636,1,2,0:0:0:0:
59,67,243801,1,8,0:0:0:0:
149,137,243966,2,0,P|165:197|145:280,1,142.500005435944,2|2,0:0|0:0,0:0:0:0:
79,365,244460,1,8,0:0:0:0:
79,365,244790,6,0,L|231:359,1,142.500005435944,4|8,0:0|0:0,0:0:0:0:
371,187,245449,1,2,0:0:0:0:
434,281,245614,1,2,0:0:0:0:
497,186,245779,2,0,P|500:151|495:114,1,71.2500027179719,8|0,0:0|0:0,0:0:0:0:
407,41,246109,101,8,0:0:0:0:
407,41,246274,1,8,0:0:0:0:
315,109,246438,2,8,P|255:125|173:110,1,142.500005435944
152,94,247098,1,2,0:0:0:0:
155,129,247180,1,2,0:0:0:0:
158,164,247263,1,2,0:0:0:0:
161,199,247345,1,2,0:0:0:0:
165,237,247427,6,0,L|151:359,1,118.75,12|0,0:0|0:0,0:0:0:0:
27,363,247757,1,2,0:0:0:0:
315,109,247922,102,0,P|368:98|435:112,1,118.75,12|0,0:0|0:0,0:0:0:0:
506,210,248252,1,2,0:0:0:0:
68,144,248416,6,0,P|54:88|70:24,1,118.75,12|0,0:0|0:0,0:0:0:0:
201,240,248746,101,8,0:0:0:0:
312,148,248911,1,12,0:0:0:0:
256,306,249076,5,8,0:0:0:0:
256,78,249241,1,8,0:0:0:0:
429,205,249405,101,12,0:0:0:0:
83,179,249570,1,0,0:0:0:0:
83,179,249653,1,2,0:0:0:0:
83,179,249735,5,12,0:0:0:0:
364,372,249900,1,8,0:0:0:0:
430,24,250065,102,0,L|297:23,1,118.75,12|0,0:0|0:0,0:0:0:0:
83,179,250394,1,8,0:0:0:0:
83,179,250477,1,0,0:0:0:0:
83,179,250559,6,0,P|72:242|91:305,1,118.75,12|0,0:0|0:0,0:0:0:0:
426,294,250889,1,2,0:0:0:0:
426,294,250972,1,2,0:0:0:0:
426,294,251054,102,0,P|440:236|428:178,1,118.75,12|0,0:0|0:0,0:0:0:0:
401,126,251301,1,8,0:0:0:0:
355,88,251383,1,8,0:0:0:0:
296,74,251466,1,8,0:0:0:0:
238,85,251548,5,12,0:0:0:0:
326,311,251713,1,2,0:0:0:0:
495,117,251878,1,0,0:0:0:0:
215,110,252043,101,12,0:0:0:0:
360,309,252208,1,2,0:0:0:0:
360,309,252290,1,2,0:0:0:0:
360,309,252372,1,2,0:0:0:0:
472,84,252537,1,2,0:0:0:0:
196,137,252702,6,0,P|183:198|200:258,1,118.75,12|8,0:0|0:0,0:0:0:0:
243,288,252949,1,8,0:0:0:0:
301,299,253032,1,8,0:0:0:0:
358,285,253114,1,8,0:0:0:0:
406,250,253197,102,0,P|419:192|406:135,1,118.75,12|8,0:0|0:0,0:0:0:0:
359,98,253444,1,8,0:0:0:0:
301,85,253526,1,8,0:0:0:0:
243,101,253609,1,8,0:0:0:0:
196,137,253691,6,0,P|134:150|74:137,1,118.75,12|8,0:0|0:0,0:0:0:0:
40,95,253938,1,8,0:0:0:0:
61,150,254021,1,8,0:0:0:0:
58,208,254103,1,8,0:0:0:0:
41,265,254186,6,0,P|28:325|43:381,1,118.75,12|8,0:0|0:0,0:0:0:0:
102,377,254433,1,8,0:0:0:0:
161,375,254515,1,8,0:0:0:0:
220,373,254598,1,8,0:0:0:0:
279,371,254680,6,0,L|400:376,1,118.75,12|8,0:0|0:0,0:0:0:0:
445,340,254927,1,8,0:0:0:0:
470,286,255010,1,8,0:0:0:0:
479,227,255092,1,8,0:0:0:0:
474,167,255175,1,8,0:0:0:0:
447,113,255257,1,8,0:0:0:0:
405,75,255340,102,0,P|352:52|234:97,1,190,4|8,0:0|0:0,0:0:0:0:
203,261,255834,1,0,0:0:0:0:
329,146,255999,1,2,0:0:0:0:
156,168,256164,1,2,0:0:0:0:
306,248,256329,1,8,0:0:0:0:
234,96,256493,1,0,0:0:0:0:
203,261,256658,5,2,0:0:0:0:
329,146,256823,2,0,P|342:99|328:44,1,95,2|8,0:0|0:0,0:0:0:0:
239,182,257153,2,0,P|284:232|408:209,1,190,2|2,0:0|0:0,0:0:0:0:
486,80,257647,1,8,0:0:0:0:
489,354,257977,5,2,0:0:0:0:
486,80,258307,2,0,L|292:81,1,190,8|2,0:0|0:0,0:0:0:0:
155,25,258801,1,2,0:0:0:0:
171,166,258966,1,8,0:0:0:0:
286,56,259131,1,0,0:0:0:0:
92,121,259296,6,0,P|84:174|96:220,1,95,2|0,0:0|0:0,0:0:0:0:
206,313,259625,1,8,0:0:0:0:
332,222,259790,2,0,P|263:161|170:165,1,190,2|2,0:0|0:0,0:0:0:0:
206,313,260285,2,0,L|310:310,1,95,8|0,0:0|0:0,0:0:0:0:
480,304,260614,5,0,0:0:0:0:
412,50,260944,1,8,0:0:0:0:
328,124,261109,2,0,P|376:155|502:119,1,190,0|2,0:0|0:0,0:0:0:0:
324,22,261603,2,0,P|278:30|239:73,1,95,8|0,0:0|0:0,0:0:0:0:
257,215,261933,85,0,0:0:0:0:
146,110,262098,2,0,P|136:64|149:9,1,95,0|8,0:0|0:0,0:0:0:0:
328,124,262427,2,0,P|360:197|331:303,1,190,2|2,0:0|0:0,0:0:0:0:
166,362,262922,1,8,0:0:0:0:
0,308,263087,1,0,0:0:0:0:
0,308,263169,1,0,0:0:0:0:
0,308,263252,5,0,0:0:0:0:
4,24,263581,2,0,B|47:31|47:31|88:20|88:20|132:35|197:19,1,190,8|0,0:0|0:0,0:0:0:0:
355,20,264076,1,2,0:0:0:0:
432,164,264241,2,0,P|439:210|431:257,1,95,8|0,0:0|0:0,0:0:0:0:
261,260,264570,6,0,P|253:213|261:166,1,95,0|2,0:0|0:0,0:0:0:0:
384,92,264900,2,0,P|431:84|481:93,1,95,8|0,0:0|0:0,0:0:0:0:
307,332,265230,2,0,P|260:340|210:331,1,95,8|0,0:0|0:0,0:0:0:0:
91,196,265559,1,10,0:0:0:0:
77,150,265642,1,2,0:0:0:0:
71,103,265724,1,2,0:0:0:0:
79,55,265807,1,2,0:0:0:0:
98,12,265889,86,0,P|115:84|88:203,1,190,4|8,0:0|0:0,0:0:0:0:
20,319,266383,1,0,0:0:0:0:
214,261,266548,1,2,0:0:0:0:
122,380,266713,1,2,0:0:0:0:
47,256,266878,1,8,0:0:0:0:
177,177,267043,1,0,0:0:0:0:
250,301,267208,6,0,P|300:321|417:260,1,190,2|8,0:0|0:0,0:0:0:0:
367,128,267702,2,0,L|174:131,1,190,2|2,0:0|0:0,0:0:0:0:
15,130,268197,1,8,0:0:0:0:
253,21,268526,6,0,L|442:18,1,190,2|8,0:0|0:0,0:0:0:0:
460,193,269021,1,0,0:0:0:0:
345,94,269186,1,2,0:0:0:0:
512,112,269351,1,2,0:0:0:0:
398,254,269515,1,8,0:0:0:0:
425,113,269680,1,0,0:0:0:0:
478,280,269845,1,2,0:0:0:0:
331,198,270010,86,0,P|283:191|236:204,1,95,2|8,0:0|0:0,0:0:0:0:
77,275,270340,2,0,P|132:348|223:349,1,190,2|2,0:0|0:0,0:0:0:0:
415,348,270834,1,8,0:0:0:0:
419,42,271164,6,0,B|252:45|252:45|219:65,1,190,6|8,0:0|0:0,0:0:0:0:
176,195,271658,1,0,0:0:0:0:
141,54,271823,1,2,0:0:0:0:
232,260,271988,1,2,0:0:0:0:
232,89,272153,1,8,0:0:0:0:
153,279,272318,1,0,0:0:0:0:
70,131,272482,6,0,P|140:72|231:88,1,190,2|8,0:0|0:0,0:0:0:0:
344,239,272977,2,0,P|434:255|505:196,1,190,2|2,0:0|0:0,0:0:0:0:
510,16,273471,1,8,0:0:0:0:
239,170,273801,86,0,L|248:375,1,190,6|8,0:0|0:0,0:0:0:0:
160,121,274460,1,2,0:0:0:0:
52,150,274625,1,2,0:0:0:0:
81,47,274790,6,0,P|140:17|251:69,1,190,8|8,0:0|0:0,0:0:0:0:
266,322,275285,1,8,0:0:0:0:
406,165,275449,5,8,0:0:0:0:
106,219,275614,1,12,0:0:0:0:
106,219,276109,85,8,0:0:0:0:
19,291,276274,1,0,0:0:0:0:
125,325,276438,6,0,B|184:319|184:319|213:327|213:327|271:321,1,142.500005435944,6|0,0:0|0:0,0:0:0:0:
406,165,277098,2,0,B|347:171|347:171|318:163|318:163|260:169,1,142.500005435944,8|0,0:0|0:0,0:0:0:0:
138,24,277757,21,2,0:0:0:0:
233,172,278087,1,2,0:0:0:0:
322,16,278416,1,8,0:0:0:0:
406,165,278746,1,0,0:0:0:0:
322,233,278911,1,2,0:0:0:0:
233,172,279076,86,0,P|179:164|102:220,1,142.500005435944,4|0,0:0|0:0,0:0:0:0:
165,373,279735,2,0,P|219:381|296:325,1,142.500005435944,8|8,0:0|0:0,0:0:0:0:
322,233,280230,2,0,L|315:80,1,142.500005435944,4|2,0:0|0:0,0:0:0:0:
400,30,280724,2,0,P|441:34|472:57,1,71.2500027179719,8|2,0:0|0:0,0:0:0:0:
455,161,281054,2,0,P|446:211|460:271,1,106.875004076958,8|0,0:0|0:0,0:0:0:0:
480,287,281383,1,8,0:0:0:0:
371,340,281548,22,0,P|306:352|231:307,1,142.500005435944,4|2,0:0|0:0,0:0:0:0:
176,234,282043,2,0,P|114:200|45:212,1,142.500005435944,8|0,0:0|0:0,0:0:0:0:
0,306,282537,2,0,L|5:380,1,71.2500027179719,2|8,0:0|0:0,0:0:0:0:
100,334,282867,86,0,L|92:182,1,142.500005435944,0|2,0:0|0:0,0:0:0:0:
86,91,283362,1,8,0:0:0:0:
326,90,283691,1,0,0:0:0:0:
245,151,283856,2,0,P|209:155|176:145,1,71.2500027179719,2|8,0:0|0:0,0:0:0:0:
230,53,284186,1,0,0:0:0:0:
326,90,284351,102,0,P|346:146|309:233,1,142.500005435944,4|8,0:0|0:0,0:0:0:0:
231,275,284845,2,0,P|290:256|374:281,1,142.500005435944
445,361,285340,1,8,0:0:0:0:
392,254,285504,1,2,0:0:0:0:
319,352,285669,6,0,L|268:351,1,47.5,12|0,0:0|0:0,0:0:0:0:
169,352,285999,1,2,0:0:0:0:
324,28,286164,6,0,P|354:23|392:33,1,59.375,12|0,0:0|0:0,0:0:0:0:
481,97,286493,1,2,0:0:0:0:
61,200,286658,86,0,P|56:164|66:111,1,71.2500027179719,12|0,0:0|0:0,0:0:0:0:
121,34,286988,1,2,0:0:0:0:
460,248,287153,6,0,P|454:289|423:332,1,78.3750007474423,12|0,0:0|0:0,0:0:0:0:
319,352,287482,1,2,0:0:0:0:
230,28,287647,6,0,L|334:29,1,95,12|0,0:0|0:0,0:0:0:0:
418,27,287894,1,0,0:0:0:0:
418,27,287977,1,12,0:0:0:0:
155,199,288307,86,0,P|107:208|58:199,1,95,4|0,0:0|0:0,0:0:0:0:
266,151,288636,2,0,P|275:198|263:251,1,95,8|0,0:0|0:0,0:0:0:0:
166,88,288966,2,0,P|213:45|338:61,1,190,0|8,0:0|0:0,0:0:0:0:
363,214,289460,1,0,0:0:0:0:
472,106,289625,6,0,P|479:61|470:11,1,95,2|2,0:0|0:0,0:0:0:0:
363,214,289955,2,0,P|356:259|365:309,1,95,8|0,0:0|0:0,0:0:0:0:
404,140,290285,2,0,P|359:129|311:140,1,95,2|0,0:0|0:0,0:0:0:0:
224,275,290614,1,8,0:0:0:0:
132,136,290779,1,0,0:0:0:0:
142,307,290944,6,0,P|178:345|300:317,1,190,2|8,0:0|0:0,0:0:0:0:
225,165,291438,2,0,L|36:174,1,190,0|2,0:0|0:0,0:0:0:0:
35,174,291933,1,8,0:0:0:0:
115,25,292098,1,0,0:0:0:0:
225,165,292263,86,0,P|283:181|391:110,1,190,2|8,0:0|0:0,0:0:0:0:
178,58,292757,2,0,L|188:252,1,190,0|2,0:0|0:0,0:0:0:0:
192,380,293252,1,8,0:0:0:0:
59,209,293416,1,0,0:0:0:0:
277,163,293581,6,0,P|328:155|377:169,1,95,4|0,0:0|0:0,0:0:0:0:
462,288,293911,1,8,0:0:0:0:
440,128,294076,1,0,0:0:0:0:
320,239,294241,1,2,0:0:0:0:
462,288,294405,1,2,0:0:0:0:
512,150,294570,2,0,P|511:101|477:60,1,95,8|0,0:0|0:0,0:0:0:0:
277,163,294900,6,0,P|216:179|115:97,1,190,2|8,0:0|0:0,0:0:0:0:
302,46,295394,1,0,0:0:0:0:
320,239,295559,1,2,0:0:0:0:
261,63,295724,1,2,0:0:0:0:
129,198,295889,2,0,P|122:247|137:303,1,95,8|0,0:0|0:0,0:0:0:0:
204,349,296136,1,0,0:0:0:0:
204,349,296219,86,0,L|305:348,1,95,2|0,0:0|0:0,0:0:0:0:
369,161,296548,2,0,L|268:162,1,95,8|0,0:0|0:0,0:0:0:0:
429,268,296878,1,2,0:0:0:0:
426,75,297043,1,2,0:0:0:0:
320,239,297208,1,8,0:0:0:0:
294,261,297537,5,8,0:0:0:0:
437,44,297702,1,8,0:0:0:0:
446,301,297867,1,8,0:0:0:0:
247,164,298032,1,4,0:0:0:0:
32,267,298197,2,0,P|24:314|38:368,1,95,8|0,0:0|0:0,0:0:0:0:
151,201,298526,1,2,0:0:0:0:
168,156,298609,1,2,0:0:0:0:
172,108,298691,1,2,0:0:0:0:
167,60,298774,1,2,0:0:0:0:
152,15,298856,6,0,L|52:20,1,95,4|0,0:0|0:0,0:0:0:0:
247,164,299186,2,0,P|294:171|345:156,1,95,12|0,0:0|0:0,0:0:0:0:
502,42,299515,2,0,L|498:143,1,95,2|2,0:0|0:0,0:0:0:0:
424,353,299845,2,0,L|415:249,1,95,8|0,0:0|0:0,0:0:0:0:
10,42,300175,86,0,L|14:143,1,95,2|0,0:0|0:0,0:0:0:0:
88,353,300505,2,0,L|97:249,1,95,8|2,0:0|0:0,0:0:0:0:
225,103,300834,2,0,P|296:109|345:217,1,190,0|8,0:0|0:0,0:0:0:0:
280,332,301329,1,0,0:0:0:0:
143,195,301493,6,0,P|112:136|150:12,1,190,2|8,0:0|0:0,0:0:0:0:
231,188,301988,2,0,P|218:240|186:270,1,95,0|2,0:0|0:0,0:0:0:0:
41,164,302318,1,2,0:0:0:0:
247,165,302482,1,8,0:0:0:0:
41,321,302647,1,0,0:0:0:0:
250,321,302812,6,0,L|358:321,1,95,2|0,0:0|0:0,0:0:0:0:
467,223,303142,2,0,P|476:174|463:124,1,95,8|0,0:0|0:0,0:0:0:0:
340,22,303471,1,2,0:0:0:0:
394,179,303636,1,2,0:0:0:0:
512,45,303801,1,12,0:0:0:0:
145,48,304131,86,0,L|149:150,1,95,6|0,0:0|0:0,0:0:0:0:
299,348,304460,2,0,P|246:274|155:274,1,190,8|2,0:0|0:0,0:0:0:0:
198,366,304955,1,2,0:0:0:0:
281,194,305120,1,8,0:0:0:0:
391,348,305285,1,0,0:0:0:0:
198,366,305449,6,0,P|126:372|52:268,1,190,2|8,0:0|0:0,0:0:0:0:
54,100,305944,2,0,L|248:108,1,190,0|2,0:0|0:0,0:0:0:0:
377,111,306438,1,8,0:0:0:0:
240,21,306603,1,0,0:0:0:0:
159,185,306768,2,0,P|150:233|164:290,1,95,4|0,0:0|0:0,0:0:0:0:
473,277,307098,6,0,P|482:229|468:172,1,95,12|0,0:0|0:0,0:0:0:0:
419,86,307427,1,2,0:0:0:0:
72,177,307592,86,0,L|75:279,1,95,12|0,0:0|0:0,0:0:0:0:
134,367,307922,1,2,0:0:0:0:
307,82,308087,6,0,P|273:45|226:34,1,95,12|0,0:0|0:0,0:0:0:0:
120,34,308416,1,2,0:0:0:0:
227,345,308581,6,0,L|339:345,1,95,12|0,0:0|0:0,0:0:0:0:
424,344,308911,1,0,0:0:0:0:
279,34,309076,86,0,L|227:34,1,47.5
269,129,309241,2,0,L|319:128,1,47.5
278,34,309405,6,0,L|147:33,1,118.75,12|0,0:0|0:0,0:0:0:0:
227,345,309735,2,0,L|358:346,1,118.75,8|0,0:0|0:0,0:0:0:0:
403,57,310065,6,0,P|350:79|316:133,1,118.75,8|0,0:0|0:0,0:0:0:0:
65,132,310394,2,0,P|112:167|170:170,1,118.75,8|0,0:0|0:0,0:0:0:0:
299,386,310724,2,0,P|306:329|277:273,1,118.75,8|0,0:0|0:0,0:0:0:0:
315,1,311054,86,0,P|280:47|278:110,1,118.75,8|0,0:0|0:0,0:0:0:0:
60,235,311383,2,0,P|118:242|170:215,1,118.75,8|0,0:0|0:0,0:0:0:0:
391,339,311713,2,0,P|369:286|315:251,1,118.75,8|0,0:0|0:0,0:0:0:0:
64,131,312043,6,0,P|111:166|170:169,1,118.75,12|0,0:0|0:0,0:0:0:0:
403,56,312372,2,0,P|349:79|317:128,1,118.75,8|0,0:0|0:0,0:0:0:0:
299,386,312702,2,0,P|306:329|277:273,1,118.75,8|0,0:0|0:0,0:0:0:0:
120,44,313032,6,0,P|143:98|192:130,1,118.75,8|0,0:0|0:0,0:0:0:0:
450,148,313361,2,0,P|392:141|340:167,1,118.75,8|0,0:0|0:0,0:0:0:0:
196,382,313691,2,0,P|231:336|233:273,1,118.75,8|0,0:0|0:0,0:0:0:0:
13,68,314021,86,0,L|13:196,1,118.75,8|0,0:0|0:0,0:0:0:0:
499,316,314351,2,0,L|499:188,1,118.75,8|0,0:0|0:0,0:0:0:0:
166,355,314680,6,0,P|109:329|78:250,1,142.500005435944,8|0,0:0|0:0,0:0:0:0:
346,29,315010,2,0,P|403:55|434:134,1,142.500005435944,8|0,0:0|0:0,0:0:0:0:
93,102,315340,2,0,P|119:45|198:14,1,142.500005435944,8|0,0:0|0:0,0:0:0:0:
419,282,315669,2,0,P|393:339|314:370,1,142.500005435944,8|0,0:0|0:0,0:0:0:0:
88,333,315999,102,0,B|125:273|125:273|194:238,1,142.500005435944,8|0,0:0|0:0,0:0:0:0:
424,51,316329,2,0,B|387:111|387:111|318:146,1,142.500005435944,8|0,0:0|0:0,0:0:0:0:
290,379,316658,2,0,B|273:317|273:317|274:231,1,142.500005435944,8|0,0:0|0:0,0:0:0:0:
222,5,316988,2,0,B|239:67|239:67|238:153,1,142.500005435944,8|0,0:0|0:0,0:0:0:0:
26,382,317318,6,0,P|9:314|37:233,1,142.500005435944,12|0,0:0|0:0,0:0:0:0:
131,154,317647,1,0,0:0:0:0:
419,295,317812,1,12,0:0:0:0:
419,295,317894,1,0,0:0:0:0:
419,295,317977,1,0,0:0:0:0:
257,20,318307,5,2,0:0:0:0:
241,76,318389,1,2,0:0:0:0:
254,133,318471,1,2,0:0:0:0:
271,190,318554,1,2,0:0:0:0:
255,246,318636,22,0,B|278:284|260:332|260:332|323:234|264:133,1,285,12|8,0:0|0:0,0:0:0:0:
110,64,319955,5,6,0:0:0:0:
57,236,320285,1,2,0:0:0:0:
231,282,320614,1,2,0:0:0:0:
285,109,320944,102,0,P|334:99|383:112,1,95,2|2,0:0|0:0,0:0:0:0:
429,282,321603,2,0,L|425:376,1,95,2|2,0:0|0:0,0:0:0:0:
256,310,322263,1,2,0:0:0:0:
87,376,322592,6,0,L|83:282,1,95,2|2,0:0|0:0,0:0:0:0:
46,197,323087,2,0,P|32:153|45:96,1,95
121,147,323581,2,0,P|167:155|221:143,1,95,2|2,0:0|0:0,0:0:0:0:
294,104,324076,1,8,0:0:0:0:
294,194,324241,2,0,L|292:297,1,95,2|2,0:0|0:0,0:0:0:0:
461,351,324900,1,2,0:0:0:0:
425,267,325065,1,8,0:0:0:0:
368,337,325230,102,0,P|323:346|263:334,1,95,6|2,0:0|0:0,0:0:0:0:
157,201,325889,2,0,L|162:101,1,95,2|2,0:0|0:0,0:0:0:0:
274,29,326466,1,0,3:0:0:0:
274,29,326548,2,0,B|321:23|321:23|382:33,1,95,2|2,0:0|0:0,0:0:0:0:
474,177,327208,1,2,0:0:0:0:
439,259,327372,1,0,0:0:0:0:
376,193,327537,1,4,0:3:0:0:
278,345,327867,6,0,L|180:341,1,95,2|2,0:0|0:0,0:0:0:0:
29,245,328526,1,2,0:0:0:0:
52,246,328609,1,2,0:0:0:0:
75,247,328691,1,2,0:0:0:0:
98,248,328774,1,2,0:0:0:0:
121,249,328856,1,2,0:0:0:0:
144,250,328938,1,2,0:0:0:0:
167,251,329021,1,2,0:0:0:0:
190,252,329103,1,2,0:0:0:0:
213,253,329186,101,4,0:0:0:0:
346,39,330175,5,12,0:0:0:0:
440,122,330340,1,0,0:0:0:0:
440,122,330422,1,0,0:0:0:0:
440,122,330504,38,0,P|465:188|432:311,1,190,12|8,0:0|0:0,0:0:0:0:
326,209,330999,2,0,B|275:189|275:189|137:195,1,190,0|2,0:0|0:0,0:0:0:0:
15,260,331493,1,8,0:0:0:0:
77,126,331658,1,0,0:0:0:0:
100,274,331823,6,0,L|108:325,2,47.5,2|2|2,0:0|0:0|0:0,0:0:0:0:
0,173,332153,1,8,0:0:0:0:
103,60,332318,2,0,B|195:43|195:43|290:64,1,190,2|2,0:0|0:0,0:0:0:0:
194,199,332812,1,8,0:0:0:0:
103,60,332977,1,0,0:0:0:0:
221,190,333142,6,0,P|306:219|399:180,1,190,2|8,0:0|0:0,0:0:0:0:
157,106,333636,2,0,P|124:186|171:288,1,190,0|2,0:0|0:0,0:0:0:0:
230,107,334131,1,8,0:0:0:0:
57,170,334296,1,0,0:0:0:0:
179,303,334460,86,0,L|372:299,1,190,2|8,0:0|0:0,0:0:0:0:
334,114,334955,2,0,P|242:104|158:180,1,190,0|2,0:0|0:0,0:0:0:0:
110,255,335449,1,8,0:0:0:0:
139,76,335614,1,0,0:0:0:0:
276,212,335779,6,0,L|476:207,1,190,2|8,0:0|0:0,0:0:0:0:
490,36,336274,2,0,L|290:41,1,190,0|2,0:0|0:0,0:0:0:0:
177,172,336768,1,8,0:0:0:0:
281,22,336933,1,0,0:0:0:0:
377,177,337098,6,0,P|402:233|373:359,1,190,2|8,0:0|0:0,0:0:0:0:
135,354,337592,2,0,P|106:266|135:177,1,190,0|2,0:0|0:0,0:0:0:0:
230,265,338087,1,8,0:0:0:0:
21,265,338252,1,0,0:0:0:0:
136,79,338416,85,2,0:0:0:0:
171,64,338499,1,0,0:0:0:0:
208,57,338581,1,0,0:0:0:0:
246,55,338664,1,0,0:0:0:0:
282,63,338746,1,8,0:0:0:0:
315,80,338829,1,0,0:0:0:0:
341,106,338911,1,0,0:0:0:0:
237,222,339076,2,0,P|229:268|238:316,1,95,0|2,0:0|0:0,0:0:0:0:
466,142,339405,1,8,0:0:0:0:
223,142,339570,1,2,0:0:0:0:
453,222,339735,6,0,P|460:267|452:323,1,95,12|0,0:0|0:0,0:0:0:0:
361,382,340065,1,8,0:0:0:0:
59,162,340230,6,0,P|52:117|60:61,1,95,12|0,0:0|0:0,0:0:0:0:
157,116,340559,1,8,0:0:0:0:
170,151,340642,1,8,0:0:0:0:
179,187,340724,1,8,0:0:0:0:
184,224,340807,1,8,0:0:0:0:
180,261,340889,1,8,0:0:0:0:
170,297,340971,1,8,0:0:0:0:
154,331,341054,86,0,L|57:326,1,95,12|0,0:0|0:0,0:0:0:0:
259,137,341383,2,0,P|303:129|352:138,1,95,12|0,0:0|0:0,0:0:0:0:
463,284,341713,5,2,0:0:0:0:
436,311,341796,1,0,0:0:0:0:
403,331,341878,1,2,0:0:0:0:
369,347,341960,1,0,0:0:0:0:
332,357,342043,1,8,0:0:0:0:
295,365,342125,1,0,0:0:0:0:
256,368,342208,1,0,0:0:0:0:
217,365,342290,1,0,0:0:0:0:
180,357,342372,6,0,P|132:344|96:304,1,95,2|0,0:0|0:0,0:0:0:0:
78,142,342702,1,8,0:0:0:0:
78,142,342785,1,0,0:0:0:0:
78,142,342867,1,2,0:0:0:0:
226,224,343032,2,0,P|272:231|321:222,1,95,0|2,0:0|0:0,0:0:0:0:
399,51,343362,1,8,0:0:0:0:
362,42,343444,1,0,0:0:0:0:
324,39,343526,1,0,0:0:0:0:
285,42,343609,1,0,0:0:0:0:
247,48,343691,85,2,0:0:0:0:
164,162,343856,1,0,0:0:0:0:
296,128,344021,1,8,0:0:0:0:
161,74,344186,1,0,0:0:0:0:
227,224,344351,1,2,0:0:0:0:
246,95,344515,1,2,0:0:0:0:
145,243,344680,1,8,0:0:0:0:
308,207,344845,1,0,0:0:0:0:
164,162,345010,6,0,P|96:174|70:280,1,190,2|8,0:0|0:0,0:0:0:0:
226,370,345504,1,2,0:0:0:0:
308,207,345669,2,0,P|314:161|308:110,1,95,0|2,0:0|0:0,0:0:0:0:
245,276,345999,2,0,P|289:299|339:297,1,95,12|0,0:0|0:0,0:0:0:0:
500,229,346329,5,4,0:0:0:0:
500,229,346438,2,0,B|509:194|500:168|500:168|489:136|504:101,1,126.666666666667,0|8,0:0|0:0,0:0:0:0:
500,20,346768,2,0,P|457:11|403:20,1,95
385,35,346988,2,0,P|342:45|291:37,1,95,2|2,0:0|0:0,0:0:0:0:
308,207,347318,1,8,0:0:0:0:
323,241,347400,1,0,0:0:0:0:
329,278,347482,1,0,0:0:0:0:
325,316,347565,1,0,0:0:0:0:
306,349,347647,85,2,0:0:0:0:
204,219,347812,1,0,0:0:0:0:
94,344,347977,1,8,0:0:0:0:
97,172,348142,1,0,0:0:0:0:
191,313,348307,2,0,P|247:299|292:183,1,190,2|8,0:0|0:0,0:0:0:0:
206,35,348801,1,0,0:0:0:0:
97,172,348966,6,0,L|98:274,1,95,4|0,0:0|0:0,0:0:0:0:
306,349,349296,1,4,0:0:0:0:
443,294,349460,2,0,P|465:205|442:106,1,190,2|2,0:0|0:0,0:0:0:0:
311,18,349955,1,8,0:0:0:0:
174,110,350120,1,0,0:0:0:0:
174,110,350202,1,0,0:0:0:0:
174,110,350285,6,0,P|152:199|175:298,1,190,2|8,0:0|0:0,0:0:0:0:
306,349,350779,1,0,0:0:0:0:
82,343,350944,1,2,0:0:0:0:
257,202,351109,1,0,0:0:0:0:
82,343,351274,1,8,0:0:0:0:
430,41,351603,86,0,P|445:96|431:182,1,142.500005435944,12|4,0:0|0:0,0:0:0:0:
376,271,352098,1,0,0:0:0:0:
315,182,352263,1,12,0:0:0:0:
255,270,352427,2,0,P|251:306|258:351,1,71.2500027179719,0|4,0:0|0:0,0:0:0:0:
315,182,352757,6,0,P|319:146|314:103,1,71.2500027179719,2|6,0:0|0:0,0:0:0:0:
207,38,353087,2,0,L|130:39,1,71.2500027179719,8|4,0:0|0:0,0:0:0:0:
27,40,353416,1,0,0:0:0:0:
81,132,353581,2,0,P|84:168|79:218,1,71.2500027179719,12|0,0:0|0:0,0:0:0:0:
12,290,353911,1,12,0:0:0:0:
45,302,353993,1,2,0:0:0:0:
80,305,354076,1,2,0:0:0:0:
115,302,354158,1,2,0:0:0:0:
149,290,354241,6,0,P|209:273|286:310,1,142.500005435944,4|4,0:0|0:0,0:0:0:0:
361,376,354735,1,0,0:0:0:0:
355,266,354900,2,0,L|350:191,1,71.2500027179719,12|0,0:0|0:0,0:0:0:0:
385,94,355230,1,4,0:0:0:0:
457,173,355394,86,0,P|462:205|456:253,1,71.2500027179719,2|6,0:0|0:0,0:0:0:0:
355,266,355724,2,0,L|277:263,1,71.2500027179719,8|4,0:0|0:0,0:0:0:0:
177,188,356054,1,2,0:0:0:0:
254,291,356219,1,12,0:0:0:0:
306,173,356383,1,2,0:0:0:0:
314,138,356466,1,2,0:0:0:0:
313,102,356548,1,8,0:3:0:0:
303,67,356631,1,2,0:0:0:0:
281,39,356713,1,2,0:0:0:0:
249,21,356796,1,2,0:0:0:0:
214,18,356878,6,0,L|66:21,1,142.500005435944,4|4,0:0|0:0,0:0:0:0:
6,109,357372,2,0,P|2:145|7:192,1,71.2500027179719,0|12,0:0|0:0,0:0:0:0:
70,265,357702,1,0,0:0:0:0:
139,183,357867,1,12,0:0:0:0:
208,264,358032,6,0,P|211:298|203:339,1,71.2500027179719,0|6,0:0|0:0,0:0:0:0:
139,183,358362,2,0,P|136:149|144:108,1,71.2500027179719,8|4,0:0|0:0,0:0:0:0:
231,52,358691,1,2,0:0:0:0:
320,113,358856,1,12,0:0:0:0:
354,121,358938,1,2,0:0:0:0:
389,126,359021,1,2,0:0:0:0:
424,122,359103,1,2,0:0:0:0:
459,116,359186,2,0,P|462:77|456:36,1,71.2500027179719,12|0,0:0|0:0,0:0:0:0:
320,223,359515,86,0,P|314:269|325:330,1,95,12|0,0:0|0:0,0:0:0:0:
403,384,359845,1,8,0:0:0:0:
404,38,360010,6,0,P|315:12|220:63,1,190,12|0,0:0|0:0,0:0:0:0:
139,183,360504,2,0,L|138:279,1,95,8|0,0:0|0:0,0:0:0:0:
19,131,360834,6,0,L|20:35,1,95
133,143,361164,1,8,0:0:0:0:
23,250,361329,2,0,L|-10:250,16,23.75,2|2|2|2|2|2|2|2|2|2|2|2|2|2|2|2|2,0:0|0:0|0:0|0:0|0:0|0:0|0:0|0:0|0:0|0:0|0:0|0:0|0:0|0:0|0:0|0:0|0:0,0:0:0:0:
220,92,362153,86,0,L|220:171,1,63.3333333333333,12|0,0:0|0:0,0:0:0:0:
268,227,362372,1,0,0:0:0:0:
315,299,362482,2,0,P|346:301|381:298,1,63.3333333333333,12|0,0:0|0:0,0:0:0:0:
426,226,362702,1,0,0:0:0:0:
476,156,362812,2,0,L|476:77,1,63.3333333333333,2|0,0:0|0:0,0:0:0:0:
406,40,363032,1,0,0:0:0:0:
338,92,363142,2,0,P|300:96|271:92,1,63.3333333333333,12|0,0:0|0:0,0:0:0:0:
205,41,363362,1,0,0:0:0:0:
121,22,363471,6,0,P|89:18|58:22,1,63.3333333333333,2|0,0:0|0:0,0:0:0:0:
13,97,363691,1,0,0:0:0:0:
18,182,363801,2,0,L|20:254,1,63.3333333333333,12|0,0:0|0:0,0:0:0:0:
98,283,364021,1,0,0:0:0:0:
178,247,364131,2,0,P|180:214|177:178,1,63.3333333333333,2|0,0:0|0:0,0:0:0:0:
142,105,364351,1,0,0:0:0:0:
205,41,364460,2,0,L|269:41,1,63.3333333333333,12|0,0:0|0:0,0:0:0:0:
338,92,364680,1,0,0:0:0:0:
374,171,364790,6,0,P|377:207|371:248,1,63.3333333333333
334,312,365010,1,0,0:0:0:0:
261,358,365120,2,0,L|192:358,1,63.3333333333333,12|0,0:0|0:0,0:0:0:0:
155,284,365340,1,0,0:0:0:0:
199,213,365449,2,0,L|262:213,1,63.3333333333333,2|0,0:0|0:0,0:0:0:0:
328,160,365669,1,0,0:0:0:0:
394,105,365779,2,0,L|394:35,1,63.3333333333333,12|0,0:0|0:0,0:0:0:0:
315,7,365999,1,0,0:0:0:0:
237,44,366109,86,0,L|237:107,1,63.3333333333333,2|0,0:0|0:0,0:0:0:0:
236,193,366329,1,0,0:0:0:0:
236,278,366438,2,0,P|203:280|166:277,1,63.3333333333333,12|0,0:0|0:0,0:0:0:0:
92,246,366658,1,0,0:0:0:0:
56,169,366768,2,0,P|53:137|56:106,1,63.3333333333333,2|0,0:0|0:0,0:0:0:0:
97,32,366988,1,0,0:0:0:0:
168,79,367098,2,0,B|201:82|201:82|238:78,1,63.3333333333333,12|0,0:0|0:0,0:0:0:0:
312,33,367318,6,0,B|344:28|344:28|371:34|371:34|399:54|399:54|409:95,1,126.666666666667
407,170,367647,1,0,0:0:0:0:
365,246,367757,2,0,P|332:249|296:245,1,63.3333333333333,12|0,0:0|0:0,0:0:0:0:
236,193,367977,1,0,0:0:0:0:
169,140,368087,2,0,P|137:137|106:140,1,63.3333333333333,2|0,0:0|0:0,0:0:0:0:
39,193,368307,1,0,0:0:0:0:
17,271,368416,2,0,L|20:335,1,63.3333333333333,12|0,0:0|0:0,0:0:0:0:
96,371,368636,1,0,0:0:0:0:
173,337,368746,6,0,P|205:332|243:340,1,63.3333333333333,2|0,0:0|0:0,0:0:0:0:
315,372,368966,1,0,0:0:0:0:
392,336,369076,2,0,P|396:305|390:270,1,63.3333333333333,12|0,0:0|0:0,0:0:0:0:
326,219,369296,1,0,0:0:0:0:
263,164,369405,2,0,P|258:132|262:101,1,63.3333333333333,2|0,0:0|0:0,0:0:0:0:
327,48,369625,1,0,0:0:0:0:
393,102,369735,2,0,P|397:133|393:164,1,63.3333333333333,12|0,0:0|0:0,0:0:0:0:
326,219,369955,1,0,0:0:0:0:
263,164,370065,21,12,0:0:0:0:
510,161,370230,1,2,0:0:0:0:
510,161,370312,1,2,0:0:0:0:
510,161,370394,1,8,0:0:0:0:
394,360,370559,1,12,0:0:0:0:
394,360,370889,5,2,0:0:0:0:
394,102,371054,1,8,0:0:0:0:
352,79,371136,1,2,0:0:0:0:
304,70,371219,1,2,0:0:0:0:
257,78,371301,1,2,0:0:0:0:
216,102,371383,101,12,0:0:0:0:
214,283,371548,1,2,0:0:0:0:
214,283,371631,1,2,0:0:0:0:
214,283,371713,1,8,0:0:0:0:
506,284,371878,1,12,0:0:0:0:
506,284,372208,5,2,0:0:0:0:
262,366,372372,2,0,P|217:374|162:364,1,95,12|0,0:0|0:0,0:0:0:0:
95,187,372702,1,12,0:0:0:0:
291,188,372867,1,2,0:0:0:0:
291,188,372949,1,2,0:0:0:0:
291,188,373032,1,8,0:0:0:0:
11,188,373197,1,12,0:0:0:0:
11,188,373526,101,2,0:0:0:0:
279,74,373691,1,8,0:0:0:0:
279,74,373774,1,2,0:0:0:0:
279,74,373856,1,2,0:0:0:0:
262,366,374021,5,8,0:0:0:0:
373,310,374186,1,0,0:0:0:0:
373,310,374268,2,0,L|459:314,1,71.2500027179719
388,200,374598,2,0,L|310:202,1,71.2500027179719
291,188,374845,2,0,P|286:152|292:109,2,71.2500027179719
262,366,375340,37,8,0:0:0:0:
262,366,375422,1,8,0:0:0:0:
453,306,375587,1,8,0:0:0:0:
453,306,375669,1,8,0:0:0:0:
446,104,375834,1,2,0:0:0:0:
276,211,375999,5,8,0:0:0:0:
276,211,376081,1,8,0:0:0:0:
481,213,376246,1,8,0:0:0:0:
481,213,376329,1,8,0:0:0:0:
374,40,376493,1,2,0:0:0:0:
375,239,376658,5,8,0:0:0:0:
375,239,376741,1,8,0:0:0:0:
206,137,376905,1,8,0:0:0:0:
206,137,376988,1,8,0:0:0:0:
409,138,377153,1,8,0:0:0:0:
255,370,377318,85,12,0:0:0:0:
455,59,377647,1,12,0:0:0:0:
57,59,377977,1,6,0:0:0:0:
256,191,382922,5,2,0:0:0:0:
256,191,383252,1,4,0:0:0:0:
256,68,388197,38,0,L|256:156,1,71.25,6|0,0:0|0:0,0:0:0:0:
179,179,388526,54,0,P|173:142|179:106,1,71.2500027179719,4|0,0:0|0:0,0:0:0:0:
333,108,388856,2,0,P|338:144|333:179,1,71.2500027179719,4|0,0:0|0:0,0:0:0:0:
140,259,389186,2,0,L|67:255,1,71.2500027179719
372,259,389515,2,0,L|445:255,1,71.2500027179719,4|0,0:0|0:0,0:0:0:0:
102,341,389845,54,0,L|53:338,2,35.625001358986
256,139,390175,2,0,L|256:68,1,71.25,4|0,0:0|0:0,0:0:0:0:
410,341,390504,2,0,L|459:338,2,35.625001358986
140,259,390834,54,0,P|136:223|141:181,1,71.2500027179719,4|0,0:0|0:0,0:0:0:0:
372,188,391164,2,0,P|375:223|372:259,1,71.2500027179719
151,114,391493,2,0,L|69:111,1,71.2500027179719,4|0,0:0|0:0,0:0:0:0:
361,114,391823,2,0,L|443:111,1,71.2500027179719
463,128,392070,1,2,0:0:0:0:
480,159,392153,2,0,P|487:210|476:276,1,106.875004076958,12|0,0:0|0:0,0:0:0:0:
415,330,392482,54,0,P|345:343|271:325,1,142.5,6|0,0:0|0:0,0:0:0:0:
256,304,392812,2,0,B|260:257|260:257|250:214|250:214|254:160,1,142.5,4|0,0:0|0:0,0:0:0:0:
231,140,393142,2,0,P|161:124|89:142,1,142.5,4|0,0:0|0:0,0:0:0:0:
15,180,393471,54,0,P|14:244|137:204,1,237.500009059906,6|0,0:0|0:0,0:0:0:0:
134,123,394131,54,0,L|132:22,1,95.0000036239625,8|0,0:0|0:0,0:0:0:0:
229,45,394460,2,0,L|230:139,1,95.0000036239625,2|0,0:0|0:0,0:0:0:0:
278,222,394790,54,0,P|321:229|378:218,1,95.0000036239625,8|0,0:0|0:0,0:0:0:0:
419,138,395120,2,0,P|376:131|319:142,1,95.0000036239625,2|0,0:0|0:0,0:0:0:0:
278,222,395449,54,0,B|272:269|272:269|280:323,1,95.0000036239625,8|0,0:0|0:0,0:0:0:0:
353,376,395779,1,2,0:0:0:0:
446,359,395889,1,0,0:0:0:0:
504,283,395999,1,2,0:0:0:0:
504,187,396109,2,0,L|504:84,1,95.0000036239625,8|0,0:0|0:0,0:0:0:0:
419,138,396438,54,0,B|372:145|372:145|303:136,1,95.0000036239625,2|0,0:0|0:0,0:0:0:0:
246,83,396768,2,0,B|198:76|198:76|151:83,1,95.0000036239625,8|0,0:0|0:0,0:0:0:0:
60,111,397098,2,0,P|51:154|63:207,1,95.0000036239625,2|0,0:0|0:0,0:0:0:0:
102,289,397427,1,8,0:0:0:0:
193,316,397537,1,2,0:0:0:0:
284,288,397647,1,2,0:0:0:0:
330,204,397757,54,0,P|390:189|473:208,1,142.500005435944,8|0,0:0|0:0,0:0:0:0:
394,328,398252,1,0,0:0:0:0:
264,270,398416,2,0,P|243:210|265:134,1,142.500005435944
483,21,399076,53,0,0:0:0:0:
71,140,409625,5,6,0:0:0:0:
168,171,410944,5,6,0:0:0:0:
271,142,412263,85,4,0:0:0:0:
324,44,412922,1,4,0:0:0:0:
387,139,413581,54,0,P|406:196|380:331,1,190,4|8,0:0|0:0,0:0:0:0:
348,351,413993,1,8,0:0:0:0:
301,363,414076,1,8,0:0:0:0:
254,372,414158,1,8,0:0:0:0:
206,372,414241,1,8,0:0:0:0:
159,361,414323,1,8,0:0:0:0:
116,339,414405,1,8,0:0:0:0:
82,304,414488,1,8,0:0:0:0:
66,259,414570,2,0,L|70:202,3,47.5,8|8|8|8,0:0|0:0|0:0|0:0,0:0:0:0:
31,111,414900,5,10,0:0:0:0:
62,122,414982,1,2,0:0:0:0:
95,122,415065,1,2,0:0:0:0:
127,115,415147,1,2,0:0:0:0:
165,86,415230,101,10,0:0:0:0:
197,88,415312,1,2,0:0:0:0:
229,90,415394,1,2,0:0:0:0:
262,92,415477,1,2,0:0:0:0:
299,117,415559,5,10,0:0:0:0:
332,119,415642,1,2,0:0:0:0:
363,108,415724,1,2,0:0:0:0:
388,86,415807,1,2,0:0:0:0:
404,41,415889,101,10,0:0:0:0:
384,14,415971,1,2,0:0:0:0:
352,1,416054,1,2,0:0:0:0:
318,1,416136,1,2,0:0:0:0:
282,28,416219,5,10,0:0:0:0:
270,58,416301,1,2,0:0:0:0:
261,90,416383,1,2,0:0:0:0:
262,123,416466,1,2,0:0:0:0:
279,163,416548,101,10,0:0:0:0:
290,194,416631,1,2,0:0:0:0:
296,226,416713,1,2,0:0:0:0:
291,259,416796,1,2,0:0:0:0:
275,304,416878,5,10,0:0:0:0:
252,327,416960,1,2,0:0:0:0:
221,340,417043,1,2,0:0:0:0:
187,340,417125,1,2,0:0:0:0:
142,326,417208,101,10,0:0:0:0:
131,314,417290,1,2,0:0:0:0:
119,300,417372,1,2,0:0:0:0:
109,287,417455,1,2,0:0:0:0:
97,272,417537,5,14,0:0:0:0:
84,241,417620,1,2,0:0:0:0:
81,208,417702,1,2,0:0:0:0:
93,176,417785,1,2,0:0:0:0:
123,140,417867,101,10,0:0:0:0:
153,127,417949,1,2,0:0:0:0:
186,122,418032,1,2,0:0:0:0:
218,127,418114,1,2,0:0:0:0:
256,152,418197,5,10,0:0:0:0:
286,165,418279,1,2,0:0:0:0:
318,172,418362,1,2,0:0:0:0:
351,173,418444,1,2,0:0:0:0:
395,158,418526,101,10,0:0:0:0:
422,138,418609,1,2,0:0:0:0:
437,108,418691,1,2,0:0:0:0:
444,75,418774,1,2,0:0:0:0:
445,30,418856,5,10,0:0:0:0:
412,36,418938,1,2,0:0:0:0:
379,42,419021,1,2,0:0:0:0:
346,48,419103,1,2,0:0:0:0:
304,56,419186,101,10,0:0:0:0:
271,51,419268,1,2,0:0:0:0:
237,46,419351,1,2,0:0:0:0:
204,41,419433,1,2,0:0:0:0:
160,31,419515,5,10,0:0:0:0:
126,26,419598,1,2,0:0:0:0:
93,29,419680,1,2,0:0:0:0:
61,40,419763,1,2,0:0:0:0:
33,72,419845,101,10,0:0:0:0:
35,95,419927,1,2,0:0:0:0:
37,115,420010,1,2,0:0:0:0:
40,134,420092,1,2,0:0:0:0:
43,154,420175,5,14,0:0:0:0:
65,178,420257,1,2,0:0:0:0:
97,186,420340,1,2,0:0:0:0:
130,187,420422,1,2,0:0:0:0:
170,172,420504,101,10,0:0:0:0:
203,166,420587,1,2,0:0:0:0:
235,172,420669,1,2,0:0:0:0:
261,192,420752,1,2,0:0:0:0:
282,232,420834,5,10,0:0:0:0:
289,264,420916,1,2,0:0:0:0:
287,297,420999,1,2,0:0:0:0:
273,327,421081,1,2,0:0:0:0:
240,357,421164,101,10,0:0:0:0:
209,369,421246,1,2,0:0:0:0:
175,373,421329,1,2,0:0:0:0:
142,368,421411,1,2,0:0:0:0:
106,345,421493,5,10,0:0:0:0:
87,317,421576,1,2,0:0:0:0:
80,284,421658,1,2,0:0:0:0:
81,250,421741,1,2,0:0:0:0:
104,209,421823,101,10,0:0:0:0:
120,180,421905,1,2,0:0:0:0:
129,147,421988,1,2,0:0:0:0:
127,113,422070,1,2,0:0:0:0:
117,68,422153,5,10,0:0:0:0:
90,48,422235,1,2,0:0:0:0:
56,42,422318,1,2,0:0:0:0:
23,50,422400,1,2,0:0:0:0:
0,90,422482,101,10,0:0:0:0:
6,113,422565,1,2,0:0:0:0:
13,138,422647,1,2,0:0:0:0:
21,162,422730,1,2,0:0:0:0:
29,185,422812,5,14,0:0:0:0:
54,205,422894,1,2,0:0:0:0:
87,209,422977,1,2,0:0:0:0:
119,205,423059,1,2,0:0:0:0:
160,185,423142,101,10,0:0:0:0:
191,176,423224,1,2,0:0:0:0:
224,174,423307,1,2,0:0:0:0:
256,179,423389,1,2,0:0:0:0:
294,195,423471,5,10,0:0:0:0:
297,218,423554,1,2,0:0:0:0:
300,241,423636,1,2,0:0:0:0:
303,264,423719,1,2,0:0:0:0:
306,287,423801,1,10,0:0:0:0:
309,310,423883,1,2,0:0:0:0:
313,333,423966,1,2,0:0:0:0:
316,356,424048,1,2,0:0:0:0:
319,379,424131,101,14,0:0:0:0:
366,374,424213,1,2,0:0:0:0:
408,351,424296,1,10,0:0:0:0:
438,315,424378,1,2,0:0:0:0:
455,271,424460,1,10,0:0:0:0:
456,223,424543,1,2,0:0:0:0:
442,177,424625,1,10,0:0:0:0:
414,137,424708,1,2,0:0:0:0:
371,117,424790,1,10,0:0:0:0:
324,111,424872,1,2,0:0:0:0:
277,122,424955,1,10,0:0:0:0:
237,147,425037,1,2,0:0:0:0:
191,161,425120,1,10,0:0:0:0:
143,162,425202,1,2,0:0:0:0:
97,147,425285,1,10,0:0:0:0:
59,118,425367,1,2,0:0:0:0:
46,72,425449,37,10,0:0:0:0:
69,30,425532,1,2,0:0:0:0:
114,10,425614,1,10,0:0:0:0:
161,16,425697,1,2,0:0:0:0:
192,51,425779,1,10,0:0:0:0:
195,98,425862,1,2,0:0:0:0:
174,140,425944,1,10,0:0:0:0:
144,177,426026,1,2,0:0:0:0:
126,221,426109,1,10,0:0:0:0:
118,267,426191,1,2,0:0:0:0:
127,313,426274,1,10,0:0:0:0:
155,351,426356,1,2,0:0:0:0:
199,368,426438,1,10,0:0:0:0:
246,366,426521,1,2,0:0:0:0:
288,344,426603,1,10,0:0:0:0:
317,306,426686,1,2,0:0:0:0:
330,260,426768,101,10,0:0:0:0:
312,215,426851,1,2,0:0:0:0:
278,181,426933,1,10,0:0:0:0:
231,170,427015,1,2,0:0:0:0:
189,194,427098,1,10,0:0:0:0:
178,240,427180,1,2,0:0:0:0:
200,282,427263,1,10,0:0:0:0:
244,298,427345,1,2,0:0:0:0:
289,283,427427,1,10,0:0:0:0:
321,247,427510,1,2,0:0:0:0:
337,202,427592,1,10,0:0:0:0:
333,154,427675,1,2,0:0:0:0:
315,110,427757,1,10,0:0:0:0:
319,62,427840,1,2,0:0:0:0:
353,29,427922,1,10,0:0:0:0:
398,16,428004,1,2,0:0:0:0:
444,26,428087,5,14,0:0:0:0:
428,70,428169,1,2,0:0:0:0:
388,96,428252,1,10,0:0:0:0:
342,107,428334,1,2,0:0:0:0:
294,110,428416,1,10,0:0:0:0:
249,93,428499,1,2,0:0:0:0:
210,65,428581,1,10,0:0:0:0:
165,48,428664,1,2,0:0:0:0:
117,43,428746,1,10,0:0:0:0:
70,52,428829,1,2,0:0:0:0:
30,78,428911,1,10,0:0:0:0:
5,118,428993,1,2,0:0:0:0:
1,165,429076,2,0,L|10:230,3,47.5,10|2|2|2,0:0|0:0|0:0|0:0,0:0:0:0:
52,332,429405,101,8,0:0:0:0:
95,351,429488,2,0,P|136:359|196:344,1,95,2|2,0:0|0:0,0:0:0:0:
232,333,429735,2,0,P|277:322|324:330,1,95,8|2,0:0|0:0,0:0:0:0:
369,347,429982,1,2,0:0:0:0:
398,384,430065,1,8,0:0:0:0:
502,287,430230,2,0,P|510:239|499:190,1,95,2|2,0:0|0:0,0:0:0:0:
474,154,430477,1,2,0:0:0:0:
473,106,430559,1,2,0:0:0:0:
494,63,430642,1,2,0:0:0:0:
362,298,432702,21,4,0:0:0:0:
149,85,433362,5,4,0:0:0:0:
255,343,434021,5,4,0:0:0:0:
256,40,434680,5,4,0:0:0:0:
149,298,435340,5,4,0:0:0:0:
362,85,435999,5,4,0:0:0:0:
104,191,436659,5,4,0:0:0:0:
407,192,437318,5,4,0:0:0:0:
407,192,437812,5,2,0:0:0:0:
407,192,437894,1,2,0:0:0:0:
407,192,437977,2,0,P|366:160|431:151,1,142.5,8|0,0:0|0:0,0:0:0:0:
487,243,438636,54,0,P|438:279|352:267,1,142.500005435944,4|2,0:0|0:0,0:0:0:0:
331,166,439131,1,2,0:0:0:0:
260,241,439296,2,0,L|265:388,1,142.500005435944,8|2,0:0|0:0,0:0:0:0:
169,347,439790,2,0,L|164:200,1,142.500005435944,2|2,0:0|0:0,0:0:0:0:
160,95,440285,1,2,0:0:0:0:
331,166,440614,5,10,0:0:0:0:
363,181,440697,1,2,0:0:0:0:
398,185,440779,1,2,0:0:0:0:
433,180,440862,1,2,0:0:0:0:
465,165,440944,1,2,0:0:0:0:
486,136,441026,1,2,0:0:0:0:
500,103,441109,1,2,0:0:0:0:
500,67,441191,1,2,0:0:0:0:
488,33,441274,102,0,L|346:38,1,142.500005435944,4|2,0:0|0:0,0:0:0:0:
331,166,441768,1,2,0:0:0:0:
266,233,441933,2,0,P|236:166|263:99,1,142.500005435944,8|2,0:0|0:0,0:0:0:0:
356,257,442427,6,0,P|332:300|239:319,1,142.500005435944,2|2,0:0|0:0,0:0:0:0:
331,166,442922,2,0,P|380:165|443:236,1,142.500005435944,2|8,0:0|0:0,0:0:0:0:
442,357,443416,1,8,0:0:0:0:
442,357,443911,102,0,L|449:205,1,142.500005435944,4|2,0:0|0:0,0:0:0:0:
352,78,444405,1,2,0:0:0:0:
331,166,444570,2,0,P|377:167|444:94,1,142.500005435944,8|2,0:0|0:0,0:0:0:0:
261,95,445065,6,0,L|269:248,1,142.500005435944,2|0,0:0|0:0,0:0:0:0:
208,334,445559,2,0,P|148:357|66:336,1,142.500005435944,2|8,0:0|0:0,0:0:0:0:
74,131,446219,1,2,0:0:0:0:
3,238,446383,1,2,0:0:0:0:
127,244,446548,102,0,L|275:241,1,142.500005435944,4|2,0:0|0:0,0:0:0:0:
427,236,447043,1,2,0:0:0:0:
337,292,447208,2,0,P|320:248|356:157,1,142.500005435944,8|2,0:0|0:0,0:0:0:0:
451,130,447702,6,0,L|303:133,1,142.500005435944,2|2,0:0|0:0,0:0:0:0:
205,77,448197,2,0,P|157:61|70:100,1,142.500005435944,2|8,0:0|0:0,0:0:0:0:
36,204,448691,1,2,0:0:0:0:
40,239,448774,1,2,0:0:0:0:
50,272,448856,1,2,0:0:0:0:
71,300,448938,1,2,0:0:0:0:
100,320,449021,1,2,0:0:0:0:
134,329,449103,1,2,0:0:0:0:
169,325,449186,102,0,P|237:309|308:324,1,142.500005435944,4|2,0:0|0:0,0:0:0:0:
416,375,449680,1,2,0:0:0:0:
371,262,449845,2,0,P|351:200|371:121,1,142.500005435944,8|2,0:0|0:0,0:0:0:0:
474,80,450340,6,0,L|322:80,1,142.500005435944,2|8,0:0|0:0,0:0:0:0:
250,173,450834,2,0,L|257:329,1,142.500005435944,2|8,0:0|0:0,0:0:0:0:
125,203,451493,1,2,0:0:0:0:
252,82,451823,102,0,P|313:103|342:178,1,142.500005435944,4|2,0:0|0:0,0:0:0:0:
275,258,452318,1,2,0:0:0:0:
205,176,452482,2,0,L|214:29,1,142.500005435944,8|2,0:0|0:0,0:0:0:0:
83,67,452977,6,0,L|88:143,1,71.2500027179719,2|0,0:0|0:0,0:0:0:0:
94,243,453307,1,8,0:0:0:0:
101,350,453471,1,2,0:0:0:0:
101,350,453636,1,0,0:0:0:0:
275,258,453801,2,0,P|325:253|386:294,1,106.875004076958,8|8,0:0|0:0,0:0:0:0:
396,310,454131,1,8,0:0:0:0:
347,185,454296,1,8,0:0:0:0:
303,352,454460,102,0,L|155:346,1,142.500005435944,4|2,0:0|0:0,0:0:0:0:
94,243,454955,1,0,0:0:0:0:
26,347,455120,1,8,0:0:0:0:
78,91,455340,5,0,0:0:0:0:
275,258,455559,101,0,0:0:0:0:
13,158,455779,6,0,P|-8:97|20:16,1,142.500005435944,4|0,0:0|0:0,0:0:0:0:
98,94,456274,1,0,0:0:0:0:
98,94,456356,1,0,0:0:0:0:
98,94,456438,2,0,P|163:111|237:90,1,142.500005435944,8|0,0:0|0:0,0:0:0:0:
443,20,457098,102,0,B|429:87|429:87|444:168,1,142.500005435944,4|0,0:0|0:0,0:0:0:0:
498,254,457592,1,2,0:0:0:0:
441,346,457757,2,0,P|375:362|299:345,1,142.500005435944,8|0,0:0|0:0,0:0:0:0:
212,286,458252,1,2,0:0:0:0:
212,286,458334,1,0,0:0:0:0:
212,286,458416,6,0,B|204:234|204:234|211:173,1,106.875004076958,8|2,0:0|0:0,0:0:0:0:
242,164,458746,2,0,P|174:181|97:159,1,142.500005435944,2|0,0:0|0:0,0:0:0:0:
85,133,459158,1,2,0:0:0:0:
78,97,459241,1,2,0:0:0:0:
84,62,459323,1,2,0:0:0:0:
108,36,459405,2,0,L|185:40,1,71.2500027179719,2|0,0:0|0:0,0:0:0:0:
256,192,459735,12,4,462372,0:0:0:0:
158,54,470285,101,0,0:0:0:0:
174,165,470449,1,0,0:0:0:0:
76,122,470614,1,8,0:0:0:0:
259,98,470779,1,0,0:0:0:0:
87,225,470944,5,0,0:0:0:0:
158,54,471109,1,0,0:0:0:0:
273,202,471274,1,8,0:0:0:0:
76,122,471438,1,0,0:0:0:0:
259,98,471603,101,0,0:0:0:0:
356,141,471768,1,0,0:0:0:0:
366,247,471933,1,8,0:0:0:0:
280,311,472098,1,0,0:0:0:0:
259,98,472263,5,0,0:0:0:0:
348,40,472427,1,0,0:0:0:0:
444,86,472592,1,8,0:0:0:0:
453,192,472757,1,0,0:0:0:0:
200,219,472922,21,0,0:0:0:0:
160,375,473087,1,0,0:0:0:0:
200,219,473252,1,8,0:0:0:0:
352,9,473581,37,0,0:0:0:0:
312,165,473746,1,0,0:0:0:0:
352,9,473911,1,8,0:0:0:0:
73,96,474241,69,0,0:0:0:0:
229,136,474406,1,0,0:0:0:0:
73,96,474571,1,8,0:0:0:0:
439,288,474900,37,0,0:0:0:0:
283,248,475065,1,0,0:0:0:0:
439,288,475230,1,8,0:0:0:0:
283,248,475559,21,0,0:0:0:0:
318,373,475724,1,0,0:0:0:0:
204,272,475889,1,8,0:0:0:0:
305,167,476054,1,0,0:0:0:0:
414,261,476219,5,0,0:0:0:0:
239,351,476383,1,0,0:0:0:0:
220,190,476548,1,8,0:0:0:0:
389,178,476713,1,0,0:0:0:0:
395,342,476878,101,0,0:0:0:0:
291,370,477043,1,0,0:0:0:0:
187,344,477208,1,8,0:0:0:0:
134,251,477372,1,0,0:0:0:0:
209,66,477537,5,0,0:0:0:0:
264,158,477702,1,0,0:0:0:0:
260,265,477867,1,8,0:0:0:0:
187,344,478032,1,0,0:0:0:0:
63,127,478197,85,0,0:0:0:0:
209,66,478362,1,0,0:0:0:0:
63,127,478526,1,8,0:0:0:0:
449,127,478856,85,0,0:0:0:0:
303,66,479021,1,0,0:0:0:0:
449,127,479185,1,8,0:0:0:0:
63,257,479515,21,0,0:0:0:0:
209,318,479680,1,0,0:0:0:0:
63,257,479844,1,8,0:0:0:0:
449,257,480174,85,0,0:0:0:0:
303,318,480339,1,0,0:0:0:0:
449,257,480503,1,8,0:0:0:0:
449,257,480834,38,0,B|414:189|444:138|444:138|399:155|350:100|407:23|467:98,1,285.000010871888
344,205,481658,2,0,B|279:238|211:205|211:205|144:175|62:208,1,285.000010871888
128,252,482482,2,0,P|22:263|126:156,1,356.25001358986
208,254,483471,5,0,0:0:0:0:
109,369,483636,1,0,0:0:0:0:
208,254,483801,1,8,0:0:0:0:
109,15,484131,101,0,0:0:0:0:
208,130,484296,1,0,0:0:0:0:
109,15,484461,1,8,0:0:0:0:
403,15,484790,5,0,0:0:0:0:
304,130,484955,1,0,0:0:0:0:
403,15,485120,1,8,0:0:0:0:
403,369,485450,101,0,0:0:0:0:
304,254,485614,1,0,0:0:0:0:
304,254,485697,1,0,0:0:0:0:
304,254,485779,1,8,0:0:0:0:
462,213,486109,5,0,0:0:0:0:
482,114,486274,1,0,0:0:0:0:
375,209,486438,1,8,0:0:0:0:
353,114,486603,1,0,0:0:0:0:
304,254,486768,101,0,0:0:0:0:
238,180,486933,1,0,0:0:0:0:
259,330,487098,1,8,0:0:0:0:
166,296,487263,1,0,0:0:0:0:
85,133,487427,5,0,0:0:0:0:
65,232,487592,1,0,0:0:0:0:
172,137,487756,1,8,0:0:0:0:
194,232,487921,1,0,0:0:0:0:
243,92,488086,101,0,0:0:0:0:
309,166,488251,1,0,0:0:0:0:
288,16,488416,1,8,0:0:0:0:
381,50,488581,1,0,0:0:0:0:
486,272,488746,85,0,0:0:0:0:
486,112,488911,1,0,0:0:0:0:
486,272,489076,1,8,0:0:0:0:
26,272,489405,69,0,0:0:0:0:
26,112,489570,1,0,0:0:0:0:
26,272,489735,1,8,0:0:0:0:
357,192,490065,5,0,0:0:0:0:
510,192,490230,1,0,0:0:0:0:
357,192,490394,1,8,0:0:0:0:
2,192,490724,85,0,0:0:0:0:
155,192,490889,1,0,0:0:0:0:
2,192,491053,1,8,0:0:0:0:
244,297,491219,6,0,P|283:214|232:74,1,237.5,4|0,0:0|0:0,0:0:0:0:
155,192,491713,1,8,0:0:0:0:
341,336,491878,1,0,0:0:0:0:
155,192,492043,1,0,0:0:0:0:
341,48,492208,1,0,0:0:0:0:
406,279,492372,1,8,0:0:0:0:
167,327,492537,102,0,P|91:319|22:175,1,237.5,4|0,0:0|0:0,0:0:0:0:
112,5,493032,1,8,0:0:0:0:
141,208,493197,1,0,0:0:0:0:
0,61,493362,1,0,0:0:0:0:
204,95,493526,1,0,0:0:0:0:
19,188,493691,1,8,0:0:0:0:
204,95,493856,6,0,P|293:50|418:128,1,237.5,4|0,0:0|0:0,0:0:0:0:
302,377,494351,1,8,0:0:0:0:
302,159,494515,1,0,0:0:0:0:
441,354,494680,1,0,0:0:0:0:
208,357,494845,1,0,0:0:0:0:
442,217,495010,1,8,0:0:0:0:
206,220,495175,102,0,B|100:225|100:225|82:215|82:215|-38:222,1,237.5,4|0,0:0|0:0,0:0:0:0:
305,273,495669,2,0,P|317:215|301:158,1,118.75,8|0,0:0|0:0,0:0:0:0:
37,166,495999,2,0,P|25:223|41:280,1,118.75
285,280,496329,1,8,0:0:0:0:
211,71,496493,1,0,0:0:0:0:
208,357,496658,6,0,L|292:352,1,71.2500027179719,8|0,0:0|0:0,0:0:0:0:
280,197,496988,2,0,L|208:192,1,71.2500027179719
358,345,497318,2,0,L|442:340,1,71.2500027179719
429,205,497647,2,0,L|357:200,1,71.2500027179719,8|0,0:0|0:0,0:0:0:0:
132,186,497977,101,4,0:0:0:0:
378,80,503087,85,0,0:0:0:0:
378,80,503169,1,0,0:0:0:0:
378,80,503252,1,4,0:0:0:0:
460,177,503581,2,0,P|471:235|460:374,2,190
277,40,505394,5,8,0:0:0:0:
278,199,505724,1,8,0:0:0:0:
278,199,507043,2,0,L|278:243,1,35.625001358986,8|8,0:0|0:0,0:0:0:0:
186,296,507208,102,0,L|186:337,3,35.625001358986,8|8|8|8,0:0|0:0|0:0|0:0,0:0:0:0:
98,238,507537,2,0,L|97:193,3,35.625001358986,8|8|8|8,0:0|0:0|0:0|0:0,0:0:0:0:
98,88,507867,1,8,0:0:0:0:
275,86,508032,1,8,0:0:0:0:
275,86,508362,6,0,P|331:93|398:39,1,142.500005435944,4|0,0:0|0:0,0:0:0:0:
472,132,508856,2,0,P|477:164|474:205,1,71.2500027179719,2|0,0:0|0:0,0:0:0:0:
363,263,509186,2,0,P|358:231|361:190,1,71.2500027179719,2|0,0:0|0:0,0:0:0:0:
421,323,509515,2,0,P|386:344|353:344,1,71.2500027179719,2|0,0:0|0:0,0:0:0:0:
253,271,509845,102,0,L|255:197,1,71.2500027179719,2|0,0:0|0:0,0:0:0:0:
161,87,510175,2,0,L|167:172,1,71.2500027179719,2|0,0:0|0:0,0:0:0:0:
80,272,510504,1,8,0:0:0:0:
329,270,510669,1,8,0:0:0:0:
329,270,510999,6,0,P|344:205|329:131,1,142.500005435944,4|8,0:0|0:0,0:0:0:0:
242,206,511493,101,8,0:0:0:0:
268,65,511658,1,8,0:0:0:0:
141,171,511823,5,8,0:0:0:0:
348,161,511988,1,8,0:0:0:0:
240,333,512153,101,8,0:0:0:0:
133,66,512318,1,8,0:0:0:0:
432,91,512482,6,0,P|451:153|430:232,1,142.500005435944,8|2,0:0|0:0,0:0:0:0:
412,256,512894,1,2,0:0:0:0:
384,278,512977,1,2,0:0:0:0:
353,295,513059,1,2,0:0:0:0:
319,308,513142,1,2,0:0:0:0:
284,314,513224,1,2,0:0:0:0:
248,319,513307,1,2,0:0:0:0:
212,319,513389,1,2,0:0:0:0:
176,317,513471,1,2,0:0:0:0:
140,310,513554,1,2,0:0:0:0:
107,295,513636,1,2,0:0:0:0:
78,272,513719,1,2,0:0:0:0:
56,244,513801,102,0,P|47:200|63:130,1,95,6|0,0:0|0:0,0:0:0:0:
245,100,514131,2,0,P|254:144|238:214,1,95,12|0,0:0|0:0,0:0:0:0:
179,43,514460,2,0,P|214:19|277:21,1,95,6|2,0:0|0:0,0:0:0:0:
396,113,514790,1,12,0:0:0:0:
256,179,514955,1,0,0:0:0:0:
351,45,515120,5,6,0:0:0:0:
419,197,515285,2,0,P|428:243|417:298,1,95,0|12,0:0|0:0,0:0:0:0:
256,350,515614,2,0,P|248:303|258:249,1,95,0|6,0:0|0:0,0:0:0:0:
420,175,515944,1,2,0:0:0:0:
212,175,516109,1,12,0:0:0:0:
212,175,516438,102,0,L|114:180,1,95,6|0,0:0|0:0,0:0:0:0:
204,55,516768,2,0,P|250:58|296:96,1,95,12|0,0:0|0:0,0:0:0:0:
285,233,517098,2,0,L|281:331,1,95,6|2,0:0|0:0,0:0:0:0:
365,371,517427,1,12,0:0:0:0:
370,204,517592,1,0,0:0:0:0:
207,280,517757,5,6,0:0:0:0:
365,371,517922,2,0,P|414:378|465:368,1,95,0|12,0:0|0:0,0:0:0:0:
207,280,518252,2,0,P|158:273|107:283,1,95,0|6,0:0|0:0,0:0:0:0:
213,370,518581,1,2,0:0:0:0:
212,175,518746,1,12,0:0:0:0:
507,174,519076,101,6,0:0:0:0:
212,175,519405,2,0,P|148:178|79:79,1,190,12|6,0:0|0:0,0:0:0:0:
119,250,519900,1,2,0:0:0:0:
164,88,520065,1,12,0:0:0:0:
235,299,520230,1,0,0:0:0:0:
212,175,520394,5,6,0:0:0:0:
163,343,520559,2,0,P|117:353|65:342,1,95,0|12,0:0|0:0,0:0:0:0:
212,175,520889,2,0,P|258:165|310:176,2,95,0|6|2,0:0|0:0|0:0,0:0:0:0:
114,278,521383,1,12,0:0:0:0:
114,278,521713,102,0,P|70:214|96:96,1,190,6|12,0:0|0:0,0:0:0:0:
224,36,522208,1,0,0:0:0:0:
303,164,522372,2,0,P|258:179|198:170,1,95,6|2,0:0|0:0,0:0:0:0:
131,27,522702,1,12,0:0:0:0:
459,31,523032,6,0,P|444:89|463:175,1,142.5,4|0,0:0|0:0,0:0:0:0:
482,190,523362,2,0,B|417:181|417:181|332:193,1,142.5,4|0,0:0|0:0,0:0:0:0:
311,204,523691,2,0,B|234:214|234:214|169:205,1,142.5,4|0,0:0|0:0,0:0:0:0:
142,198,524021,1,4,0:0:0:0:
404,269,524351,86,0,P|420:201|401:128,1,142.500005435944,4|2,0:0|0:1,0:0:0:0:
338,46,524845,1,0,0:0:0:0:
250,107,525010,2,0,B|215:119|215:119|103:114,1,142.500005435944,12|2,0:0|0:1,0:0:0:0:
14,301,525669,85,12,0:0:0:0:
104,357,525834,1,8,0:0:0:0:
209,372,525999,1,2,0:1:0:0:
309,334,526164,1,0,0:0:0:0:
383,256,526329,21,12,0:0:0:0:
383,228,526411,1,2,0:0:0:0:
383,200,526493,1,2,0:0:0:0:
383,172,526576,1,2,0:0:0:0:
383,144,526658,1,10,0:3:0:0:
383,116,526741,1,2,0:0:0:0:
383,88,526823,1,2,0:0:0:0:
383,60,526905,1,2,0:0:0:0:
383,32,526988,86,0,P|319:15|241:31,1,142.500005435944,12|2,0:0|0:1,0:0:0:0:
174,115,527482,1,0,0:0:0:0:
86,184,527647,2,0,P|68:135|88:47,1,142.500005435944,12|2,0:0|0:1,0:0:0:0:
174,115,528142,1,2,0:0:0:0:
174,115,528224,1,2,0:0:0:0:
174,115,528307,21,12,0:0:0:0:
288,118,528471,2,0,B|337:115|337:115|382:123|382:123|441:119,1,142.500005435944,8|0,0:0|0:0,0:0:0:0:
493,206,528966,1,12,0:0:0:0:
422,286,529131,1,2,0:0:0:0:
422,286,529213,1,2,0:0:0:0:
422,286,529296,1,2,0:0:0:0:
357,201,529460,1,0,0:0:0:0:
276,341,529625,86,0,P|217:361|133:326,1,142.500005435944,12|2,0:0|0:1,0:0:0:0:
105,206,530120,1,0,0:0:0:0:
213,133,530285,2,0,P|231:198|211:275,1,142.500005435944,12|2,0:0|0:1,0:0:0:0:
105,206,530779,1,2,0:0:0:0:
105,206,530862,1,2,0:0:0:0:
105,206,530944,21,12,0:0:0:0:
126,86,531109,1,8,0:0:0:0:
238,40,531274,1,2,0:1:0:0:
357,53,531438,1,0,0:0:0:0:
432,147,531603,2,0,P|437:182|429:233,1,71.2500027179719,12|0,0:0|0:0,0:0:0:0:
410,297,531851,1,0,0:0:0:0:
410,297,531933,1,12,0:0:0:0:
213,240,532263,86,0,P|193:168|223:102,1,142.500005435944,12|0,0:0|0:0,0:0:0:0:
307,255,532757,2,0,P|278:308|190:328,1,142.500005435944,12|0,0:0|0:0,0:0:0:0:
85,276,533252,1,12,0:0:0:0:
87,149,533416,1,0,0:0:0:0:
87,149,533499,1,0,0:0:0:0:
87,149,533581,22,0,L|88:70,1,71.2500027179719,4|0,0:0|0:0,0:0:0:0:
209,35,533911,2,0,P|244:26|320:38,1,106.875004076958,4|0,0:0|0:0,0:0:0:0:
335,57,534241,2,0,L|332:165,1,106.875004076958,4|0,0:0|0:0,0:0:0:0:
339,194,534570,1,8,0:0:0:0:
338,222,534653,1,8,0:0:0:0:
337,250,534735,1,8,0:0:0:0:
337,278,534818,1,8,0:0:0:0:
337,306,534900,53,12,0:0:0:0:
248,151,535065,1,0,0:0:0:0:
444,150,535230,1,12,0:0:0:0:
337,306,535394,1,0,0:0:0:0:
248,151,535559,2,0,P|239:102|250:50,1,95,0|2,0:0|0:0,0:0:0:0:
326,18,535807,1,2,0:0:0:0:
326,18,535889,2,0,L|423:21,1,95,12|0,0:0|0:0,0:0:0:0:
512,189,536219,101,0,0:0:0:0:
340,174,536383,1,2,0:0:0:0:
435,38,536548,1,12,0:0:0:0:
512,189,536713,1,0,0:0:0:0:
387,297,536878,2,0,P|342:305|287:296,1,95,2|0,0:0|0:0,0:0:0:0:
139,194,537208,2,0,P|130:153|140:100,1,95,12|0,0:0|0:0,0:0:0:0:
217,241,537537,6,0,P|178:277|129:283,1,95,0|2,0:0|0:0,0:0:0:0:
59,245,537785,1,2,0:0:0:0:
59,245,537867,1,12,0:0:0:0:
139,101,538032,1,0,0:0:0:0:
291,195,538197,102,0,P|300:238|287:298,1,95,0|2,0:0|0:0,0:0:0:0:
232,349,538444,1,2,0:0:0:0:
232,349,538526,1,12,0:0:0:0:
59,245,538691,1,2,0:0:0:0:
59,245,538774,1,2,0:0:0:0:
59,245,538856,6,0,L|60:144,1,95,2|2,0:0|0:0,0:0:0:0:
60,64,539103,1,2,0:0:0:0:
60,64,539186,1,12,0:0:0:0:
177,174,539351,1,0,0:0:0:0:
281,65,539515,2,0,P|326:58|378:69,1,95,2|2,0:0|0:0,0:0:0:0:
439,131,539763,1,2,0:0:0:0:
439,131,539845,2,0,P|432:177|444:229,1,95,12|2,0:0|0:0,0:0:0:0:
491,297,540092,1,2,0:0:0:0:
491,297,540175,102,0,P|442:307|394:295,1,95,0|2,0:0|0:0,0:0:0:0:
330,246,540422,1,2,0:0:0:0:
330,246,540504,2,0,P|283:236|237:246,1,95,12|0,0:0|0:0,0:0:0:0:
83,297,540834,2,0,P|74:253|84:203,1,95,2|2,0:0|0:0,0:0:0:0:
145,141,541081,1,2,0:0:0:0:
145,141,541164,2,0,L|240:145,1,95,12|2,0:0|0:0,0:0:0:0:
330,148,541411,1,2,0:0:0:0:
330,148,541493,6,0,L|427:143,1,95
332,16,541823,1,12,0:0:0:0:
239,144,541988,2,0,P|230:193|242:243,1,95
362,337,542318,1,2,0:0:0:0:
362,337,542400,1,2,0:0:0:0:
362,337,542482,2,0,L|467:338,1,95,12|0,0:0|0:0,0:0:0:0:
473,174,542812,101,12,0:0:0:0:
333,245,542977,1,2,0:0:0:0:
333,245,543059,1,2,0:0:0:0:
333,245,543142,1,8,0:0:0:0:
332,16,543307,1,12,0:0:0:0:
332,16,543636,5,2,0:0:0:0:
68,16,543801,1,12,0:0:0:0:
68,16,544131,101,12,0:0:0:0:
154,158,544296,1,2,0:0:0:0:
154,158,544378,1,2,0:0:0:0:
154,158,544460,1,8,0:0:0:0:
242,16,544625,1,12,0:0:0:0:
242,16,544955,5,2,0:0:0:0:
243,278,545120,1,12,0:0:0:0:
243,278,545449,101,12,0:0:0:0:
332,136,545614,1,2,0:0:0:0:
332,136,545697,1,2,0:0:0:0:
332,136,545779,1,8,0:0:0:0:
417,279,545944,1,12,0:0:0:0:
417,279,546274,5,12,0:0:0:0:
142,282,546438,2,0,L|83:279,1,47.5,12|0,0:0|0:0,0:0:0:0:
265,335,546603,2,0,L|265:387,1,47.5
417,279,546768,1,12,0:0:0:0:
512,93,547015,70,0,P|477:101|423:94,1,71.2500027179719
360,49,547345,2,0,L|360:13,2,35.625001358986
276,99,547675,1,0,0:0:0:0:
276,99,547757,1,0,0:0:0:0:
40,168,548087,38,0,L|43:231,1,47.5,12|0,0:0|0:0,0:0:0:0:
45,313,548416,1,0,0:0:0:0:
45,313,548581,1,8,0:0:0:0:
137,131,548746,102,0,L|140:205,1,71.2500027179719,12|0,0:0|0:0,0:0:0:0:
144,325,549076,1,0,0:0:0:0:
144,325,549241,1,8,0:0:0:0:
225,94,549405,6,0,L|229:201,1,95,12|0,0:0|0:0,0:0:0:0:
237,336,549735,1,0,0:0:0:0:
237,336,549900,1,8,0:0:0:0:
314,66,550065,101,12,0:0:0:0:
333,364,550230,1,0,0:0:0:0:
228,188,550394,1,4,0:0:0:0:
470,187,550559,1,0,0:0:0:0:
237,336,550724,6,0,L|182:334,1,47.5,12|0,0:0|0:0,0:0:0:0:
82,328,551054,1,0,0:0:0:0:
82,328,551219,1,8,0:0:0:0:
289,246,551383,102,0,L|216:243,1,71.2500027179719,12|0,0:0|0:0,0:0:0:0:
69,235,551713,1,0,0:0:0:0:
69,235,551878,1,8,0:0:0:0:
344,162,552043,6,0,L|244:156,1,95,12|0,0:0|0:0,0:0:0:0:
56,146,552372,1,0,0:0:0:0:
56,146,552537,1,8,0:0:0:0:
394,79,552702,102,0,L|273:70,1,118.75,12|0,0:0|0:0,0:0:0:0:
56,146,553032,2,0,P|26:223|56:314,1,178.125,4|0,0:0|0:0,0:0:0:0:
79,328,553362,22,0,L|199:325,1,118.75,4|8,0:0|0:0,0:0:0:0:
344,162,553691,2,0,P|285:157|226:189,1,118.75,4|8,0:0|0:0,0:0:0:0:
391,339,554021,1,4,0:0:0:0:
388,127,554186,1,8,0:0:0:0:
212,215,554351,2,0,L|93:210,1,118.75,0|8,0:0|0:0,0:0:0:0:
248,364,554680,5,4,0:0:0:0:
391,339,554845,1,8,0:0:0:0:
469,220,555010,1,4,0:0:0:0:
453,78,555175,1,8,0:0:0:0:
142,44,555340,5,4,0:0:0:0:
198,199,555504,1,8,0:0:0:0:
361,228,555669,1,0,0:0:0:0:
506,147,555834,1,8,0:0:0:0:
360,68,555999,85,4,0:0:0:0:
361,228,556164,1,8,0:0:0:0:
453,78,556329,1,4,0:0:0:0:
318,173,556493,1,8,0:0:0:0:
469,220,556658,1,4,0:0:0:0:
360,68,556823,2,0,P|302:59|243:89,1,118.75,8|0,0:0|0:0,0:0:0:0:
146,233,557153,6,0,P|92:257|34:248,1,118.75,8|0,0:0|0:0,0:0:0:0:
81,80,557482,1,8,0:0:0:0:
229,178,557647,2,0,P|243:232|231:296,1,118.75,0|8,0:0|0:0,0:0:0:0:
76,155,557977,2,0,L|83:24,1,118.75,0|8,0:0|0:0,0:0:0:0:
324,40,558307,2,0,L|453:43,1,118.75,0|8,0:0|0:0,0:0:0:0:
427,215,558636,6,0,P|370:226|310:198,1,118.75,4|8,0:0|0:0,0:0:0:0:
491,144,558966,2,0,P|516:199|510:260,1,118.75,0|8,0:0|0:0,0:0:0:0:
379,321,559296,1,0,0:0:0:0:
382,137,559460,1,8,0:0:0:0:
379,321,559625,86,0,L|255:321,2,118.75,0|8|4,0:0|0:0|0:0,0:0:0:0:
303,157,560120,1,8,0:0:0:0:
146,264,560285,2,0,P|136:321|151:389,1,118.75,0|8,0:0|0:0,0:0:0:0:
303,157,560614,2,0,P|313:100|298:32,1,118.75,0|8,0:0|0:0,0:0:0:0:
82,39,560944,2,0,P|72:96|87:164,1,118.75,0|8,0:0|0:0,0:0:0:0:
245,219,561274,5,4,0:0:0:0:
108,339,561438,2,0,P|55:351|-13:338,1,118.75,8|0,0:0|0:0,0:0:0:0:
84,156,561768,2,0,P|137:144|205:157,1,118.75,8|0,0:0|0:0,0:0:0:0:
352,257,562098,2,0,L|349:379,1,118.75,8|0,0:0|0:0,0:0:0:0:
465,166,562427,6,0,L|468:44,1,118.75,8|0,0:0|0:0,0:0:0:0:
328,11,562757,1,8,0:0:0:0:
186,25,562922,1,0,0:0:0:0:
95,135,563087,1,8,0:0:0:0:
91,277,563252,21,4,0:0:0:0:
3,82,563416,1,8,0:0:0:0:
203,142,563581,1,8,0:0:0:0:
245,164,563664,1,8,0:0:0:0:
291,171,563746,1,8,0:0:0:0:
338,164,563829,1,8,0:0:0:0:
381,145,563911,54,0,P|392:90|376:21,1,118.75,4|8,0:0|0:0,0:0:0:0:
203,142,564241,1,4,0:0:0:0:
385,248,564405,1,8,0:0:0:0:
281,71,564570,1,4,0:0:0:0:
163,224,564735,1,8,0:0:0:0:
331,329,564900,2,0,P|391:342|450:323,1,118.75,0|8,0:0|0:0,0:0:0:0:
503,123,565230,5,4,0:0:0:0:
387,40,565394,1,8,0:0:0:0:
245,18,565559,1,4,0:0:0:0:
106,51,565724,1,8,0:0:0:0:
119,370,565889,5,4,0:0:0:0:
276,316,566054,1,8,0:0:0:0:
327,157,566219,1,0,0:0:0:0:
245,18,566383,1,8,0:0:0:0:
247,194,566548,85,4,0:0:0:0:
339,45,566713,1,8,0:0:0:0:
339,244,566878,1,4,0:0:0:0:
268,101,567043,1,8,0:0:0:0:
276,316,567208,1,4,0:0:0:0:
431,211,567372,2,0,P|442:149|426:92,1,118.75,8|0,0:0|0:0,0:0:0:0:
164,141,567702,6,0,P|153:203|169:260,1,118.75,8|0,0:0|0:0,0:0:0:0:
327,157,568032,1,8,0:0:0:0:
195,48,568197,2,0,P|138:45|84:80,1,118.75,0|8,0:0|0:0,0:0:0:0:
37,242,568526,2,0,L|42:364,1,118.75,0|8,0:0|0:0,0:0:0:0:
185,222,568856,1,0,0:0:0:0:
3,138,569021,1,8,0:0:0:0:
3,138,569103,1,0,0:0:0:0:
3,138,569186,6,0,P|-11:83|6:18,1,118.75,4|8,0:0|0:0,0:0:0:0:
263,169,569515,2,0,P|277:224|260:289,1,118.75,0|8,0:0|0:0,0:0:0:0:
195,48,569845,2,0,P|246:31|318:46,1,118.75,0|8,0:0|0:0,0:0:0:0:
392,231,570175,2,0,P|449:241|505:224,1,118.75,0|8,0:0|0:0,0:0:0:0:
436,14,570504,86,0,P|420:74|439:129,1,118.75,4|8,0:0|0:0,0:0:0:0:
505,224,570834,1,0,0:0:0:0:
504,68,570999,1,8,0:0:0:0:
357,136,571164,2,0,L|235:132,1,118.75,0|8,0:0|0:0,0:0:0:0:
9,253,571493,2,0,L|133:246,1,118.75,0|8,0:0|0:0,0:0:0:0:
337,230,571823,5,4,0:0:0:0:
173,360,571988,1,8,0:0:0:0:
225,162,572153,1,0,0:0:0:0:
302,357,572318,2,0,P|363:363|421:333,1,118.75,8|0,0:0|0:0,0:0:0:0:
495,193,572647,2,0,L|489:75,1,118.75,8|0,0:0|0:0,0:0:0:0:
313,11,572977,1,8,0:0:0:0:
225,162,573142,37,12,0:0:0:0:
225,45,573307,1,0,0:0:0:0:
225,45,573389,1,0,0:0:0:0:
225,45,573471,1,12,0:0:0:0:
323,103,573636,1,0,0:0:0:0:
323,103,573719,1,0,0:0:0:0:
323,103,573801,1,12,0:0:0:0:
324,218,573966,1,0,0:0:0:0:
227,278,574131,1,12,0:0:0:0:
181,292,574213,1,0,0:0:0:0:
133,296,574296,1,0,0:0:0:0:
85,292,574378,1,0,0:0:0:0:
40,276,574460,53,4,0:0:0:0:
41,55,574625,2,0,P|97:40|158:55,1,118.75,4|0,0:0|0:0,0:0:0:0:
224,106,574872,1,0,0:0:0:0:
224,106,574955,2,0,P|281:119|339:108,1,118.75,12|0,0:0|0:0,0:0:0:0:
502,18,575285,2,0,L|497:136,1,118.75,12|0,0:0|0:0,0:0:0:0:
452,212,575532,1,0,0:0:0:0:
452,212,575614,2,0,L|455:340,1,118.75,12|0,0:0|0:0,0:0:0:0:
257,370,575944,6,0,P|200:383|134:369,1,118.75,12|0,0:0|0:0,0:0:0:0:
88,297,576191,1,0,0:0:0:0:
88,297,576274,2,0,L|92:179,1,118.75,12|0,0:0|0:0,0:0:0:0:
335,35,576603,2,0,L|339:155,1,118.75,12|0,0:0|0:0,0:0:0:0:
342,245,576851,1,0,0:0:0:0:
342,245,576933,1,12,0:0:0:0:
191,143,577098,6,0,P|180:86|194:28,1,118.75,0|12,0:0|0:0,0:0:0:0:
397,112,577427,1,0,0:0:0:0:
219,224,577592,1,12,0:0:0:0:
335,35,577757,2,0,P|412:20|499:144,1,237.5,0|8,0:0|0:0,0:0:0:0:
342,245,578252,1,0,0:0:0:0:
342,245,578334,1,0,0:0:0:0:
342,245,578416,6,0,L|258:240,1,71.2500027179719,4|0,0:0|0:0,0:0:0:0:
269,372,578746,2,0,L|340:367,1,71.2500027179719
176,234,579076,1,0,0:0:0:0:
177,377,579241,1,0,0:0:0:0:
177,377,579323,1,0,0:0:0:0:
177,377,579405,1,12,0:0:0:0:
87,262,579570,1,0,0:0:0:0:
175,103,579735,5,4,0:0:0:0:
149,266,579900,1,8,0:0:0:0:
26,163,580065,2,0,P|13:101|30:41,1,118.75,0|8,0:0|0:0,0:0:0:0:
149,266,580394,5,0,0:0:0:0:
175,103,580559,1,8,0:0:0:0:
304,205,580724,1,2,0:0:0:0:
304,205,580807,1,2,0:0:0:0:
304,205,580889,2,0,P|318:263|303:331,1,118.75,8|0,0:0|0:0,0:0:0:0:
175,103,581219,101,8,0:0:0:0:
49,212,581383,2,0,P|35:274|57:334,1,118.75,0|10,0:0|0:0,0:0:0:0:
122,368,581631,1,2,0:0:0:0:
122,368,581713,1,0,0:0:0:0:
201,187,581878,1,8,0:0:0:0:
201,187,581960,1,2,0:0:0:0:
201,187,582043,1,2,0:0:0:0:
331,337,582208,6,0,P|391:348|450:335,1,118.75,12|0,0:0|0:0,0:0:0:0:
511,180,582537,1,8,0:0:0:0:
451,26,582702,2,0,P|391:15|332:28,1,118.75,0|10,0:0|0:0,0:0:0:0:
275,83,582949,1,2,0:0:0:0:
275,83,583032,1,0,0:0:0:0:
274,260,583197,1,8,0:0:0:0:
274,260,583279,1,2,0:0:0:0:
274,260,583362,1,2,0:0:0:0:
359,111,583526,1,8,0:0:0:0:
187,111,583691,101,2,0:0:0:0:
187,111,583774,1,2,0:0:0:0:
187,111,583856,1,8,0:0:0:0:
360,203,584021,1,2,0:0:0:0:
360,203,584103,1,2,0:0:0:0:
360,203,584186,1,8,0:0:0:0:
275,53,584351,1,2,0:0:0:0:
186,204,584515,2,0,P|171:269|191:324,1,118.75,8|0,0:0|0:0,0:0:0:0:
360,317,584845,6,0,P|375:260|360:203,1,118.75,12|0,0:0|0:0,0:0:0:0:
275,53,585175,1,8,0:0:0:0:
186,204,585340,2,0,P|124:217|71:206,1,118.75,0|8,0:0|0:0,0:0:0:0:
17,139,585587,1,2,0:0:0:0:
17,139,585669,1,2,0:0:0:0:
171,41,585834,1,10,0:0:0:0:
215,23,585916,1,2,0:0:0:0:
262,17,585999,1,2,0:0:0:0:
309,21,586081,1,2,0:0:0:0:
354,34,586164,1,10,0:0:0:0:
389,65,586246,1,2,0:0:0:0:
411,107,586329,102,4,L|409:233,1,118.75,4|8,0:0|0:0,0:0:0:0:
403,384,586658,1,2,0:0:0:0:
403,384,586741,1,2,0:0:0:0:
403,384,586823,1,8,0:0:0:0:
512,253,586988,1,2,0:0:0:0:
349,304,587153,1,10,0:0:0:0:
303,314,587235,1,2,0:0:0:0:
255,316,587318,1,2,0:0:0:0:
208,306,587400,1,2,0:0:0:0:
171,276,587482,6,0,P|158:216|170:158,1,118.75,12|0,0:0|0:0,0:0:0:0:
243,36,587812,1,8,0:0:0:0:
83,130,587977,1,0,0:0:0:0:
251,218,588142,2,0,P|310:229|373:214,1,118.75,8|0,0:0|0:0,0:0:0:0:
497,118,588471,101,8,0:0:0:0:
414,286,588636,1,0,0:0:0:0:
306,132,588801,2,0,P|292:74|307:11,1,118.75,8|4,0:0|0:0,0:0:0:0:
414,286,589131,5,8,0:0:0:0:
381,320,589213,1,8,0:0:0:0:
335,336,589296,1,8,0:0:0:0:
288,341,589378,1,8,0:0:0:0:
241,334,589460,1,8,0:0:0:0:
196,317,589543,1,8,0:0:0:0:
157,290,589625,1,8,0:0:0:0:
128,251,589708,1,8,0:0:0:0:
109,207,589790,1,8,0:0:0:0:
104,159,589872,1,8,0:0:0:0:
108,111,589955,2,0,L|171:112,3,59.375,8|8|8|8,0:0|0:0|0:0|0:0,0:0:0:0:
255,24,590285,101,6,0:0:0:0:
259,71,590367,1,2,0:0:0:0:
284,110,590449,1,10,0:0:0:0:
322,137,590532,1,2,0:0:0:0:
366,151,590614,1,2,0:0:0:0:
413,153,590697,1,2,0:0:0:0:
457,137,590779,1,10,0:0:0:0:
483,97,590862,1,2,0:0:0:0:
480,49,590944,1,2,0:0:0:0:
443,18,591026,1,2,0:0:0:0:
395,23,591109,1,10,0:0:0:0:
362,57,591191,1,2,0:0:0:0:
358,104,591274,1,2,0:0:0:0:
366,151,591356,1,2,0:0:0:0:
389,190,591438,53,10,0:0:0:0:
415,229,591521,1,2,0:0:0:0:
429,272,591603,1,2,0:0:0:0:
431,320,591686,1,2,0:0:0:0:
407,361,591768,1,10,0:0:0:0:
362,378,591851,1,2,0:0:0:0:
314,374,591933,1,2,0:0:0:0:
276,345,592015,1,2,0:0:0:0:
254,302,592098,1,10,0:0:0:0:
236,345,592180,1,2,0:0:0:0:
198,374,592262,1,2,0:0:0:0:
150,378,592344,1,2,0:0:0:0:
105,361,592427,1,10,0:0:0:0:
81,320,592509,1,2,0:0:0:0:
83,273,592592,1,2,0:0:0:0:
97,229,592674,1,2,0:0:0:0:
123,190,592757,53,10,0:0:0:0:
146,151,592839,1,2,0:0:0:0:
154,104,592921,1,2,0:0:0:0:
150,57,593004,1,2,0:0:0:0:
117,23,593086,1,10,0:0:0:0:
69,18,593169,1,2,0:0:0:0:
32,49,593251,1,2,0:0:0:0:
29,97,593333,1,2,0:0:0:0:
55,137,593416,1,10,0:0:0:0:
99,153,593498,1,2,0:0:0:0:
146,151,593581,1,2,0:0:0:0:
190,137,593663,1,2,0:0:0:0:
228,110,593746,1,10,0:0:0:0:
253,71,593828,1,2,0:0:0:0:
257,24,593910,1,2,0:0:0:0:
303,13,593993,1,2,0:0:0:0:
350,20,594076,53,10,0:0:0:0:
392,40,594158,1,2,0:0:0:0:
422,76,594241,1,2,0:0:0:0:
433,121,594323,1,2,0:0:0:0:
426,167,594405,1,10,0:0:0:0:
392,201,594488,1,2,0:0:0:0:
367,241,594570,1,2,0:0:0:0:
362,288,594653,1,2,0:0:0:0:
380,331,594735,1,10,0:0:0:0:
422,353,594818,1,2,0:0:0:0:
469,349,594900,1,2,0:0:0:0:
507,321,594982,1,2,0:0:0:0:
510,273,595065,1,10,0:0:0:0:
493,228,595147,1,2,0:0:0:0:
450,205,595230,1,2,0:0:0:0:
402,208,595312,1,2,0:0:0:0:
367,241,595394,53,10,0:0:0:0:
362,288,595477,1,2,0:0:0:0:
340,330,595559,1,2,0:0:0:0:
295,347,595642,1,2,0:0:0:0:
257,375,595724,1,10,0:0:0:0:
217,347,595807,1,2,0:0:0:0:
172,330,595890,1,2,0:0:0:0:
150,288,595972,1,2,0:0:0:0:
145,241,596055,1,10,0:0:0:0:
110,208,596137,1,2,0:0:0:0:
62,205,596219,1,2,0:0:0:0:
19,228,596302,1,2,0:0:0:0:
2,273,596384,1,10,0:0:0:0:
5,321,596467,1,2,0:0:0:0:
43,349,596549,1,2,0:0:0:0:
90,353,596631,1,2,0:0:0:0:
132,331,596714,53,10,0:0:0:0:
150,288,596796,1,2,0:0:0:0:
145,241,596878,1,2,0:0:0:0:
110,208,596960,1,2,0:0:0:0:
64,191,597043,1,10,0:0:0:0:
29,158,597125,1,2,0:0:0:0:
8,114,597208,1,2,0:0:0:0:
6,66,597290,1,2,0:0:0:0:
27,23,597372,1,10,0:0:0:0:
72,6,597455,1,2,0:0:0:0:
119,3,597537,1,2,0:0:0:0:
164,20,597620,1,2,0:0:0:0:
197,53,597702,1,10,0:0:0:0:
207,99,597785,1,2,0:0:0:0:
198,145,597867,1,2,0:0:0:0:
184,190,597949,1,2,0:0:0:0:
189,237,598032,53,10,0:0:0:0:
212,278,598114,1,2,0:0:0:0:
256,294,598197,1,2,0:0:0:0:
300,278,598279,1,2,0:0:0:0:
323,237,598361,1,10,0:0:0:0:
328,190,598444,1,2,0:0:0:0:
314,145,598526,1,2,0:0:0:0:
305,99,598608,1,2,0:0:0:0:
315,53,598691,1,10,0:0:0:0:
348,20,598773,1,2,0:0:0:0:
393,3,598856,1,2,0:0:0:0:
440,6,598938,1,2,0:0:0:0:
483,26,599021,1,10,0:0:0:0:
507,66,599103,1,2,0:0:0:0:
509,113,599185,1,2,0:0:0:0:
486,155,599268,1,2,0:0:0:0:
449,185,599350,53,10,0:0:0:0:
401,189,599433,1,2,0:0:0:0:
354,180,599515,1,2,0:0:0:0:
314,145,599598,1,2,0:0:0:0:
305,99,599680,54,0,L|314:50,1,35.625001358986,12|0,0:0|0:0,0:0:0:0:
207,99,599845,2,0,L|198:50,1,35.625001358986,8|0,0:0|0:0,0:0:0:0:
354,180,600010,54,0,L|394:142,1,47.5,12|0,0:0|0:0,0:0:0:0:
158,180,600175,2,0,L|118:142,1,47.5,8|0,0:0|0:0,0:0:0:0:
397,268,600340,54,0,L|458:279,1,59.375,12|0,0:0|0:0,0:0:0:0:
115,268,600504,2,0,L|54:279,1,59.375,8|0,0:0|0:0,0:0:0:0:
256,22,600669,53,12,0:0:0:0:
256,362,600834,1,12,0:0:0:0:
256,193,605449,53,0,0:0:0:0:
256,193,605532,1,0,0:0:0:0:
256,193,605614,1,12,0:0:0:0:
256,337,605944,1,12,0:0:0:0:
