osu file format v8

[General]
AudioFilename: 06 Yield.mp3
AudioLeadIn: 0
PreviewTime: 45482
Countdown: 0
SampleSet: Soft
StackLeniency: 0.7
Mode: 0
LetterboxInBreaks: 1

[Editor]
Bookmarks: 131800,147452
DistanceSpacing: 1
BeatDivisor: 6
GridSize: 8

[Metadata]
Title:Yield
Artist:Sound Horizon
Creator:gdeath
Version:Normal
Source:Elysion
Tags:azuki Breeze

[Difficulty]
HPDrainRate:4
CircleSize:4
OverallDifficulty:5
ApproachRate:5
SliderMultiplier:1.5
SliderTickRate:1

[Events]
//Background and Video events
0,0,"E_0.jpg"
//Break Periods
2,43283,44492
2,86979,88840
2,131326,146231
//Storyboard Layer 0 (Background)
//Storyboard Layer 1 (Fail)
//Storyboard Layer 2 (Pass)
//Storyboard Layer 3 (Foreground)
//Storyboard Sound Samples
//Background Colour Transformations
3,100,163,162,255

[TimingPoints]
22214,652.173913043478,4,2,1,70,1,0
27269,-200,4,2,1,70,0,0
38682,-100,4,2,1,70,0,0
41617,-200,4,2,1,70,0,0
42866,-100,4,2,1,0,0,0
43247,-100,4,2,1,70,0,0
45475,-100,4,2,1,80,0,0
76996,-200,4,2,1,80,0,1
79117,-100,4,2,1,80,0,0
82051,-200,4,2,1,70,0,0
82213,-200,4,2,1,70,0,1
84334,-100,4,2,1,70,0,0
85963,-200,4,2,1,70,0,0
86561,-100,4,2,1,0,0,0
89823,-100,4,2,1,80,0,0
121182,-200,4,2,1,70,0,0
121344,-200,4,2,1,70,0,1
123464,-100,4,2,1,70,0,0
126561,-100,4,2,1,70,0,1
129061,-100,4,2,1,70,0,0
130909,-100,4,2,1,0,0,0
147213,-100,4,2,1,70,0,0
157703,-200,4,2,1,70,0,0
159985,-100,4,2,1,70,0,0
209877,-200,4,2,1,70,0,0
210855,-100,4,2,1,70,0,0
211779,-200,4,2,1,70,0,0
212811,-100,4,2,1,70,0,0
235692,-100,4,2,1,0,0,0
236127,-100,4,2,1,70,0,0

[Colours]
Combo1 : 255,128,192
Combo2 : 0,128,255
Combo3 : 255,255,128
Combo4 : 255,255,255

[HitObjects]
416,208,22214,2,0,B|392:136|312:96,1,150,0|8
184,24,23518,2,0,B|112:48|72:128,1,150,0|8
184,224,24822,2,0,B|208:296|288:336,1,150,0|8
376,216,26127,2,0,B|448:192|488:112,1,150,0|8
352,48,27431,6,0,B|256:32,1,75,0|8
141,62,28735,2,0,B|101:150,1,75,0|8
97,260,30040,2,0,B|168:326,1,75,0|8
272,364,31344,2,0,B|356:316,1,75,0|8
424,230,32648,6,0,B|405:134,1,75,0|8
256,224,33953,2,0,B|256:144,1,75,0|8
87,230,35257,2,0,B|106:134,1,75,0|8
256,272,36561,6,0,B|328:320,1,75,0|8
256,120,37866,2,0,B|184:72,1,75,0|8
432,112,39170,6,0,B|432:192|344:240,1,150,0|8
208,264,40474,2,0,B|208:183|296:136,1,150,0|8
288,344,41779,6,0,B|288:192,1,150
384,128,45692,6,0,B|352:192|288:200,1,100
264,192,46344,1,2
168,168,46779,1,0
168,168,46996,1,0
104,240,47431,1,0
104,240,47648,1,2
224,336,48300,6,0,B|280:352|328:304,1,100
344,272,48953,2,0,B|368:224|440:192,1,100,2|0
440,160,49605,2,0,B|496:184,3,50,0|0|0|2
376,80,50909,6,0,B|320:48|256:56,1,100
232,80,51561,2,0,B|192:128|128:128,1,100,2|0
96,136,52213,2,0,B|56:192|64:256,1,100
88,272,52866,1,2
232,328,53518,6,0,B|256:376,2,50
240,280,54170,2,0,B|288:256|304:184,1,100,2|0
296,152,54822,2,0,B|264:80,3,50,0|0|0|2
128,120,56127,6,0,B|80:144|64:224,1,100
88,248,56779,2,0,B|112:304|192:312,1,100,2|0
208,296,57431,2,0,B|256:256|328:272,1,100
352,272,58083,2,0,B|408:240|416:168,1,100,2|0
424,144,58735,6,0,B|488:128,2,50
392,104,59387,2,0,B|360:40|288:40,1,100,2|0
264,40,60040,2,0,B|224:0,2,50
272,88,60692,2,0,B|312:128|304:200,1,100,2|0
296,224,61344,6,0,B|256:272|176:256,1,100
160,232,61996,2,0,B|112:192|64:184,1,100,2|0
32,152,62648,2,0,B|16:96|48:40,1,100
80,32,63300,2,0,B|128:8|192:32,1,100,2|0
224,48,63953,6,0,B|200:104,2,50
272,32,64605,2,0,B|312:80|368:72,1,100,2|0
408,64,65257,2,0,B|456:24,2,50
432,112,65909,2,0,B|464:176|424:224,1,100,2|0
408,248,66561,6,0,B|368:296|288:280,1,100
272,256,67213,2,0,B|216:224|152:232,1,100,2|0
168,184,67866,2,0,B|192:120|256:104,1,100
280,112,68518,2,0,B|344:104|376:40,1,100,2|0
416,56,69170,2,0,B|472:96|472:152,1,100
464,184,69822,1,2
424,272,70257,2,0,B|472:336,4,50,0|0|0|0|2
312,176,71779,6,0,B|304:128|224:88,1,100
200,112,72431,2,0,B|168:152|88:152,1,100,2|0
80,192,73083,2,0,B|40:240|56:296,1,100
88,320,73735,2,0,B|128:352|192:344,1,100,2|0
232,336,74387,5,0
232,336,74605,1,0
232,336,74822,1,0
232,336,75040,2,0,B|296:328|328:272,1,100,2|0
336,240,75692,2,0,B|352:184|432:160,1,100
456,168,76344,1,2
464,320,76996,6,0,B|416:312|400:248,1,75,0|8
192,216,78300,2,0,B|240:224|256:288,1,75,0|8
216,112,79605,6,0,B|232:64|288:40,1,100
336,40,80257,2,0,B|400:24|448:88,1,100,8|0
440,112,80909,2,0,B|432:168|480:224,1,100
464,256,81561,2,0,B|440:312|384:320,1,100,8|0
344,320,82214,6,0,B|304:320|264:272,1,75,0|8
208,72,83518,2,0,B|248:72|288:120,1,75,0|8
224,248,84822,5,0
224,248,85040,2,0,B|152:248|128:184,1,100,0|8
120,160,85692,1,0
128,112,85909,1,0
160,72,86127,2,0,B|192:48|232:48,1,75
224,40,90040,6,0,B|256:96|336:88,1,100
352,80,90692,2,0,B|416:96|424:168,1,100,8|0
408,192,91344,2,0,B|384:248|328:272,1,100
296,264,91996,2,0,B|248:256|184:296,1,100,8|0
152,304,92648,2,0,B|160:368,2,50
104,288,93300,2,0,B|64:248|72:184,1,100,8|0
64,144,93953,2,0,B|0:112,3,50,0|0|0|8
152,56,95257,6,0,B|120:16,2,50
200,56,95909,2,0,B|256:48|320:88,1,100,8|0
296,128,96561,2,0,B|272:176|192:184,1,100
208,232,97214,2,0,B|248:280|320:272,1,100,8|0
296,320,97866,2,0,B|256:368|176:368,1,100
160,352,98518,2,0,B|144:296|88:272,1,100,8|0
96,224,99170,2,0,B|144:224|200:160,1,100
176,128,99822,2,0,B|160:72|96:56,1,100,8|0
64,88,100474,6,0,B|24:128|48:192,1,100
96,192,101127,2,0,B|136:224|136:288,1,100,8|0
160,320,101779,2,0,B|208:344|264:320,1,100
296,288,102431,2,0,B|344:240|416:264,1,100,8|0
440,248,103083,2,0,B|472:304,2,50
448,200,103735,2,0,B|480:152|456:80,1,100,8|0
440,56,104387,1,0
440,56,104605,1,0
440,56,104822,1,0
440,56,105040,1,8
312,128,105692,6,0,B|296:192|216:208,1,100
200,208,106344,2,0,B|152:200|96:240,1,100,8|0
112,280,106996,2,0,B|168:296|224:256,1,100
256,264,107648,2,0,B|320:256|360:288,1,100,8|0
400,296,108300,2,0,B|400:352,2,50
408,248,108953,2,0,B|432:200|424:144,1,100,8|0
424,104,109605,2,0,B|480:80,2,50
424,104,110257,1,8
200,88,110909,6,0,B|149:24|68:8,2,150,0|8|0
160,200,112866,1,8
112,304,113518,2,0,B|162:367|243:383,2,150,0|8|0
160,200,115474,1,8
272,104,116127,6,0,B|328:96|368:136,1,100
384,176,116779,2,0,B|416:224|400:280,1,100,8|0
360,304,117431,2,0,B|328:344|224:344,1,100
224,328,118083,2,0,B|160:304|160:240,1,100,8|0
152,208,118735,2,0,B|96:208,2,50
176,160,119387,2,0,B|184:104|160:56,1,100,8|0
112,48,120040,2,0,B|56:56|16:96,1,100
22,89,120692,1,8
168,192,121344,6,0,B|152:240|104:240,1,75,0|8
344,192,122648,2,0,B|360:144|408:144,1,75,0|8
280,48,123953,6,0,B|216:40|160:64|136:104,1,150,0|8
112,128,124822,2,0,B|88:144|80:176,1,50
80,216,125257,2,0,B|80:296|160:344,1,150,0|8
192,352,126127,2,0,B|256:368|312:320,1,100
400,240,127214,1,8
360,96,127866,5,0
216,40,128518,1,8
80,96,129170,2,0,B|32:144|40:224,1,100
64,232,129822,2,0,B|80:296|168:312,1,100,8|0
184,304,130474,2,0,B|272:304|320:208,1,150
392,184,147431,6,0,B|424:104|376:16|376:16,1,150,0|8
328,176,148735,2,0,B|296:256|343:344|343:344,1,150,0|8
184,320,150040,6,0,B|128:304|104:232|104:232,1,100
104,200,150692,1,8
224,112,151344,2,0,B|280:128|336:80|336:80,1,100
352,56,151996,1,8
448,72,152431,5,0
448,72,152648,1,0
488,160,153083,1,0
488,160,153300,2,0,B|480:248|384:288|384:288,1,150,8|0
256,280,154605,2,0,B|176:264|144:152|144:152,2,150,8|0|8
368,176,156561,1,0
368,176,157214,1,8
208,112,157866,6,0,B|192:152|128:160|128:160,1,75,0|8
304,272,159170,2,0,B|320:232|384:224|384:224,1,75,0|8
304,88,160474,6,0,B|240:48|144:40|144:40,2,150,0|2|0
264,232,162431,2,0,B|328:272|424:280|424:280,2,150,2|0|8
136,160,164387,6,0,B|96:128|88:64|88:64,1,100
136,56,165040,2,0,B|184:88|192:168|192:168,1,100,8|0
216,176,165692,2,0,B|272:200|336:184|336:184,1,100
368,192,166344,2,0,B|432:192|480:248|480:248,1,100,8|0
472,280,166996,2,0,B|456:344|392:360|392:360,1,100
360,344,167648,2,0,B|328:304|344:248|344:248,1,100,8|0
336,200,168300,6,0,B|296:160|224:144|224:144,1,100
208,128,168953,2,0,B|160:88|152:32|152:32,1,100,8|0
112,16,169605,2,0,B|48:40|24:96|24:96,1,100
48,128,170257,2,0,B|96:168|168:160|168:160,1,100,8|0
168,200,170909,2,0,B|120:240|32:232|32:232,1,100
32,264,171561,2,0,B|72:304|152:312|152:312,1,100,8|0
168,312,172214,5,2
168,312,172648,1,0
208,288,172866,2,0,B|256:264|272:200|272:200,1,100,8|0
280,160,173518,1,2
280,160,173953,1,0
312,128,174170,2,0,B|344:88|424:80|424:80,1,100,8|0
448,88,174822,1,2
448,88,175257,1,0
456,136,175474,2,0,B|464:192|504:232|504:232,1,100,8|0
498,225,176127,1,2
432,304,176561,5,0
432,304,176779,2,0,B|352:296|304:224|304:224,1,150,8|0
312,128,177866,1,0
312,128,178083,2,0,B|288:56|192:16|192:16,2,150,8|0|8
224,176,179822,5,0
224,176,180040,2,0,B|144:184|80:136|80:136,2,150,0|8|0
312,128,181779,1,0
312,128,181996,2,0,B|392:120|456:168|456:168,2,150,8|0|8
160,112,183953,5,0
72,232,184605,1,8
144,360,185257,1,0
296,368,185909,1,8
384,248,186561,1,0
320,112,187214,1,8
184,40,187866,6,0,B|88:160|88:160,1,150,0|8
112,304,189170,2,0,B|200:176|200:176,1,150,8|8
344,136,190474,2,0,B|240:280|240:280,1,150,0|0
312,376,191779,2,0,B|392:240|392:240,1,150
472,120,193083,2,0,B|376:264|376:264,1,150,0|0
256,176,194387,6,0,B|200:160|176:96|176:96,1,100
152,72,195040,2,0,B|104:72|88:32|88:32,2,50,8|0|0
200,56,195692,2,0,B|256:40|320:56|320:56,1,100
352,56,196344,2,0,B|384:48|408:16|408:16,2,50,8|0|0
344,104,196996,2,0,B|352:152|408:176|408:176,1,100
448,208,197648,2,0,B|456:264|408:304|408:304,1,100,8|0
368,304,198300,1,0
368,304,198735,1,0
368,304,198953,2,0,B|304:304|256:232|256:232,1,100,8|0
280,208,199605,6,0,B|272:136|216:104|216:104,1,100
200,80,200257,2,0,B|160:48|96:48|96:48,1,100,8|0
64,64,200909,2,0,B|8:128|48:224|48:224,1,150,0|8
56,256,201779,2,0,B|8:304|8:304,2,50
152,264,202648,1,0
152,264,202866,2,0,B|200:216|200:216,2,50,8|0|0
160,312,203518,2,0,B|216:368|272:368|272:368|312:368,1,150,0|8
400,264,204822,6,0,B|328:232|304:136|304:136,1,150,0|8
296,104,205692,1,0
264,64,205909,1,0
216,56,206127,2,0,B|136:40|64:64|64:64,1,150,0|8
32,96,206996,1,0
24,144,207214,1,0
40,192,207431,2,0,B|72:264|168:280|168:280,1,150,0|8
157,277,208518,1,0
208,272,208735,2,0,B|304:248|328:176|328:176,1,150,0|8
256,48,210040,6,0,B|256:152|256:152,1,75,0|8
256,176,210909,2,0,B|256:240|256:240,2,50
256,176,211779,1,0
256,128,211996,2,0,B|256:16|256:16,1,75,8|0
408,40,213300,1,8
448,184,213953,1,0
368,312,214605,1,8
216,312,215257,1,0
120,200,215909,1,8
160,56,216561,1,0
288,136,217214,6,0,B|376:128|432:72|432:72,2,150,8|0|8
288,136,218953,1,0
240,152,219170,2,0,B|168:152|120:192|120:192,1,100
96,168,219822,2,0,B|40:144|32:88|32:88,1,100,8|0
48,48,220474,1,0
48,48,220692,1,0
96,32,220909,1,0
96,32,221127,2,0,B|152:16|208:32|208:32,1,100,8|0
240,56,221779,2,0,B|296:64|368:32|368:32,1,100
384,56,222431,2,0,B|432:88|448:160|448:160,1,100,8|0
448,184,223083,6,0,B|424:240|424:240,1,50
392,264,223518,2,0,B|328:272|328:272,1,50,0|8
240,256,224170,1,0
240,256,224387,2,0,B|168:248|152:192|152:192,1,100
168,160,225040,2,0,B|224:176|296:128|296:128,1,100,8|0
296,104,225692,6,0,B|248:56|248:56,2,50
344,104,226344,2,0,B|392:104|456:144|456:144,1,100,8|0
432,184,226996,2,0,B|368:192|328:240|328:240,1,100
344,272,227648,2,0,B|416:280|448:336|448:336,1,100,8|0
424,368,228300,2,0,B|344:392|240:360|240:360,1,150,0|8
192,320,229387,1,0
192,320,229605,2,0,B|136:288|128:208|128:208,1,100
135,240,230257,1,8
256,152,230909,6,0,B|296:120|320:48|320:48,1,100
224,166,231561,6,0,B|225:115|184:51|184:51,1,100,8|0
216,200,232214,6,0,B|177:167|101:159|101:159,1,100
237,227,232866,6,0,B|187:237|133:291|133:291,1,100,8|0
272,228,233518,6,0,B|248:274|256:349|256:349,1,100
294,202,234170,6,0,B|315:249|378:291|378:291,1,100,8|0
288,168,234822,6,0,B|337:182|410:159|410:159,1,100
258,152,235474,6,0,B|299:122|327:51|327:51,1,100,8|0
280,40,236127,5,0
232,32,236344,1,0
192,64,236561,1,0
200,112,236779,2,0,B|216:168|288:184|288:184,1,100,8|0
320,184,237431,2,0,B|360:184|376:144|376:144,2,50
312,232,238083,2,0,B|296:280|240:304|240:304,1,100,8|0
208,336,238735,2,0,B|216:368|248:376|248:376,2,50
168,312,239387,2,0,B|144:256|80:232|80:232,1,100,8|0
64,208,240040,2,0,B|24:128|64:48|64:48,1,150,0|8
208,64,241344,6,0,B|272:40|272:40,2,50
208,64,241996,1,8
168,160,242431,1,0
168,160,242648,2,0,B|96:192|96:192,2,50
168,160,243300,1,8
264,176,243735,1,0
264,176,243953,2,0,B|408:88|408:88,2,150,0|8|0
264,176,245692,1,0
264,176,245909,1,8
200,312,246561,6,0,B|144:320|88:288|88:288,1,100
80,256,247214,2,0,B|80:192|16:144|16:144,1,100,8|0
40,120,247866,2,0,B|48:64|136:24|136:24,1,100
152,40,248518,1,8
152,40,248953,1,0
200,24,249170,2,0,B|304:16|360:80|360:80,1,150,2|8
341,63,250257,1,0
344,112,250474,2,0,B|280:160|192:152|192:152,1,150,2|8
248,296,251779,6,0,B|192:328|192:328,2,50,2|0|0
288,264,252431,2,0,B|336:240|408:248|408:248,1,100,8|0
432,240,253083,2,0,B|480:200|480:136|480:136,1,100,2|0
472,104,253735,2,0,B|456:56|368:32|368:32,1,100,8|0
344,48,254387,2,0,B|344:112|344:112,2,50,2|0|0
296,48,255040,2,0,B|232:48|192:112|192:112,1,100,8|0
184,136,255692,2,0,B|160:192|80:208|80:208,1,100,0|0
109,198,256344,1,8
