osu file format v8

[General]
AudioFilename: 06 Yield.mp3
AudioLeadIn: 0
PreviewTime: 45482
Countdown: 0
SampleSet: Soft
StackLeniency: 0.7
Mode: 0
LetterboxInBreaks: 1

[Editor]
Bookmarks: 131800,147452
DistanceSpacing: 1
BeatDivisor: 3
GridSize: 8

[Metadata]
Title:Yield
Artist:Sound Horizon
Creator:gdeath
Version:Easy
Source:Elysion
Tags:azuki Breeze

[Difficulty]
HPDrainRate:1
CircleSize:3
OverallDifficulty:1
ApproachRate:1
SliderMultiplier:1.5
SliderTickRate:1

[Events]
//Background and Video events
0,0,"E_0.jpg"
//Break Periods
2,42631,44012
2,86326,88360
//Storyboard Layer 0 (Background)
//Storyboard Layer 1 (Fail)
//Storyboard Layer 2 (Pass)
//Storyboard Layer 3 (Foreground)
//Storyboard Sound Samples
//Background Colour Transformations
3,100,163,162,255

[TimingPoints]
22214,652.173913043478,4,2,1,70,1,0
45366,-100,4,2,1,80,0,0
76670,-100,4,2,1,73,0,0
76996,-100,4,2,1,73,0,1
79170,-100,4,2,1,73,0,0
82213,-100,4,2,1,73,0,1
84387,-100,4,2,1,73,0,0
89713,-100,4,2,1,70,0,0
121344,-100,4,2,1,70,0,1
123518,-100,4,2,1,70,0,0
126561,-100,4,2,1,70,0,1
129061,-100,4,2,1,70,0,0
130800,-100,4,2,1,0,0,0

[Colours]
Combo1 : 255,128,192
Combo2 : 0,128,255
Combo3 : 255,255,128
Combo4 : 255,255,255

[HitObjects]
128,280,22213,2,0,B|168:208|248:176|248:176,1,150,0|8
336,72,23518,2,0,B|384:136|368:224|368:224,1,150,0|8
240,296,24822,2,0,B|184:240|200:128|200:128,1,150,0|8
168,8,26127,2,0,B|88:40|40:136|40:136,1,150,0|8
176,200,27431,2,0,B|248:232|336:208|336:208,1,150,0|8
408,80,28735,6,0,B|480:136|496:216|496:216,2,150,0|8|0
256,64,30692,2,0,B|168:80|112:32|112:32,2,150,8|0|8
248,216,32648,5,0
392,176,33300,1,8
304,296,33953,1,0
160,248,34605,1,8
176,96,35257,1,0
320,48,35909,1,8
432,152,36561,1,2
360,288,37213,1,8
216,320,37866,6,0,B|136:280|112:192|112:192,1,150,0|2
165,93,39170,6,0,B|239:44|328:67|328:67,1,150,0|2
386,162,40474,6,0,B|392:251|328:316|328:316,1,150,0|2
216,320,41779,6,0,B|136:279|112:192|112:192,1,150,0|4
256,48,45692,5,0
184,176,46344,1,2
336,176,46996,1,0
424,296,47648,2,0,B|368:360|272:368|272:368,1,150,2|0
176,272,48953,2,0,B|144:208|152:104|152:104,2,150,2|0|2
320,224,50909,5,0
416,104,51561,1,2
296,200,52213,1,0
144,208,52866,2,0,B|96:272|80:360|80:360,2,150,2|0|2
240,96,54822,1,0
384,64,55474,1,2
464,192,56127,6,0,B|392:240|312:240|312:240,1,150,0|2
192,168,57431,2,0,B|168:248|184:336|184:336,1,150,0|2
320,264,58735,2,0,B|232:280|128:216|128:216,1,150,0|2
72,128,60040,1,0
184,32,60692,1,2
184,32,61344,5,0
320,96,61996,1,2
176,64,62648,1,0
200,216,63300,2,0,B|256:272|344:288|344:288,1,150,2|0
288,144,64605,2,0,B|368:104|400:32|400:32,2,150,2|0|2
136,152,66561,5,0
160,304,67213,1,2
304,344,67866,2,0,B|384:352|464:304|464:304,1,150,0|2
448,160,69170,2,0,B|400:104|296:72|296:72,1,150,0|2
176,104,70474,1,0
176,104,71127,1,2
208,248,71779,6,0,B|272:296|376:272|376:272,1,150,0|2
448,160,73083,1,0
296,152,73735,2,0,B|296:240|368:296|368:296,1,150,2|0
208,312,75040,1,2
112,200,75692,1,0
104,48,76344,1,2
256,56,76996,6,0,B|352:112|376:192|376:192,1,150,0|8
138,260,78300,2,0,B|138:148|196:88|196:88,1,150,0|8
373,260,79605,2,0,B|277:315|196:295|196:295,2,150,0|8|0
373,260,81561,1,8
256,56,82213,6,0,B|352:111|376:192|376:192,1,150,0|8
138,260,83518,2,0,B|138:148|196:88|196:88,1,150,0|8
373,260,84822,2,0,B|277:315|196:295|196:295,2,150,0|8|0
80,216,90040,6,0,B|152:256|240:240|240:240,1,150,0|8
376,224,91344,1,0
424,80,91996,1,8
272,80,92648,2,0,B|176:72|192:64,3,50,0|0|0|8
120,184,93953,2,0,B|104:248|104:248,3,50,0|0|0|8
248,296,95257,6,0,B|288:256|312:168|304:144|304:144,1,150,0|8
424,64,96561,2,0,B|472:128|464:224|464:224,1,150,0|8
328,256,97866,2,0,B|384:312|464:320|464:320,2,150,0|8|0
296,216,99387,2,0,B|288:176|304:136|304:136,2,50,0|0|8
192,104,100474,6,0,B|256:48|336:32|336:32,1,150,0|8
440,128,101779,2,0,B|392:184|304:208|304:208,1,150,0|8
168,192,103083,2,0,B|200:272|280:304|280:304,2,150,0|8|0
192,40,105040,1,8
192,40,105692,5,0
192,40,106344,1,8
192,40,106996,1,0
192,40,107648,1,8
328,104,108300,6,0,B|400:120|400:120,3,50,0|0|0|8
344,264,109605,2,0,B|280:288|280:288,3,50,0|0|0|8
192,176,110909,6,0,B|128:240|56:256|56:256,1,150,0|8
65,253,112213,1,0
192,328,112866,1,8
344,320,113518,2,0,B|432:280|472:168|472:168|464:168,1,150,0|8
456,64,114822,2,0,B|376:88|336:160|336:160,1,150,0|8
192,184,116127,5,0
192,184,116779,1,8
320,264,117431,1,0
320,264,118083,1,8
456,208,118735,1,0
456,208,119387,1,8
368,88,120040,2,0,B|288:64|192:96|192:96,1,150,0|8
232,240,121344,6,0,B|288:304|368:328|368:328,1,150,0|8
272,200,122648,2,0,B|240:144|104:104|104:104,1,150,0|8
288,168,123953,2,0,B|320:96|400:56|400:56,1,150,0|8
264,136,125257,2,0,B|192:160|152:248|152:248,1,150,0|8
288,312,126561,6,0,B|360:296|432:208|432:208,1,150,0|8
288,312,127866,2,0,B|216:296|160:224|160:224,1,150,0|8
280,136,129170,1,0
280,136,129822,1,8
280,136,130474,2,0,B|280:288|280:288,1,150,0|0
