osu file format v14

[General]
AudioFilename: Raijin no Hidariude.mp3
AudioLeadIn: 0
PreviewTime: 73136
Countdown: 0
SampleSet: Soft
StackLeniency: 0.7
Mode: 3
LetterboxInBreaks: 0
SpecialStyle: 0
WidescreenStoryboard: 1

[Editor]
Bookmarks: 35636,37380,41217,42962,46101,46624,52555,53078,123717
DistanceSpacing: 1.5
BeatDivisor: 6
GridSize: 16
TimelineZoom: 1.599999

[Metadata]
Title:Raijin no Hidariude
TitleUnicode:雷神の左腕
Artist:Sound Horizon
ArtistUnicode:Sound Horizon
Creator:[ A v a l o n ]
Version:Hard
Source:Chronicle 2nd
Tags:Linked Horizon Roman Twins Violet & Hortensia no Migiude The Thunder God's Left Arm
BeatmapID:575157
BeatmapSetID:250275

[Difficulty]
HPDrainRate:8
CircleSize:4
OverallDifficulty:8
ApproachRate:5
SliderMultiplier:1.4
SliderTickRate:1

[Events]
//Background and Video events
0,0,"bg.jpg",0,0
//Break Periods
//Storyboard Layer 0 (Background)
//Storyboard Layer 1 (Fail)
//Storyboard Layer 2 (Pass)
//Storyboard Layer 3 (Foreground)
//Storyboard Sound Samples

[TimingPoints]
-817,348.837209302326,4,2,1,40,1,0
6159,-100,4,2,0,35,0,0
11741,-100,4,2,1,30,0,0
22903,-100,4,2,1,40,0,0
45229,-100,4,2,1,30,0,0
53601,-100,4,2,1,35,0,0
61973,-100,4,2,1,40,0,0
73136,-100,4,2,1,43,0,1
84299,-100,4,2,1,40,0,0
95462,-100,4,2,1,43,0,1
117787,-100,4,2,0,35,0,0

[Colours]
Combo1 : 124,220,255
Combo2 : 124,220,255

[HitObjects]
64,192,6159,5,0,0:0:0:0:
320,192,6334,1,0,0:0:0:0:
192,192,6508,1,0,0:0:0:0:
448,192,6683,1,0,0:0:0:0:
64,192,6857,1,0,0:0:0:0:
192,192,7031,1,0,0:0:0:0:
320,192,7206,1,0,0:0:0:0:
64,192,7380,1,0,0:0:0:0:
192,192,7555,1,0,0:0:0:0:
448,192,7729,1,0,0:0:0:0:
192,192,7903,1,0,0:0:0:0:
320,192,8078,1,0,0:0:0:0:
64,192,8252,1,0,0:0:0:0:
192,192,8427,1,0,0:0:0:0:
320,192,8601,1,0,0:0:0:0:
64,192,8776,1,0,0:0:0:0:
320,192,8950,1,0,0:0:0:0:
448,192,9124,1,0,0:0:0:0:
192,192,9299,1,0,0:0:0:0:
64,192,9473,1,0,0:0:0:0:
448,192,9648,1,0,0:0:0:0:
320,192,9822,1,0,0:0:0:0:
192,192,9996,1,0,0:0:0:0:
448,192,10171,1,0,0:0:0:0:
64,192,10345,1,0,0:0:0:0:
320,192,10520,1,0,0:0:0:0:
192,192,10694,1,0,0:0:0:0:
448,192,10869,1,0,0:0:0:0:
320,192,11043,1,0,0:0:0:0:
192,192,11217,1,0,0:0:0:0:
320,192,11392,1,0,0:0:0:0:
64,192,11566,1,0,0:0:0:0:
192,192,11741,1,0,0:0:0:0:
320,192,11741,1,0,0:0:0:0:
448,192,11741,1,0,0:0:0:0:
64,192,11915,1,0,0:0:0:0:
320,192,12089,1,0,0:0:0:0:
448,192,12089,1,0,0:0:0:0:
64,192,12264,1,0,0:0:0:0:
448,192,12438,1,0,0:0:0:0:
192,192,12438,1,0,0:0:0:0:
320,192,12613,1,0,0:0:0:0:
192,192,12787,1,0,0:0:0:0:
64,192,12787,1,0,0:0:0:0:
448,192,12962,1,0,0:0:0:0:
320,192,13136,1,0,0:0:0:0:
64,192,13136,1,0,0:0:0:0:
192,192,13136,1,0,0:0:0:0:
448,192,13310,1,0,0:0:0:0:
320,192,13485,1,0,0:0:0:0:
192,192,13485,1,0,0:0:0:0:
64,192,13659,1,0,0:0:0:0:
320,192,13834,1,0,0:0:0:0:
192,192,13834,1,0,0:0:0:0:
448,192,14008,1,0,0:0:0:0:
64,192,14183,1,0,0:0:0:0:
320,192,14183,1,0,0:0:0:0:
192,192,14357,1,0,0:0:0:0:
320,192,14531,1,0,0:0:0:0:
64,192,14531,1,0,0:0:0:0:
448,192,14531,1,0,0:0:0:0:
192,192,14706,1,0,0:0:0:0:
320,192,14880,1,0,0:0:0:0:
448,192,14880,1,0,0:0:0:0:
64,192,15055,1,0,0:0:0:0:
192,192,15229,1,0,0:0:0:0:
320,192,15229,1,0,0:0:0:0:
448,192,15403,1,0,0:0:0:0:
192,192,15578,1,0,0:0:0:0:
64,192,15578,1,0,0:0:0:0:
320,192,15752,1,0,0:0:0:0:
448,192,15927,1,0,0:0:0:0:
64,192,15927,1,0,0:0:0:0:
192,192,15927,1,0,0:0:0:0:
320,192,16101,1,0,0:0:0:0:
192,192,16276,1,0,0:0:0:0:
64,192,16276,1,0,0:0:0:0:
448,192,16450,1,0,0:0:0:0:
192,192,16624,1,0,0:0:0:0:
320,192,16624,1,0,0:0:0:0:
64,192,16799,1,0,0:0:0:0:
192,192,16973,1,0,0:0:0:0:
320,192,16973,1,0,0:0:0:0:
448,192,17148,1,0,0:0:0:0:
192,192,17322,1,0,0:0:0:0:
320,192,17322,1,0,0:0:0:0:
64,192,17322,1,0,0:0:0:0:
448,192,17496,1,0,0:0:0:0:
320,192,17671,1,0,0:0:0:0:
64,192,17845,1,0,0:0:0:0:
448,192,18020,1,0,0:0:0:0:
320,192,18020,1,0,0:0:0:0:
192,192,18194,1,0,0:0:0:0:
320,192,18369,1,0,0:0:0:0:
448,192,18543,1,0,0:0:0:0:
320,192,18717,1,0,0:0:0:0:
192,192,18717,1,0,2:0:0:0:
64,192,18717,1,0,0:0:0:0:
448,192,18892,1,0,0:0:0:0:
320,192,19066,1,0,0:0:0:0:
64,192,19241,1,0,0:0:0:0:
448,192,19415,1,0,0:0:0:0:
192,192,19415,1,0,0:0:0:0:
320,192,19589,1,0,0:0:0:0:
448,192,19764,1,0,0:0:0:0:
192,192,19938,1,0,0:0:0:0:
320,192,20113,1,0,0:0:0:0:
64,192,20113,1,0,2:0:0:0:
448,192,20113,1,0,0:0:0:0:
192,192,20287,1,0,0:0:0:0:
320,192,20462,1,0,0:0:0:0:
64,192,20636,1,0,0:0:0:0:
192,192,20810,1,0,0:0:0:0:
320,192,20810,1,0,0:0:0:0:
64,192,20985,1,0,0:0:0:0:
448,192,21159,1,0,0:0:0:0:
320,192,21334,1,0,0:0:0:0:
448,192,21508,1,0,2:0:0:0:
192,192,21508,1,0,0:0:0:0:
64,192,21508,1,0,0:0:0:0:
320,192,21683,1,0,0:0:0:0:
192,192,21770,1,0,0:0:0:0:
320,192,21857,1,0,0:0:0:0:
192,192,21944,1,0,0:0:0:0:
320,192,22031,1,0,0:0:0:0:
448,192,22206,1,0,0:0:0:0:
192,192,22206,1,0,0:0:0:0:
64,192,22206,1,0,1:0:0:0:
320,192,22293,1,0,0:0:0:0:
192,192,22380,1,0,0:0:0:0:
64,192,22467,1,0,0:0:0:0:
448,192,22555,1,0,0:0:0:0:
192,192,22555,1,0,0:0:0:0:
448,192,22903,1,0,0:0:0:0:
192,192,22903,1,0,0:0:0:0:
64,192,22903,1,0,0:0:0:0:
320,192,23078,1,0,0:0:0:0:
448,192,23252,1,0,0:0:0:0:
192,192,23252,1,0,0:0:0:0:
64,192,23427,1,0,0:0:0:0:
192,192,23601,1,0,0:0:0:0:
320,192,23776,1,0,0:0:0:0:
192,192,23950,1,0,0:0:0:0:
64,192,23950,1,0,0:0:0:0:
448,192,24008,1,0,0:0:0:0:
320,192,24066,1,0,0:0:0:0:
192,192,24124,1,0,0:0:0:0:
448,192,24299,1,0,0:0:0:0:
64,192,24299,1,0,0:0:0:0:
320,192,24473,1,0,0:0:0:0:
448,192,24648,1,0,0:0:0:0:
192,192,24648,1,0,0:0:0:0:
320,192,24822,1,0,0:0:0:0:
64,192,24996,1,0,0:0:0:0:
192,192,25171,1,0,0:0:0:0:
320,192,25345,1,0,0:0:0:0:
448,192,25345,1,0,0:0:0:0:
192,192,25403,1,0,0:0:0:0:
64,192,25462,1,0,0:0:0:0:
320,192,25520,1,0,0:0:0:0:
448,192,25694,1,0,0:0:0:0:
192,192,25694,1,0,0:0:0:0:
320,192,25869,1,0,0:0:0:0:
448,192,26043,1,0,0:0:0:0:
64,192,26043,1,0,0:0:0:0:
192,192,26217,1,0,0:0:0:0:
320,192,26392,1,0,0:0:0:0:
192,192,26566,1,0,0:0:0:0:
448,192,26741,1,0,0:0:0:0:
320,192,26741,1,0,0:0:0:0:
64,192,26799,1,0,0:0:0:0:
192,192,26857,1,0,0:0:0:0:
320,192,26915,1,0,0:0:0:0:
64,192,27089,1,0,0:0:0:0:
448,192,27089,1,0,0:0:0:0:
320,192,27264,1,0,0:0:0:0:
448,192,27438,1,0,0:0:0:0:
192,192,27438,1,0,0:0:0:0:
64,192,27613,1,0,0:0:0:0:
192,192,27787,1,0,0:0:0:0:
448,192,27962,1,0,0:0:0:0:
320,192,28020,1,0,0:0:0:0:
192,192,28078,1,0,0:0:0:0:
64,192,28136,1,0,0:0:0:0:
448,192,28136,1,0,0:0:0:0:
320,192,28310,1,0,0:0:0:0:
448,192,28485,1,0,0:0:0:0:
64,192,28485,1,0,0:0:0:0:
192,192,28485,1,0,0:0:0:0:
320,192,28659,1,0,0:0:0:0:
192,192,28834,1,0,0:0:0:0:
448,192,28834,1,0,0:0:0:0:
64,192,29008,1,0,0:0:0:0:
320,192,29183,1,0,0:0:0:0:
192,192,29357,1,0,0:0:0:0:
448,192,29531,1,0,0:0:0:0:
320,192,29531,1,0,0:0:0:0:
64,192,29589,1,0,0:0:0:0:
192,192,29648,1,0,0:0:0:0:
320,192,29706,1,0,0:0:0:0:
64,192,29880,1,0,0:0:0:0:
448,192,29880,1,0,0:0:0:0:
192,192,30055,1,0,0:0:0:0:
320,192,30229,1,0,0:0:0:0:
64,192,30229,1,0,0:0:0:0:
448,192,30403,1,0,0:0:0:0:
192,192,30578,1,0,0:0:0:0:
320,192,30752,1,0,0:0:0:0:
192,192,30927,1,0,0:0:0:0:
64,192,30927,1,0,0:0:0:0:
320,192,30985,1,0,0:0:0:0:
448,192,31043,1,0,0:0:0:0:
192,192,31101,1,0,0:0:0:0:
64,192,31276,1,0,0:0:0:0:
320,192,31276,1,0,0:0:0:0:
192,192,31450,1,0,0:0:0:0:
448,192,31624,1,0,0:0:0:0:
64,192,31624,1,0,0:0:0:0:
320,192,31799,1,0,0:0:0:0:
192,192,31973,1,0,0:0:0:0:
320,192,32148,1,0,0:0:0:0:
448,192,32322,1,0,0:0:0:0:
64,192,32322,1,0,0:0:0:0:
192,192,32380,1,0,0:0:0:0:
320,192,32438,1,0,0:0:0:0:
64,192,32496,1,0,0:0:0:0:
192,192,32671,1,0,0:0:0:0:
448,192,32671,1,0,0:0:0:0:
320,192,32845,1,0,0:0:0:0:
448,192,33020,1,0,0:0:0:0:
64,192,33020,1,0,0:0:0:0:
320,192,33194,1,0,0:0:0:0:
192,192,33369,1,0,0:0:0:0:
64,192,33369,1,0,0:0:0:0:
448,192,33456,1,0,0:0:0:0:
320,192,33543,1,0,0:0:0:0:
192,192,33630,1,0,0:0:0:0:
448,192,33717,1,0,0:0:0:0:
64,192,33717,1,0,0:0:0:0:
320,192,33805,1,0,0:0:0:0:
192,192,33892,1,0,0:0:0:0:
64,192,33979,1,0,0:0:0:0:
448,192,34066,1,0,0:0:0:0:
320,192,34066,128,0,34589:0:0:0:0:
192,192,34589,128,0,34938:0:0:0:0:
64,192,34764,1,0,0:0:0:0:
448,192,34764,1,0,0:0:0:0:
320,192,34938,128,0,35287:0:0:0:0:
64,192,35287,128,0,35636:0:0:0:0:
448,192,35287,1,0,0:0:0:0:
192,192,35374,1,0,0:0:0:0:
320,192,35462,1,0,0:0:0:0:
448,192,35636,1,0,0:0:0:0:
320,192,35694,1,0,0:0:0:0:
192,192,35752,1,0,0:0:0:0:
64,192,35810,1,0,0:0:0:0:
448,192,35898,1,0,0:0:0:0:
320,192,35985,128,0,36334:0:0:0:0:
448,192,36159,1,0,0:0:0:0:
64,192,36159,1,0,0:0:0:0:
192,192,36334,1,0,0:0:0:0:
448,192,36421,1,0,0:0:0:0:
64,192,36508,1,0,0:0:0:0:
320,192,36508,1,0,0:0:0:0:
192,192,36595,1,0,0:0:0:0:
448,192,36683,1,0,0:0:0:0:
320,192,36683,1,0,0:0:0:0:
64,192,36857,1,0,0:0:0:0:
448,192,36857,128,0,37380:0:0:0:0:
192,192,36857,1,0,0:0:0:0:
320,192,37206,1,0,0:0:0:0:
192,192,37206,1,0,0:0:0:0:
64,192,37380,1,0,0:0:0:0:
192,192,37438,1,0,0:0:0:0:
320,192,37496,1,0,0:0:0:0:
64,192,37555,128,0,37729:0:0:0:0:
192,192,37729,128,0,38078:0:0:0:0:
448,192,37903,1,0,0:0:0:0:
64,192,37903,1,0,0:0:0:0:
320,192,38078,128,0,39124:0:0:0:0:
448,192,38252,1,0,0:0:0:0:
64,192,38427,1,0,0:0:0:0:
192,192,38601,1,0,0:0:0:0:
448,192,38601,1,0,0:0:0:0:
64,192,38776,1,0,0:0:0:0:
448,192,38950,1,0,0:0:0:0:
192,192,39124,1,0,0:0:0:0:
320,192,39299,1,0,0:0:0:0:
448,192,39299,1,0,0:0:0:0:
64,192,39473,1,0,0:0:0:0:
192,192,39648,128,0,40171:0:0:0:0:
448,192,39648,1,0,0:0:0:0:
320,192,39648,1,0,0:0:0:0:
320,192,40171,128,0,40520:0:0:0:0:
64,192,40345,1,0,0:0:0:0:
448,192,40345,1,0,0:0:0:0:
192,192,40520,128,0,40869:0:0:0:0:
64,192,40869,128,0,41217:0:0:0:0:
448,192,40869,1,0,0:0:0:0:
320,192,40956,1,0,0:0:0:0:
192,192,41043,1,0,0:0:0:0:
320,192,41217,1,0,0:0:0:0:
448,192,41276,1,0,0:0:0:0:
192,192,41334,1,0,0:0:0:0:
64,192,41392,1,0,0:0:0:0:
448,192,41479,1,0,0:0:0:0:
320,192,41566,128,0,41915:0:0:0:0:
448,192,41741,1,0,0:0:0:0:
64,192,41741,1,0,0:0:0:0:
192,192,41915,1,0,0:0:0:0:
320,192,42002,1,0,0:0:0:0:
192,192,42089,1,0,0:0:0:0:
448,192,42089,1,0,0:0:0:0:
64,192,42177,1,0,0:0:0:0:
320,192,42264,1,0,0:0:0:0:
192,192,42264,1,0,0:0:0:0:
448,192,42438,1,0,0:0:0:0:
320,192,42438,1,0,0:0:0:0:
64,192,42438,128,0,42962:0:0:0:0:
320,192,42787,1,0,0:0:0:0:
192,192,42787,1,0,0:0:0:0:
448,192,42962,1,0,0:0:0:0:
192,192,43020,1,0,0:0:0:0:
320,192,43078,1,0,0:0:0:0:
448,192,43136,128,0,43310:0:0:0:0:
320,192,43310,128,0,43659:0:0:0:0:
64,192,43485,1,0,0:0:0:0:
192,192,43485,1,0,0:0:0:0:
448,192,43659,128,0,44880:0:0:0:0:
192,192,43834,1,0,0:0:0:0:
64,192,44008,1,0,0:0:0:0:
192,192,44183,1,0,0:0:0:0:
320,192,44183,1,0,0:0:0:0:
64,192,44357,1,0,0:0:0:0:
192,192,44531,1,0,0:0:0:0:
320,192,44706,1,0,0:0:0:0:
64,192,44880,1,0,0:0:0:0:
192,192,44880,1,0,0:0:0:0:
320,192,44967,1,0,0:0:0:0:
448,192,44967,1,0,0:0:0:0:
192,192,45055,1,0,0:0:0:0:
64,192,45055,1,0,0:0:0:0:
320,192,45229,1,0,0:0:0:0:
448,192,45229,1,0,1:0:0:0:
64,192,45229,128,0,46101:0:0:0:0:
192,192,45403,1,0,0:0:0:0:
320,192,45578,1,0,0:0:0:0:
448,192,45752,1,0,0:0:0:0:
192,192,45927,1,0,0:0:0:0:
448,192,46101,1,0,0:0:0:0:
320,192,46159,1,0,0:0:0:0:
192,192,46217,1,0,0:0:0:0:
64,192,46276,1,0,0:0:0:0:
448,192,46334,1,0,0:0:0:0:
320,192,46392,1,0,0:0:0:0:
64,192,46450,1,0,0:0:0:0:
192,192,46508,1,0,0:0:0:0:
320,192,46566,1,0,0:0:0:0:
448,192,46624,128,0,48020:0:0:0:0:
64,192,46624,1,0,0:0:0:0:
320,192,46799,1,0,0:0:0:0:
64,192,46973,1,0,0:0:0:0:
192,192,47148,1,0,0:0:0:0:
320,192,47322,1,0,0:0:0:0:
192,192,47496,1,0,0:0:0:0:
64,192,47671,1,0,0:0:0:0:
192,192,47845,1,0,0:0:0:0:
320,192,48020,128,0,48194:0:0:0:0:
64,192,48194,128,0,48369:0:0:0:0:
192,192,48369,128,0,48543:0:0:0:0:
320,192,48543,128,0,48717:0:0:0:0:
448,192,48717,128,0,48892:0:0:0:0:
64,192,48892,128,0,49066:0:0:0:0:
320,192,49066,128,0,49415:0:0:0:0:
192,192,49066,128,0,49415:0:0:0:0:
448,192,49415,128,0,50462:0:0:0:0:
320,192,50113,128,0,50462:0:0:0:0:
192,192,50287,128,0,50462:0:0:0:0:
64,192,50462,128,0,51508:0:0:0:0:
192,192,51217,128,0,51508:0:0:0:0:
320,192,51392,128,0,51508:0:0:0:0:
448,192,51508,128,0,53601:0:0:0:0:
64,192,52555,1,0,0:0:0:0:
192,192,52642,1,0,0:0:0:0:
320,192,52729,1,0,0:0:0:0:
192,192,52903,1,0,0:0:0:0:
64,192,52991,1,0,0:0:0:0:
192,192,53078,1,0,0:0:0:0:
320,192,53136,1,0,0:0:0:0:
64,192,53194,1,0,0:0:0:0:
192,192,53274,1,0,0:0:0:0:
320,192,53318,128,0,53601:0:0:0:0:
64,192,53601,1,0,0:0:0:0:
192,192,53601,1,0,0:0:0:0:
320,192,53776,1,0,0:0:0:0:
192,192,53950,1,0,0:0:0:0:
448,192,54124,1,0,0:0:0:0:
64,192,54124,1,0,0:0:0:0:
192,192,54299,1,0,0:0:0:0:
320,192,54473,1,0,0:0:0:0:
64,192,54648,1,0,0:0:0:0:
448,192,54648,1,0,0:0:0:0:
320,192,54822,1,0,0:0:0:0:
448,192,54996,1,0,0:0:0:0:
192,192,54996,1,0,0:0:0:0:
64,192,55171,1,0,0:0:0:0:
192,192,55345,1,0,0:0:0:0:
320,192,55520,1,0,0:0:0:0:
448,192,55694,1,0,0:0:0:0:
64,192,55694,1,0,0:0:0:0:
320,192,55869,1,0,0:0:0:0:
192,192,56043,1,0,0:0:0:0:
448,192,56217,1,0,0:0:0:0:
64,192,56217,1,0,0:0:0:0:
320,192,56392,1,0,0:0:0:0:
192,192,56566,1,0,0:0:0:0:
448,192,56566,128,0,56741:0:0:0:0:
64,192,56741,1,0,0:0:0:0:
320,192,56741,128,0,56915:0:0:0:0:
448,192,56915,1,0,0:0:0:0:
192,192,56915,128,0,57089:0:0:0:0:
320,192,57089,1,0,0:0:0:0:
64,192,57089,128,0,57264:0:0:0:0:
192,192,57264,128,0,57438:0:0:0:0:
448,192,57264,1,0,0:0:0:0:
320,192,57438,128,0,57613:0:0:0:0:
64,192,57438,1,0,0:0:0:0:
448,192,57613,128,0,57787:0:0:0:0:
192,192,57613,1,0,0:0:0:0:
64,192,57787,1,0,0:0:0:0:
320,192,57787,1,0,0:0:0:0:
192,192,57787,1,0,0:0:0:0:
320,192,57962,1,0,0:0:0:0:
448,192,58136,1,0,0:0:0:0:
64,192,58136,1,0,0:0:0:0:
192,192,58310,1,0,0:0:0:0:
64,192,58485,1,0,0:0:0:0:
448,192,58485,1,0,0:0:0:0:
448,192,58659,1,0,0:0:0:0:
320,192,58659,1,0,0:0:0:0:
192,192,58834,1,0,0:0:0:0:
64,192,58834,1,0,0:0:0:0:
320,192,58834,1,0,0:0:0:0:
448,192,59008,1,0,0:0:0:0:
320,192,59183,1,0,0:0:0:0:
192,192,59183,1,0,0:0:0:0:
64,192,59357,1,0,0:0:0:0:
448,192,59531,1,0,0:0:0:0:
192,192,59531,1,0,0:0:0:0:
320,192,59706,1,0,0:0:0:0:
64,192,59880,1,0,0:0:0:0:
448,192,59880,1,0,0:0:0:0:
192,192,59880,1,0,0:0:0:0:
320,192,60055,1,0,0:0:0:0:
64,192,60229,1,0,0:0:0:0:
448,192,60229,1,0,0:0:0:0:
192,192,60403,1,0,0:0:0:0:
448,192,60578,1,0,0:0:0:0:
320,192,60578,1,0,0:0:0:0:
64,192,60752,1,0,0:0:0:0:
192,192,60752,1,0,0:0:0:0:
448,192,60927,1,0,0:0:0:0:
320,192,60927,1,0,0:0:0:0:
64,192,60927,1,0,0:0:0:0:
192,192,61101,1,0,0:0:0:0:
320,192,61276,1,0,0:0:0:0:
64,192,61276,1,0,0:0:0:0:
448,192,61450,1,0,0:0:0:0:
64,192,61624,1,0,0:0:0:0:
192,192,61624,1,0,0:0:0:0:
320,192,61624,1,0,0:0:0:0:
448,192,61799,1,0,0:0:0:0:
192,192,61973,1,0,0:0:0:0:
320,192,61973,1,0,0:0:0:0:
448,192,62148,128,0,63020:0:0:0:0:
64,192,62148,1,0,0:0:0:0:
320,192,62322,1,0,0:0:0:0:
192,192,62322,1,0,0:0:0:0:
64,192,62671,1,0,0:0:0:0:
192,192,63020,1,0,0:0:0:0:
320,192,63020,1,0,0:0:0:0:
64,192,63194,1,0,0:0:0:0:
448,192,63194,1,0,0:0:0:0:
64,192,63543,1,0,0:0:0:0:
320,192,63892,1,0,0:0:0:0:
448,192,64066,1,0,0:0:0:0:
320,192,64241,1,0,0:0:0:0:
64,192,64241,1,0,0:0:0:0:
192,192,64415,1,0,0:0:0:0:
64,192,64589,1,0,0:0:0:0:
320,192,64589,1,0,0:0:0:0:
192,192,64764,1,0,0:0:0:0:
448,192,64764,1,0,0:0:0:0:
64,192,64938,1,0,0:0:0:0:
320,192,64938,1,0,0:0:0:0:
448,192,65113,1,0,0:0:0:0:
448,192,65462,1,0,0:0:0:0:
64,192,65810,1,0,0:0:0:0:
320,192,65810,1,0,0:0:0:0:
192,192,65985,1,0,0:0:0:0:
448,192,65985,1,0,0:0:0:0:
448,192,66334,1,0,0:0:0:0:
192,192,66683,1,0,0:0:0:0:
320,192,66857,1,0,0:0:0:0:
448,192,66857,1,0,0:0:0:0:
64,192,66857,1,0,0:0:0:0:
192,192,67031,1,0,0:0:0:0:
64,192,67119,1,0,0:0:0:0:
192,192,67206,1,0,0:0:0:0:
320,192,67293,1,0,0:0:0:0:
448,192,67380,1,0,0:0:0:0:
320,192,67467,1,0,0:0:0:0:
192,192,67555,1,0,0:0:0:0:
64,192,67555,1,0,0:0:0:0:
448,192,67555,1,0,0:0:0:0:
320,192,67729,1,0,0:0:0:0:
448,192,67903,1,0,0:0:0:0:
192,192,67903,1,0,0:0:0:0:
320,192,68252,1,0,0:0:0:0:
64,192,68252,1,0,0:0:0:0:
192,192,68601,1,0,0:0:0:0:
448,192,68601,1,0,0:0:0:0:
64,192,68776,1,0,0:0:0:0:
64,192,69124,1,0,0:0:0:0:
192,192,69473,1,0,0:0:0:0:
320,192,69648,1,0,0:0:0:0:
448,192,69822,1,0,0:0:0:0:
192,192,69822,1,0,0:0:0:0:
64,192,69822,1,0,0:0:0:0:
320,192,69996,1,0,0:0:0:0:
448,192,70171,1,0,0:0:0:0:
64,192,70171,1,0,0:0:0:0:
192,192,70171,1,0,0:0:0:0:
320,192,70345,1,0,0:0:0:0:
64,192,70345,1,0,0:0:0:0:
192,192,70520,1,0,0:0:0:0:
64,192,70694,1,0,0:0:0:0:
320,192,70694,1,0,0:0:0:0:
448,192,71043,1,0,0:0:0:0:
192,192,71043,1,0,0:0:0:0:
320,192,71392,1,0,0:0:0:0:
64,192,71392,1,0,0:0:0:0:
448,192,71566,1,0,0:0:0:0:
64,192,71915,1,0,0:0:0:0:
448,192,72264,1,0,0:0:0:0:
192,192,72438,1,0,0:0:0:0:
64,192,72438,1,0,0:0:0:0:
320,192,72438,1,0,0:0:0:0:
448,192,72526,1,0,0:0:0:0:
192,192,72613,1,0,0:0:0:0:
320,192,72700,1,0,0:0:0:0:
64,192,72787,1,0,0:0:0:0:
192,192,72874,1,0,0:0:0:0:
448,192,72962,1,0,0:0:0:0:
320,192,73049,1,0,0:0:0:0:
64,192,73136,1,0,0:0:0:0:
448,192,73136,1,0,0:0:0:0:
192,192,73136,1,0,0:0:0:0:
320,192,73310,1,0,0:0:0:0:
320,192,73485,1,0,0:0:0:0:
64,192,73485,1,0,0:0:0:0:
448,192,73659,1,0,0:0:0:0:
192,192,73834,1,0,0:0:0:0:
320,192,74008,1,0,0:0:0:0:
448,192,74183,1,0,0:0:0:0:
64,192,74183,1,0,0:0:0:0:
192,192,74357,1,0,0:0:0:0:
448,192,74531,1,0,0:0:0:0:
64,192,74531,1,0,0:0:0:0:
320,192,74706,1,0,0:0:0:0:
320,192,74880,1,0,0:0:0:0:
64,192,74880,1,0,0:0:0:0:
192,192,75055,1,0,0:0:0:0:
448,192,75229,1,0,0:0:0:0:
320,192,75403,1,0,0:0:0:0:
448,192,75578,1,0,0:0:0:0:
64,192,75578,1,0,0:0:0:0:
192,192,75752,1,0,0:0:0:0:
320,192,75927,1,0,0:0:0:0:
448,192,75927,1,0,0:0:0:0:
64,192,75927,1,0,0:0:0:0:
192,192,76101,1,0,0:0:0:0:
64,192,76276,1,0,0:0:0:0:
448,192,76276,1,0,0:0:0:0:
320,192,76450,1,0,0:0:0:0:
448,192,76624,1,0,0:0:0:0:
192,192,76624,1,0,0:0:0:0:
64,192,76799,1,0,0:0:0:0:
448,192,76973,1,0,0:0:0:0:
320,192,76973,1,0,0:0:0:0:
192,192,77148,1,0,0:0:0:0:
448,192,77322,1,0,0:0:0:0:
64,192,77322,1,0,0:0:0:0:
320,192,77496,1,0,0:0:0:0:
448,192,77671,1,0,0:0:0:0:
64,192,77671,1,0,0:0:0:0:
192,192,77845,1,0,0:0:0:0:
64,192,78020,1,0,0:0:0:0:
320,192,78020,1,0,0:0:0:0:
448,192,78194,1,0,0:0:0:0:
64,192,78369,1,0,0:0:0:0:
192,192,78369,1,0,0:0:0:0:
320,192,78543,1,0,0:0:0:0:
192,192,78717,1,0,0:0:0:0:
448,192,78717,1,0,0:0:0:0:
64,192,78717,1,0,0:0:0:0:
320,192,78892,1,0,0:0:0:0:
320,192,79066,1,0,0:0:0:0:
64,192,79066,1,0,0:0:0:0:
448,192,79241,1,0,0:0:0:0:
192,192,79415,1,0,0:0:0:0:
320,192,79589,1,0,0:0:0:0:
448,192,79764,1,0,0:0:0:0:
64,192,79764,1,0,0:0:0:0:
320,192,79938,1,0,0:0:0:0:
64,192,80113,1,0,0:0:0:0:
448,192,80113,1,0,0:0:0:0:
192,192,80287,1,0,0:0:0:0:
448,192,80462,1,0,0:0:0:0:
192,192,80462,1,0,0:0:0:0:
64,192,80636,1,0,0:0:0:0:
448,192,80810,1,0,0:0:0:0:
192,192,80985,1,0,0:0:0:0:
64,192,81159,1,0,0:0:0:0:
320,192,81159,1,0,0:0:0:0:
448,192,81334,1,0,0:0:0:0:
64,192,81508,1,0,0:0:0:0:
192,192,81508,1,0,0:0:0:0:
320,192,81508,1,0,0:0:0:0:
448,192,81683,1,0,0:0:0:0:
192,192,81857,1,0,0:0:0:0:
64,192,81857,1,0,0:0:0:0:
448,192,82031,1,0,0:0:0:0:
64,192,82206,1,0,0:0:0:0:
192,192,82206,1,0,0:0:0:0:
448,192,82380,1,0,0:0:0:0:
320,192,82555,1,0,0:0:0:0:
192,192,82555,1,0,0:0:0:0:
64,192,82729,1,0,0:0:0:0:
320,192,82903,1,0,0:0:0:0:
448,192,82903,1,0,0:0:0:0:
192,192,82903,1,0,0:0:0:0:
64,192,83078,1,0,0:0:0:0:
448,192,83252,1,0,0:0:0:0:
320,192,83252,1,0,0:0:0:0:
64,192,83427,1,0,0:0:0:0:
448,192,83601,1,0,0:0:0:0:
320,192,83601,1,0,0:0:0:0:
192,192,83688,1,0,0:0:0:0:
448,192,83776,1,0,0:0:0:0:
320,192,83863,1,0,0:0:0:0:
64,192,83950,1,0,0:0:0:0:
448,192,83950,1,0,0:0:0:0:
192,192,83950,1,0,0:0:0:0:
320,192,84124,1,0,0:0:0:0:
64,192,84299,1,0,0:0:0:0:
448,192,84299,128,0,84822:0:0:0:0:
192,192,84299,1,0,0:0:0:0:
320,192,84822,128,0,85171:0:0:0:0:
448,192,84996,1,0,0:0:0:0:
64,192,84996,1,0,0:0:0:0:
192,192,85171,128,0,85520:0:0:0:0:
64,192,85520,128,0,85869:0:0:0:0:
320,192,85520,1,0,0:0:0:0:
448,192,85607,1,0,0:0:0:0:
192,192,85694,1,0,0:0:0:0:
320,192,85869,1,0,0:0:0:0:
448,192,85927,1,0,0:0:0:0:
64,192,85985,1,0,0:0:0:0:
192,192,86043,1,0,0:0:0:0:
448,192,86130,1,0,0:0:0:0:
320,192,86217,128,0,86566:0:0:0:0:
192,192,86392,1,0,0:0:0:0:
64,192,86392,1,0,0:0:0:0:
448,192,86566,1,0,0:0:0:0:
320,192,86653,1,0,0:0:0:0:
192,192,86741,1,0,0:0:0:0:
448,192,86741,1,0,0:0:0:0:
320,192,86828,1,0,0:0:0:0:
64,192,86915,1,0,0:0:0:0:
192,192,86915,1,0,0:0:0:0:
320,192,87089,128,0,87613:0:0:0:0:
64,192,87089,1,0,0:0:0:0:
448,192,87089,1,0,0:0:0:0:
192,192,87438,1,0,0:0:0:0:
448,192,87438,1,0,0:0:0:0:
64,192,87613,1,0,0:0:0:0:
192,192,87671,1,0,0:0:0:0:
320,192,87729,1,0,0:0:0:0:
448,192,87787,128,0,87962:0:0:0:0:
192,192,87962,128,0,88310:0:0:0:0:
448,192,88136,1,0,0:0:0:0:
320,192,88136,1,0,0:0:0:0:
64,192,88310,128,0,89357:0:0:0:0:
448,192,88485,1,0,0:0:0:0:
320,192,88659,1,0,0:0:0:0:
192,192,88834,1,0,0:0:0:0:
448,192,88834,1,0,0:0:0:0:
320,192,89008,1,0,0:0:0:0:
448,192,89183,1,0,0:0:0:0:
320,192,89357,1,0,0:0:0:0:
192,192,89357,1,0,0:0:0:0:
64,192,89531,1,0,1:0:0:0:
448,192,89531,1,0,0:0:0:0:
192,192,89706,1,0,0:0:0:0:
320,192,89880,1,0,0:0:0:0:
448,192,89880,128,0,90403:0:0:0:0:
64,192,89880,1,0,0:0:0:0:
192,192,90403,128,0,90752:0:0:0:0:
64,192,90578,1,0,0:1:0:0:
448,192,90578,1,0,0:0:0:0:
320,192,90752,128,0,91101:0:0:0:0:
64,192,91101,128,0,91450:0:0:0:0:
448,192,91101,1,0,0:0:0:0:
192,192,91188,1,0,0:0:0:0:
320,192,91276,1,0,0:0:0:0:
448,192,91450,1,0,0:0:0:0:
320,192,91508,1,0,0:0:0:0:
64,192,91566,1,0,0:0:0:0:
192,192,91624,1,0,0:0:0:0:
448,192,91712,1,0,0:0:0:0:
320,192,91799,128,0,92148:0:0:0:0:
64,192,91973,1,0,0:0:0:0:
448,192,91973,1,0,0:0:0:0:
192,192,92148,1,0,0:0:0:0:
320,192,92235,1,0,0:0:0:0:
192,192,92322,1,0,0:0:0:0:
448,192,92322,1,0,0:0:0:0:
64,192,92409,1,0,0:0:0:0:
192,192,92496,1,0,0:0:0:0:
320,192,92496,1,0,0:0:0:0:
64,192,92671,1,0,0:0:0:0:
448,192,92671,1,0,0:0:0:0:
320,192,92671,128,0,93194:0:0:0:0:
448,192,93020,1,0,0:0:0:0:
192,192,93020,1,0,0:0:0:0:
64,192,93194,1,0,0:0:0:0:
192,192,93252,1,0,0:0:0:0:
320,192,93310,1,0,0:0:0:0:
448,192,93369,128,0,93543:0:0:0:0:
192,192,93543,128,0,93892:0:0:0:0:
448,192,93717,1,0,0:0:0:0:
320,192,93717,1,0,0:0:0:0:
64,192,93892,128,0,95462:0:0:0:0:
448,192,94066,1,0,0:0:0:0:
192,192,94241,1,0,0:0:0:0:
448,192,94415,1,0,0:0:0:0:
320,192,94415,1,0,0:0:0:0:
192,192,94589,1,0,0:0:0:0:
448,192,94764,1,0,0:0:0:0:
320,192,94764,1,0,0:0:0:0:
448,192,94938,1,0,0:0:0:0:
192,192,94938,1,0,0:0:0:0:
320,192,95113,1,0,0:0:0:0:
192,192,95113,1,0,0:0:0:0:
320,192,95287,1,0,1:0:0:0:
448,192,95287,1,0,0:0:0:0:
448,192,95462,1,0,0:0:0:0:
192,192,95462,1,0,0:0:0:0:
320,192,95462,1,0,0:0:0:0:
320,192,95810,1,0,0:0:0:0:
192,192,95810,1,0,0:0:0:0:
448,192,95985,1,0,0:0:0:0:
64,192,95985,1,0,0:0:0:0:
192,192,96159,1,0,0:0:0:0:
320,192,96334,1,0,0:0:0:0:
448,192,96334,1,0,0:0:0:0:
64,192,96508,1,0,0:0:0:0:
448,192,96508,1,0,0:0:0:0:
192,192,96683,1,0,0:0:0:0:
320,192,96683,1,0,0:0:0:0:
448,192,96857,1,0,0:0:0:0:
64,192,96857,1,0,0:0:0:0:
320,192,97031,1,0,0:0:0:0:
64,192,97206,1,0,0:0:0:0:
320,192,97206,1,0,0:0:0:0:
448,192,97380,1,0,0:0:0:0:
192,192,97380,1,0,0:0:0:0:
320,192,97555,1,0,0:0:0:0:
192,192,97729,1,0,0:0:0:0:
64,192,97729,1,0,0:0:0:0:
448,192,97903,1,0,0:0:0:0:
64,192,97903,1,0,0:0:0:0:
448,192,98078,1,0,0:0:0:0:
320,192,98078,1,0,0:0:0:0:
64,192,98252,1,0,0:0:0:0:
320,192,98252,1,0,0:0:0:0:
192,192,98427,1,0,0:0:0:0:
64,192,98601,1,0,0:0:0:0:
448,192,98601,1,0,0:0:0:0:
320,192,98776,1,0,0:0:0:0:
64,192,98950,1,0,0:0:0:0:
192,192,98950,1,0,0:0:0:0:
320,192,99124,1,0,0:0:0:0:
448,192,99124,1,0,0:0:0:0:
64,192,99299,1,0,0:0:0:0:
448,192,99299,1,0,0:0:0:0:
320,192,99473,1,0,0:0:0:0:
192,192,99473,1,0,0:0:0:0:
64,192,99648,1,0,0:0:0:0:
448,192,99648,1,0,0:0:0:0:
320,192,99822,1,0,0:0:0:0:
192,192,99996,1,0,0:0:0:0:
448,192,99996,1,0,0:0:0:0:
64,192,100171,1,0,0:0:0:0:
448,192,100345,1,0,0:0:0:0:
320,192,100345,1,0,0:0:0:0:
320,192,100520,1,0,0:0:0:0:
192,192,100520,1,0,0:0:0:0:
64,192,100694,1,0,0:0:0:0:
192,192,100694,1,0,0:0:0:0:
320,192,100869,1,0,0:0:0:0:
192,192,100869,1,0,0:0:0:0:
64,192,101043,1,0,0:0:0:0:
448,192,101043,1,0,0:0:0:0:
320,192,101043,1,0,0:0:0:0:
192,192,101217,1,0,0:0:0:0:
320,192,101392,1,0,0:0:0:0:
64,192,101392,1,0,0:0:0:0:
448,192,101566,1,0,0:0:0:0:
192,192,101566,1,0,0:0:0:0:
320,192,101741,1,0,0:0:0:0:
64,192,101915,1,0,0:0:0:0:
192,192,101915,1,0,0:0:0:0:
448,192,102089,1,0,0:0:0:0:
64,192,102089,1,0,0:0:0:0:
192,192,102264,1,0,0:0:0:0:
320,192,102264,1,0,0:0:0:0:
448,192,102438,1,0,0:0:0:0:
64,192,102438,1,0,0:0:0:0:
192,192,102613,1,0,0:0:0:0:
320,192,102787,1,0,0:0:0:0:
448,192,102787,1,0,0:0:0:0:
64,192,102962,1,0,0:0:0:0:
448,192,102962,1,0,0:0:0:0:
192,192,103136,1,0,0:0:0:0:
448,192,103310,1,0,0:0:0:0:
320,192,103310,1,0,0:0:0:0:
64,192,103485,1,0,0:0:0:0:
448,192,103485,1,0,0:0:0:0:
320,192,103659,1,0,0:0:0:0:
192,192,103659,1,0,0:0:0:0:
64,192,103834,1,0,0:0:0:0:
448,192,103834,1,0,0:0:0:0:
192,192,104008,1,0,0:0:0:0:
320,192,104183,1,0,0:0:0:0:
64,192,104183,1,0,0:0:0:0:
448,192,104357,1,0,0:0:0:0:
192,192,104531,1,0,0:0:0:0:
64,192,104531,1,0,0:0:0:0:
320,192,104706,1,0,0:0:0:0:
192,192,104706,1,0,0:0:0:0:
448,192,104880,1,0,0:0:0:0:
320,192,104880,1,0,0:0:0:0:
64,192,105055,1,0,0:0:0:0:
192,192,105055,1,0,0:0:0:0:
64,192,105229,1,0,0:0:0:0:
320,192,105229,1,0,0:0:0:0:
448,192,105229,1,0,0:0:0:0:
320,192,105403,1,0,0:0:0:0:
192,192,105403,1,0,0:0:0:0:
192,192,105578,1,0,0:0:0:0:
64,192,105578,1,0,0:0:0:0:
448,192,105578,1,0,0:0:0:0:
192,192,105752,1,0,0:0:0:0:
320,192,105752,1,0,0:0:0:0:
448,192,105927,1,0,0:0:0:0:
64,192,105927,1,0,0:0:0:0:
320,192,105927,1,0,0:0:0:0:
192,192,106101,1,0,0:0:0:0:
320,192,106188,1,0,0:0:0:0:
192,192,106276,1,0,0:0:0:0:
448,192,106276,1,0,0:0:0:0:
64,192,106363,1,0,0:0:0:0:
192,192,106450,1,0,0:0:0:0:
320,192,106537,1,0,0:0:0:0:
448,192,106624,128,0,108020:0:0:0:0:
64,192,106624,1,0,0:0:0:0:
192,192,106624,1,0,0:0:0:0:
320,192,106799,1,0,0:0:0:0:
192,192,106973,1,0,0:0:0:0:
320,192,106973,1,0,0:0:0:0:
64,192,107148,1,0,0:0:0:0:
192,192,107322,1,0,0:0:0:0:
320,192,107322,1,0,0:0:0:0:
192,192,107496,1,0,0:0:0:0:
320,192,107671,1,0,0:0:0:0:
64,192,107671,1,0,0:0:0:0:
64,192,107845,1,0,0:0:0:0:
192,192,108020,128,0,109415:0:0:0:0:
320,192,108020,1,0,0:0:0:0:
448,192,108194,1,0,0:0:0:0:
320,192,108369,1,0,0:0:0:0:
64,192,108369,1,0,0:0:0:0:
448,192,108543,1,0,0:0:0:0:
64,192,108717,1,0,0:0:0:0:
320,192,108717,1,0,0:0:0:0:
64,192,108892,1,0,0:0:0:0:
320,192,109066,1,0,0:0:0:0:
448,192,109066,1,0,0:0:0:0:
64,192,109241,1,0,0:0:0:0:
448,192,109415,128,0,112206:0:0:0:0:
320,192,109415,1,0,0:0:0:0:
192,192,109589,1,0,0:0:0:0:
320,192,109764,1,0,0:0:0:0:
64,192,109764,1,0,0:0:0:0:
192,192,109938,1,0,0:0:0:0:
192,192,110113,1,0,0:0:0:0:
320,192,110113,1,0,0:0:0:0:
64,192,110287,1,0,0:0:0:0:
192,192,110462,1,0,0:0:0:0:
320,192,110462,1,0,0:0:0:0:
320,192,110636,1,0,0:0:0:0:
192,192,110810,1,0,0:0:0:0:
64,192,110810,1,0,0:0:0:0:
320,192,110985,1,0,0:0:0:0:
192,192,111159,1,0,0:0:0:0:
64,192,111159,1,0,0:0:0:0:
64,192,111334,1,0,0:0:0:0:
192,192,111508,1,0,0:0:0:0:
320,192,111508,1,0,0:0:0:0:
64,192,111683,1,0,0:0:0:0:
192,192,111770,1,0,0:0:0:0:
320,192,111857,1,0,0:0:0:0:
64,192,111944,1,0,0:0:0:0:
192,192,112031,1,0,0:0:0:0:
320,192,112119,1,0,0:0:0:0:
64,192,112206,128,0,113601:0:0:0:0:
192,192,112206,1,0,0:0:0:0:
448,192,112380,1,0,0:0:0:0:
320,192,112555,1,0,0:0:0:0:
192,192,112555,1,0,0:0:0:0:
448,192,112729,1,0,0:0:0:0:
320,192,112903,1,0,0:0:0:0:
192,192,112903,1,0,0:0:0:0:
192,192,113078,1,0,0:0:0:0:
320,192,113252,1,0,0:0:0:0:
448,192,113252,1,0,0:0:0:0:
192,192,113427,1,0,0:0:0:0:
320,192,113601,128,0,114996:0:0:0:0:
448,192,113601,1,0,0:0:0:0:
192,192,113776,1,0,0:0:0:0:
64,192,113950,1,0,0:0:0:0:
448,192,113950,1,0,0:0:0:0:
192,192,114124,1,0,0:0:0:0:
448,192,114299,1,0,0:0:0:0:
64,192,114299,1,0,0:0:0:0:
448,192,114473,1,0,0:0:0:0:
64,192,114648,1,0,0:0:0:0:
192,192,114648,1,0,0:0:0:0:
448,192,114822,1,0,0:0:0:0:
64,192,114996,128,0,117787:0:0:0:0:
192,192,114996,1,0,0:0:0:0:
320,192,115171,1,0,0:0:0:0:
448,192,115345,1,0,0:0:0:0:
192,192,115345,1,0,0:0:0:0:
320,192,115520,1,0,0:0:0:0:
320,192,115694,1,0,0:0:0:0:
192,192,115694,1,0,0:0:0:0:
448,192,115869,1,0,0:0:0:0:
320,192,116043,1,0,0:0:0:0:
192,192,116043,1,0,0:0:0:0:
448,192,116217,1,0,0:0:0:0:
320,192,116392,1,0,0:0:0:0:
448,192,116392,1,0,0:0:0:0:
192,192,116566,1,0,0:0:0:0:
320,192,116741,1,0,0:0:0:0:
448,192,116741,1,0,0:0:0:0:
192,192,116915,1,0,0:0:0:0:
448,192,117089,1,0,0:0:0:0:
320,192,117089,1,0,0:0:0:0:
192,192,117177,1,0,0:0:0:0:
320,192,117264,1,0,0:0:0:0:
448,192,117351,1,0,0:0:0:0:
320,192,117438,1,0,0:0:0:0:
192,192,117526,1,0,0:0:0:0:
320,192,117613,1,0,0:0:0:0:
448,192,117700,1,0,0:0:0:0:
320,192,117787,1,0,1:0:0:0:
192,192,117787,1,0,0:0:0:0:
448,192,117962,1,0,0:0:0:0:
64,192,118136,1,0,0:0:0:0:
192,192,118310,1,0,0:0:0:0:
448,192,118485,1,0,0:0:0:0:
320,192,118659,1,0,0:0:0:0:
192,192,118834,1,0,0:0:0:0:
448,192,119008,1,0,0:0:0:0:
64,192,119183,1,0,0:0:0:0:
320,192,119357,1,0,0:0:0:0:
192,192,119531,1,0,0:0:0:0:
448,192,119706,1,0,0:0:0:0:
64,192,119880,1,0,0:0:0:0:
448,192,120055,1,0,0:0:0:0:
320,192,120229,1,0,0:0:0:0:
192,192,120403,1,0,0:0:0:0:
448,192,120578,1,0,0:0:0:0:
64,192,120752,1,0,0:0:0:0:
320,192,120927,1,0,0:0:0:0:
192,192,121101,1,0,0:0:0:0:
64,192,121276,1,0,0:0:0:0:
320,192,121450,1,0,0:0:0:0:
192,192,121624,1,0,0:0:0:0:
320,192,121741,1,0,0:0:0:0:
448,192,121799,1,0,0:0:0:0:
64,192,121857,1,0,0:0:0:0:
192,192,121915,1,0,0:0:0:0:
320,192,121973,1,0,0:0:0:0:
448,192,122031,1,0,0:0:0:0:
320,192,122089,1,0,0:0:0:0:
192,192,122148,1,0,0:0:0:0:
64,192,122206,1,0,0:0:0:0:
448,192,122264,1,0,0:0:0:0:
320,192,122322,1,0,0:0:0:0:
192,192,122380,1,0,0:0:0:0:
64,192,122438,1,0,0:0:0:0:
448,192,122496,1,0,0:0:0:0:
320,192,122555,1,0,0:0:0:0:
192,192,122613,1,0,0:0:0:0:
448,192,122729,1,0,0:0:0:0:
320,192,122787,1,0,0:0:0:0:
64,192,122845,1,0,0:0:0:0:
192,192,122903,1,0,0:0:0:0:
320,192,122962,1,0,0:0:0:0:
448,192,123020,1,0,0:0:0:0:
320,192,123078,1,0,0:0:0:0:
192,192,123136,1,0,0:0:0:0:
64,192,123194,1,0,0:0:0:0:
448,192,123252,1,0,0:0:0:0:
320,192,123310,1,0,0:0:0:0:
64,192,123369,1,0,0:0:0:0:
192,192,123412,1,0,0:0:0:0:
320,192,123456,1,0,0:0:0:0:
448,192,123499,1,0,0:0:0:0:
64,192,123543,1,0,0:0:0:0:
192,192,123587,1,0,0:0:0:0:
