osu file format v9

[General]
AudioFilename: Kuro no yogensho.mp3
AudioLeadIn: 0
PreviewTime: 229147
Countdown: 0
SampleSet: Soft
StackLeniency: 0.7
Mode: 0
LetterboxInBreaks: 1

[Editor]
DistanceSpacing: 1
BeatDivisor: 4
GridSize: 4

[Metadata]
Title:Kuro no Yogensho
Artist:Sound Horizon
Creator:Fluorine
Version:Easy
Source:Chronicle 2nd
Tags:black Ichigo-Sora

[Difficulty]
HPDrainRate:2
CircleSize:3
OverallDifficulty:2
ApproachRate:2
SliderMultiplier:0.9
SliderTickRate:2

[Events]
//Background and Video events
0,0,"bg1.png"
//Break Periods
2,146375,157740
2,191375,195240
//Storyboard Layer 0 (Background)
//Storyboard Layer 1 (Fail)
//Storyboard Layer 2 (Pass)
//Storyboard Layer 3 (Foreground)
//Storyboard Sound Samples
//Background Colour Transformations
3,100,163,162,255

[TimingPoints]
65550,468.75,4,2,0,70,1,0
102581,-100,4,1,0,50,0,0
103050,-100,4,1,1,50,0,0
118050,-100,4,2,0,70,0,0
133050,-100,4,2,0,70,0,1
146175,-100,4,2,0,55,0,0
196800,-100,4,1,1,40,0,0
210862,-100,4,1,0,20,0,0
211331,-100,4,1,0,30,0,0
211800,-100,4,1,0,40,0,0
212268,-100,4,1,0,50,0,0
212737,-100,4,1,1,60,0,1
214612,-100,4,1,1,70,0,1
227737,-100,4,2,0,80,0,0
229612,-100,4,2,0,70,0,0
244612,-100,4,1,1,50,0,0
258675,-100,4,1,0,60,0,0
259612,-100,4,1,1,65,0,1
269690,-100,4,2,1,70,0,1
271800,-100,4,2,1,50,0,1
272268,-100,4,2,1,30,0,1
272737,-100,4,2,0,10,0,0
274280,517.464424320828,4,2,0,10,1,0

[Colours]
Combo1 : 169,64,232
Combo2 : 88,65,252
Combo3 : 158,180,254
Combo4 : 251,151,191

[HitObjects]
112,96,73050,1,2
292,96,73987,1,0
419,223,74925,1,2
239,223,75862,2,0,B|183:223|183:167,2,90,2|0|2
387,121,77737,5,0
228,204,78675,2,0,B|193:161|228:124,2,90,4|0|4
318,204,80081,2,0,B|414:204,1,90,8|2
264,96,81487,5,0
112,192,82425,1,2
264,288,83362,2,0,B|304:253|344:288,2,90,2|0|2
112,192,85237,1,0
272,276,86175,2,0,B|328:192|272:108,1,180,4|2
112,192,88050,5,2
292,192,88987,1,0
202,35,89925,1,2
112,192,90862,2,0,B|152:152|192:192,2,90,2|0|2
256,300,92737,5,0
256,120,93675,2,0,B|256:24,2,90,4|0|4
166,120,95081,2,0,B|117:120|117:56,1,90,8|2
296,68,96487,5,0
296,248,97425,1,2
116,248,98362,2,0,B|155:282|196:248,2,90,2|0|2
132,68,100237,5,0
312,68,101175,2,0,B|407:192|312:316,1,270,4|8
222,315,103050,6,0,B|261:274|221:234,1,90,4|8
222,146,103987,2,0,B|182:105|222:65,1,90,0|8
310,66,104925,2,0,B|414:66,2,90,0|8|0
310,156,106331,1,8
400,156,106800,6,0,B|496:156,1,90,0|8
490,246,107737,2,0,B|514:286|490:334,1,90,0|8
401,332,108675,2,0,B|256:332,2,135,4|8|0
401,242,110550,5,4
401,107,111253,1,0
284,174,111956,1,0
284,84,112425,2,0,B|188:83,2,90,8|0|8
104,84,114300,6,0,B|71:100|59:140|71:180|103:196,1,135,8|0
172,140,115471,1,0
278,56,116175,2,0,B|335:140|278:224,1,180,8|0
457,214,118050,5,2
327,89,118987,1,0
197,214,119925,1,2
327,338,120862,1,0
457,214,121800,6,0,B|492:176|456:132,1,90,2|0
367,133,122737,1,2
187,133,123675,6,0,B|154:109|210:85|178:53,1,90,2|0
267,53,124612,2,0,B|307:13|347:53,1,90,2|0
307,133,125550,5,2
168,248,126487,1,0
29,133,127425,2,0,B|61:109|5:85|37:53,2,90,2|0|2
118,289,129300,5,0
298,289,130237,2,0,B|297:193,1,90,2|0
233,135,131175,1,2
413,135,132112,2,0,B|440:179|412:223,1,90,2|8
349,283,133050,5,4
169,283,133987,1,0
259,127,134925,1,2
439,127,135862,1,0
439,307,136800,6,0,B|383:307|383:251,2,90,2|0|2
256,192,138675,8,0,141487
132,192,142425,6,0,B|256:288|380:192,2,270,2|0|2
256,60,146175,1,4
376,120,159300,5,2
248,247,160237,1,0
67,247,161175,6,0,B|119:247|143:208,2,90,2|0|2
67,157,162581,2,0,B|191:60|315:156,1,270,0|2
362,232,164456,2,0,B|266:231,1,90,2|0
143,105,165862,5,2
220,58,166331,2,0,B|317:182|221:306,1,270,2|2
143,261,168206,1,2
200,191,168675,6,0,B|272:119|360:191,1,180,0|2
360,281,170081,1,2
450,281,170550,2,0,B|402:257|514:137|450:113,1,180,0|2
366,115,171956,2,0,B|366:211,1,90,2|0
238,332,173362,5,2
158,170,174300,1,0
79,332,175237,1,2
79,152,176175,6,0,B|79:55,2,90,2|0|2
220,264,178050,2,0,B|220:360,2,90,2|0|2
361,152,179925,2,0,B|361:56,2,90,2|0|2
444,312,181800,6,0,B|360:368|276:312,1,180,2|2
192,280,183206,1,2
153,198,183675,2,0,B|241:162|329:198,1,180,2|2
292,280,185081,5,2
382,280,185550,2,0,B|446:216,2,90,2|0|2
213,216,187425,6,0,B|277:280,2,90,2|0|2
277,47,189300,2,0,B|213:111,2,90,2|0|2
445,111,191175,1,4
128,140,196800,6,0,B|192:68,1,90,0|8
247,140,197737,2,0,B|311:68,1,90,0|8
367,140,198675,2,0,B|430:68,1,90,0|8
471,150,199612,6,0,B|407:222,1,90,0|8
321,217,200550,2,0,B|256:153,1,90,0|8
167,153,201487,2,0,B|102:225,1,90,0|8
171,283,202425,5,0
261,283,202893,2,0,B|260:336|320:356,2,90,8|0|8
350,271,204300,2,0,B|406:271|406:207,1,90,0|8
361,136,205237,6,2,B|273:104|185:136,1,180,2|0
184,226,206643,2,2,B|368:226,1,180,2|8
453,239,208050,6,0,B|453:303|389:303,1,90,0|8
313,302,208987,2,0,B|248:302|248:238,1,90,0|8
248,162,209925,2,0,B|248:98|312:98,1,90,0|8
385,76,210862,5,4
385,166,211331,2,0,B|385:262,2,90
302,130,212737,6,2,B|174:250|302:362,1,270,2|0
383,325,214612,2,0,B|383:277,5,45
287,184,216487,2,0,B|287:232,5,45
191,324,218362,6,0,B|191:276,5,45
95,183,220237,2,0,B|95:231,5,45
190,323,222112,6,2,B|295:377|406:323,1,225,2|0
330,211,223987,2,2,B|225:265|114:211,1,225,2|0
72,82,225862,2,2,B|312:82,1,225,2|0
432,88,227737,5,4
80,168,229612,5,2
260,168,230550,1,0
348,324,231487,2,0,B|260:356|172:324,1,180,2|2
260,168,233362,5,2
440,168,234300,1,2
260,168,235237,2,0,B|172:136|84:168,1,180,2|2
172,325,237112,6,0,B|172:253,1,67.5,2|0
284,264,238050,2,0,B|284:192,1,67.5,2|0
202,119,238987,2,0,B|282:63|370:119,1,180,2|2
443,283,240862,6,0,B|443:211,1,67.5,2|0
331,222,241800,2,0,B|331:150,1,67.5,2|0
251,74,242737,2,0,B|211:38|171:74,2,90,2|0|2
380,200,244612,6,0,B|380:16,1,180,0|8
199,20,246487,2,0,B|167:108|199:196,1,180,0|8
326,323,248362,6,0,B|238:291|150:323,1,180,0|8
277,195,250237,2,0,B|309:106|277:18,1,180,0|8
149,146,252112,5,0
329,146,253050,1,8
456,273,253987,1,0
276,273,254925,1,0
366,117,255862,6,0,B|366:21,2,90,8|0|8
186,117,257737,1,0
313,244,258675,6,0,B|217:244,1,90,4|8
133,244,259612,2,2,B|100:156|132:68,1,180,2|0
297,138,261487,2,2,B|328:226|297:314,1,180,0|0
141,223,263362,2,2,B|108:136|140:47,1,180,2|0
276,164,265237,6,0,B|364:164,1,90,4|8
452,188,266175,2,0,B|488:228|452:268,1,90,0|8
363,270,267112,2,0,B|363:334,2,45,0|0|8
363,180,268050,2,0,B|267:179,2,90
256,192,269690,8,0,272737
