osu file format v5

[General]
AudioFilename: Sound Horizon - Anata wo uchiotoshita hi.mp3
AudioLeadIn: 0
PreviewTime: -1
Countdown: 0
SampleSet: Normal
StackLeniency: 0.7
Mode: 0
LetterboxInBreaks: 1
EditorBookmarks: 2556,34412,65910,75648,98080,115585,162607
EditorDistanceSpacing: 0.800000011920929

[Metadata]
Title:Koibito wo uchiotoshitahi
Artist:Sound Horizon
Creator:aboutmetal
Version:Shooting down my love
Source:Lost
Tags:Sound Horizon Lost aramary

[Difficulty]
HPDrainRate:6
CircleSize:6
OverallDifficulty:6
SliderMultiplier:2.5
SliderTickRate:1

[Events]
//Background and Video events
1,0,"pv.avi"
0,0,"bg.jpg"
//Break Periods
2,18418,33970
2,82352,98852
2,145358,162020
//Storyboard Layer 0 (Background)
//Storyboard Layer 1 (Failing)
//Storyboard Layer 2 (Passing)
//Storyboard Layer 3 (Foreground)
//Storyboard Sound Samples
//Background Colour Transformations
3,100,0,0,0

[TimingPoints]
2526,491.803278688525,4,1,0,70,1,0
34493,491.803278688525,4,2,1,76,1,0
49984,491.803278688525,4,1,0,55,1,0
50721,491.803278688525,4,2,1,100,1,0
65721,491.803278688525,4,1,0,71,1,0
99655,491.803278688525,4,2,1,74,1,0
115638,491.803278688525,4,2,1,100,1,0
162851,491.803278688525,4,1,0,90,1,0

[HitObjects]
64,128,3017,6,8,B|128:192,1,62.5
128,64,3263,2,0,B|64:128,1,62.5
128,128,3509,1,8
128,128,3632,1,0
160,160,3755,1,0
160,160,3878,1,0
192,192,4001,1,8
192,192,4124,1,0
224,224,4247,2,0,B|288:288,1,62.5
256,320,4493,2,8,B|320:256,1,62.5
288,320,4739,2,0,B|352:256,1,62.5
288,224,4985,2,8,B|352:288,1,62.5
352,256,5230,2,0,B|416:192,1,62.5
416,192,5476,5,8
256,192,5722,1,0
96,192,5968,1,8
256,224,6214,1,0
288,192,6337,5,0
256,160,6460,1,8
224,192,6583,1,0
256,224,6706,1,0
96,192,6952,1,8
256,192,7198,5,0
416,192,7444,2,8,B|352:256,1,62.5
416,288,7689,2,0,B|352:224,1,62.5
352,288,7935,2,8,B|288:224,1,62.5
307,243,8181,2,0,B|352:192,1,62.5
256,224,8427,2,8,B|320:160,1,62.5
256,256,8673,2,0,B|192:192,1,62.5
160,192,8919,1,8
160,192,9042,1,0
128,192,9165,1,0
128,192,9288,1,0
96,160,9411,6,8,B|160:96,4,62.5
64,128,10026,1,0
64,128,10148,1,0
96,96,10271,1,0
96,96,10394,1,8
128,64,10517,1,0
128,64,10640,1,0
160,64,10763,1,0
192,64,10886,5,8
288,64,11132,1,0
384,64,11378,1,8
384,64,11501,1,0
416,96,11624,1,0
416,96,11747,1,0
416,160,11870,1,8
416,160,11993,1,0
416,160,12116,1,0
416,160,12239,1,0
352,192,12362,2,8,B|448:192,2,62.5
305,192,12730,2,0,B|305:288,2,62.5
245,192,13099,1,0
246,129,13345,2,8,B|246:193,1,62.5
308,191,13591,2,0,B|244:191,1,62.5
247,254,13837,2,8,B|247:190,1,62.5
247,191,14083,1,0
242,193,14206,2,0,B|146:192,3,62.5
183,158,14698,1,8
256,192,14821,5,8
256,256,15066,1,8
256,128,15312,2,8,B|320:128,2,62.5
245,193,15681,1,0
246,193,15804,2,8,B|310:129,1,62.5
245,194,16050,2,0,B|181:130,1,62.5
246,193,16296,2,8,B|182:257,1,62.5
245,194,16542,2,0,B|309:258,1,62.5
245,136,16788,1,8
299,137,16911,1,0
299,194,17034,1,0
299,251,17157,1,0
247,252,17280,2,10,B|247:188,8,62.5
123,344,35968,5,0
160,288,36337,1,0
160,192,36706,1,0
160,96,36952,2,0,B|352:96,2,165
160,96,37935,1,0
224,96,38673,6,0,B|352:96,2,110
288,96,39657,1,0
352,96,39903,1,0
384,160,40271,1,0
384,224,40640,1,0
384,224,40886,1,0
384,288,41255,1,0
384,352,41624,2,0,B|256:352|160:256|32:64,1,440
64,64,42853,6,0,B|128:64|192:96|192:160,1,165
192,146,43591,1,0
224,128,43837,2,0,B|288:128|352:96|384:64,1,165
376,72,44575,1,0
416,96,44821,2,0,B|448:160|448:224|416:288,1,165
429,257,45558,1,0
384,288,45804,2,0,B|256:352|160:288|64:224,1,330
78,233,46788,5,0
77,232,47157,1,0
79,232,47526,1,0
128,256,47771,2,0,B|256:256|352:192|416:96,1,330
384,64,48755,2,0,B|224:64|160:128|96:224,1,330
64,256,49739,1,0
128,256,50066,6,8,B|192:256,2,36.6666666666667
192,256,50476,1,6
288,256,50722,6,0,B|352:256|448:320,1,165
441,315,51460,1,0
370,347,51706,2,0,B|279:348|225:309|192:265,1,165
218,293,52444,2,0,B|134:265|88:181|62:95|82:38,1,275
76,76,53427,1,0
75,75,53673,1,0
160,64,54411,5,0
160,64,54657,1,0
160,64,55026,2,0,B|352:64,1,165
384,64,55640,1,0
384,64,55886,2,0,B|384:288,1,220
384,286,56624,1,0
320,288,56993,1,0
256,288,57362,2,0,B|224:224|224:224|192:320|192:320|160:192|160:192|128:288|128:288|96:128,1,550
100,148,58960,5,0
100,148,59329,2,0,B|140:70|210:45|269:31|362:44,1,275
333,41,60312,2,0,B|431:55|461:100|480:165|472:239,1,275
473,239,61542,1,0
416,288,62280,1,0
416,288,62526,1,0
352,288,62894,1,0
288,288,63263,2,0,B|160:288,4,110
288,288,64493,1,0
256,192,65230,1,0
256,192,65476,1,0
256,192,65722,6,8,B|256:128,2,36.6666666666667
256,192,66214,1,4
192,256,66460,5,10
256,256,66829,1,10
320,256,67198,1,10
256,192,67444,12,0,68424
256,192,68919,5,0
224,160,69165,1,0
256,128,69411,1,0
224,96,69780,1,0
160,96,70148,2,0,B|32:128|64:256|160:352|224:352,1,330
224,352,71132,1,0
256,352,71255,1,0
320,320,71870,5,0
382,278,72362,1,0
443,226,72730,1,0
480,192,73099,1,0
442,156,73345,1,0
366,105,73714,1,0
294,55,74083,1,0
255,28,74329,1,0
64,192,74821,1,0
256,352,75312,1,0
448,192,75804,1,0
448,128,76296,5,0
416,64,76788,2,0,B|288:64,2,110
384,128,77648,1,0
352,192,78017,2,0,B|224:192,2,110
320,256,78755,1,0
384,256,79001,1,0
416,256,79124,2,0,B|416:320|416:320|192:320,1,275
192,320,79985,5,0
160,320,80230,2,0,B|96:288|64:224|64:160,1,165
67,192,80968,1,0
64,128,81214,2,0,B|96:64|160:64|224:64,1,165
205,63,81952,1,0
256,64,82198,1,0
32,32,99903,6,0,B|416:32,1,330
384,32,100886,1,0
416,32,101132,1,0
448,32,101378,1,0
480,64,101624,1,0
448,96,101870,6,0,B|96:96,1,330
118,96,102853,1,0
118,96,103099,1,0
118,96,103345,1,0
64,128,103591,1,0
96,160,103837,6,0,B|448:160,1,330
448,192,104821,1,0
480,224,105066,1,0
448,256,105312,1,0
416,288,105558,1,0
384,288,105804,6,0,B|32:288,1,330
54,288,106788,1,0
54,288,107034,1,0
54,288,107280,1,0
32,256,107526,1,0
32,224,107771,6,0,B|32:96|160:0,1,220
123,30,108509,1,0
123,30,108755,1,0
160,32,109001,2,0,B|288:32,1,110
270,32,109493,1,0
320,32,109739,6,0,B|480:64|480:224,1,220
474,168,110476,1,0
474,168,110722,1,0
475,179,110968,2,0,B|481:299,1,110
481,289,111460,1,0
448,320,111706,6,0,B|288:352|192:288,1,220
231,309,112444,1,0
231,309,112689,1,0
192,320,112935,2,0,B|64:288,1,110
85,293,113427,1,0
64,256,113673,6,0,B|64:96|192:32,1,220
146,60,114411,1,0
146,60,114657,1,0
148,68,114903,2,0,B|290:72,1,110
258,70,115394,1,0
320,64,115640,5,0
320,96,115886,1,0
320,128,116132,1,0
320,160,116378,1,0
288,160,116624,1,0
256,160,116870,1,0
224,160,117116,1,0
192,160,117362,1,0
160,160,117607,1,0
32,160,118591,1,8
32,224,119083,1,8
96,224,119575,6,0,B|192:160,1,110
187,162,120066,2,0,B|128:288,1,110
140,261,120558,2,0,B|256:192,1,110
235,205,121050,2,0,B|176:327,1,110
187,304,121542,2,0,B|298:233,1,110
279,244,122034,2,0,B|224:368,1,110
234,344,122526,2,0,B|351:271,1,110
327,285,123017,2,0,B|441:215,1,110
448,192,123509,5,0
416,160,123755,1,0
448,128,124001,1,0
416,96,124247,1,0
448,64,124493,1,0
416,32,124739,1,0
384,64,124985,1,0
352,32,125230,1,0
320,64,125476,1,0
256,32,125968,1,8
192,64,126460,1,8
128,96,126952,1,8
64,128,127444,5,0
32,160,127689,1,0
64,192,127935,1,0
96,160,128181,1,0
64,128,128427,1,0
64,192,128673,1,0
128,192,128919,1,0
160,192,129165,1,0
192,192,129411,1,0
320,192,130148,1,0
416,192,130640,1,0
448,224,130886,1,0
480,256,131132,1,0
448,288,131378,5,2
384,320,132116,2,0,B|160:320,1,220
164,320,132853,1,0
164,320,133099,1,0
128,320,133345,2,0,B|32:256|64:96,1,220
59,124,134083,1,0
59,124,134329,1,0
64,64,135312,6,0,B|288:64|416:128,1,330
387,115,136296,1,0
416,128,136542,1,0
448,160,136788,1,0
480,192,137034,1,0
480,224,137280,2,0,B|416:320|256:320,1,220
290,318,138017,1,0
290,318,138263,1,0
224,320,139247,6,0,B|96:320|32:224,1,220
34,227,139985,1,0
34,227,140230,1,0
32,160,141214,2,0,B|96:64|224:32,1,220
208,36,141952,1,0
208,36,142198,1,0
256,32,143181,2,0,B|416:32|480:160,1,220
451,114,143919,1,0
451,114,144165,1,0
448,160,144411,1,2
448,192,144657,1,2
448,224,144903,1,2
448,256,145148,1,2
480,320,163099,5,0
384,320,163345,1,0
288,320,163591,2,0,B|160:320|160:320|160:160,1,220
160,160,164329,1,0
224,160,164575,2,0,B|384:160,1,110
352,160,164944,1,0
416,160,165312,1,0
416,96,165558,1,0
416,32,165804,1,0
352,32,166050,1,0
288,32,166296,1,0
256,32,166419,2,0,B|256:224,1,165
369,224,167034,5,0
256,224,167280,1,0
146,224,167526,2,0,B|274:224,1,110
256,192,167894,2,0,B|256:128,1,55
256,96,168263,1,0
192,96,168509,2,0,B|192:224,1,110
192,224,168878,1,0
256,209,169247,1,0
320,192,169493,2,2,B|320:64|320:64|416:64|416:64|416:320|416:320|320:320,1,550
288,320,170968,5,0
288,192,171460,1,0
224,192,171952,1,0
160,192,172198,1,0
160,128,172444,2,0,B|96:128,2,55
192,128,172812,2,0,B|192:64,2,55
224,128,173181,1,0
288,128,173427,1,0
352,128,173673,1,0
416,128,173919,1,0
416,192,174165,1,0
416,224,174288,2,0,B|224:224,1,165
128,224,174903,5,8
128,128,175148,1,8
128,32,175394,2,0,B|256:32,1,110
256,32,175763,1,0
320,32,176132,1,0
384,32,176378,2,0,B|384:160,1,110
384,192,176747,2,0,B|384:256,1,55
320,256,177116,1,0
256,256,177362,2,2,B|256:32,2,220
