osu file format v5

[General]
AudioFilename: Aramary - koi wo uchiotoshita hi.mp3
AudioLeadIn: 0
PreviewTime: -1
Countdown: 0
SampleSet: Soft
StackLeniency: 0.7
Mode: 0
LetterboxInBreaks: 1

[Editor]
DistanceSpacing: 0.800000011920929
BeatDivisor: 4
GridSize: 8

[Metadata]
Title:Koibito Wo Uchi Otoshita Hi
Artist:Sound Horizon
Creator:gdeath
Version:Easy
Source:Elysion
Tags:Aramary

[Difficulty]
HPDrainRate:2
CircleSize:3
OverallDifficulty:1
SliderMultiplier:1
SliderTickRate:1

[Events]
//Background and Video events
0,0,"Sound Horizon.jpg"
Video,0,"pv.avi"
//Break Periods
2,18428,33270
2,65662,66241
//Storyboard Layer 0 (Background)
//Storyboard Layer 1 (Fail)
//Storyboard Layer 2 (Pass)
//Storyboard Layer 3 (Foreground)
Sprite,Foreground,Centre,"02.png",320,240 M,0,10871,,321,437 F,0,10625,11117,0,1 F,0,11117,17511,1 F,0,17511,18003,1,0
Sprite,Foreground,Centre,"bg03.jpg",316,244 F,0,18363,18855,0,1 M,0,29060,,316,244 F,0,18855,33978,1 F,0,33978,34470,1,0
Sprite,Foreground,Centre,"title01.png",321,239 M,0,18363,19224,320,207,321,239 F,0,18363,19224,0,1 F,0,19224,33486,1 F,0,33486,33978,1,0
Sprite,Foreground,Centre,"title02.png",-40,239 F,0,19232,19970,0,1 M,0,19224,20208,749,240,321,238 M,0,20208,,321,238 M,0,20208,21683,321,238,320,238 F,0,19970,21937,1 M,0,21683,22667,320,238,-121,240 F,0,21937,22675,1,0
Sprite,Foreground,Centre,"title04.png",104,240 F,0,28076,28084,1,0 F,0,28084,28822,0,1 M,0,28076,29060,842,238,320,240 M,0,29060,30535,320,240 F,0,28822,30789,1 M,0,30535,31519,320,240,-139,240 F,0,30789,31527,1,0
Sprite,Foreground,Centre,"title03.png",85,237 F,0,23658,24396,0,1 M,0,23650,24634,810,238,321,237 M,0,24634,26109,321,237 F,0,24396,26363,1 M,0,26109,27093,321,237,-93,238 F,0,26363,27101,1,0
Sprite,Foreground,Centre,"04.png",320,240 M,0,42839,,320,439 F,0,42593,43084,0,1 F,0,43084,49724,1 F,0,49724,50216,1,0
Sprite,Foreground,Centre,"06.png",320,438 M,0,58568,,320,438 F,0,58322,58814,0,1 F,0,58814,65454,1 F,0,65454,65945,1,0
Sprite,Foreground,Centre,"05.png",320,439 M,0,50699,,320,439 F,0,50454,50945,0,1 F,0,50945,54511,1 F,0,54511,57585,1 F,0,57585,58076,1,0
Sprite,Foreground,Centre,"07.png",319,436 M,0,67913,,319,436 F,0,67667,68158,0,1 F,0,68158,74552,1 F,0,74552,75044,1,0
Sprite,Foreground,Centre,"08.png",318,435 M,0,75781,,318,435 F,0,75535,76027,0,1 F,0,76027,83158,1 F,0,83158,83650,1,0
Sprite,Foreground,Centre,"kioku.png",322,236 M,0,290,781,323,210,322,236 F,0,290,781,0,1 F,0,781,1519,1 F,0,1519,2011,1,0
Sprite,Foreground,Centre,"Line.png",320,236 M,0,18363,,320,236 F,0,18363,19224,0,1 F,0,19224,,1 F,0,19224,33240,1,0.8794603 F,0,19224,33240,1 F,0,33240,33978,1,0
Sprite,Foreground,Centre,"title05.png",318,288 M,0,32019,32511,317,333,318,288 F,0,32019,32511,0,1 M,0,32511,33494,318,288 F,0,32511,33494,1 M,0,33494,33986,318,288 F,0,33494,33986,1,0
Sprite,Foreground,Centre,"01.png",320,439 M,0,2511,,320,439 F,0,2511,3002,0,1 F,0,3002,9888,1 F,0,9888,10380,1,0
Sprite,Foreground,Centre,"03.png",320,435 M,0,34478,,320,435 F,0,34478,34970,0,1 F,0,34970,41855,1 F,0,41855,42347,1,0
//Storyboard Sound Samples
//Background Colour Transformations
3,100,163,162,255
3,100,163,162,255

[TimingPoints]
2983,491.803278688525,4,2,0,80,1,0
34458,-100,4,2,0,70,0,0
65941,-100,4,2,0,81,0,1
66917,-100,4,2,0,80,0,0
83638,-100,4,2,0,81,0,1

[Colours]
Combo1 : 255,0,255
Combo2 : 5,240,5
Combo3 : 5,5,240
Combo4 : 240,5,5
Combo5 : 128,255,255

[HitObjects]
360,88,2983,1,0
440,88,3474,1,0
400,152,3966,2,0,B|392:224|304:184,1,100
232,64,5442,2,0,B|112:56|88:192,1,200
96,256,6917,6,0,B|176:360|272:256,1,200
280,184,8392,1,0
352,224,8884,1,0
424,256,9376,1,0
360,104,10360,1,2
424,72,10851,5,0
424,72,11343,1,0
344,72,11835,2,0,B|272:152,1,100
360,144,12819,2,0,B|464:144|464:144|464:256|464:256|376:256,1,300,0|0
304,288,14786,6,0,B|232:192,2,100
232,328,16261,2,0,B|144:208,1,100
72,120,17737,1,2
72,120,18228,1,2
360,88,34950,6,0,B|456:192|344:272,1,200
280,264,36425,1,0
200,264,36917,2,0,B|112:176|216:72,1,200
280,88,38392,1,0
440,96,39376,5,0
440,96,39868,2,0,B|376:176|376:176|288:72,1,200
152,104,41835,1,2
152,104,42327,1,2
112,200,42819,6,0,B|176:280|176:280|240:200,1,200
304,248,44294,1,0
352,184,44786,1,0
448,56,45769,1,2
176,72,46753,5,0
176,72,47245,1,0
96,96,47737,2,0,B|24:128|96:200,1,100
152,200,48720,2,0,B|232:176|216:272,1,100
176,312,49704,1,2
368,112,50687,5,0
368,112,51671,2,0,B|288:48|288:48|200:120,1,200
216,112,53638,1,2
368,296,54622,5,0
408,224,55114,1,0
352,168,55605,2,0,B|312:112|264:176,1,100
224,232,56589,2,0,B|192:288|128:288|72:168,1,200
328,80,58556,6,0,B|216:80,1,100
144,80,59540,2,0,B|144:192,1,100
224,184,60523,2,0,B|336:184,1,100
400,184,61507,1,2
256,304,62491,6,0,B|368:304,2,100
96,272,64458,2,0,B|152:320|184:232,1,100
232,200,65442,1,2
384,192,67901,5,0
336,128,68392,2,0,B|248:40|128:144,1,200
112,192,69868,1,0
160,256,70360,2,0,B|248:352|368:232,1,200
392,200,71835,5,0
400,120,72327,2,0,B|480:48,2,100
320,104,73802,2,0,B|232:184,1,100,2|2
136,280,75769,5,0
200,232,76261,1,0
264,280,76753,1,0
328,232,77245,1,0
392,280,77737,2,0,B|464:296|456:216,1,100
456,152,78720,2,8,B|456:72,1,75,2|2
320,72,79704,5,0
240,72,80196,1,0
240,72,80687,2,0,B|136:152|240:256,1,200,0|0
256,192,82163,12,0,83638
256,192,84130,5,2
