osu file format v9

[General]
AudioFilename: sound horizon - Hiiro no hana.mp3
AudioLeadIn: 0
PreviewTime: 113759
Countdown: 0
SampleSet: Soft
StackLeniency: 0.7
Mode: 0
LetterboxInBreaks: 0

[Editor]
DistanceSpacing: 0.8
BeatDivisor: 2
GridSize: 8

[Metadata]
Title:Hiiro no Hana
Artist:Sound Horizon
Creator:Beren
Version:Robinary
Source:Lost
Tags:Gabriela Robin Trans_Am Daigurenhyourinmaru

[Difficulty]
HPDrainRate:4
CircleSize:4
OverallDifficulty:4
ApproachRate:5
SliderMultiplier:1
SliderTickRate:1

[Events]
//Background and Video events
0,0,"BG.jpg"
//Break Periods
2,43685,55999
2,84828,89856
2,113970,145142
//Storyboard Layer 0 (Background)
//Storyboard Layer 1 (Fail)
//Storyboard Layer 2 (Pass)
//Storyboard Layer 3 (Foreground)
//Storyboard Sound Samples
//Background Colour Transformations
3,100,163,162,255

[TimingPoints]
628,428.571428571429,4,2,1,30,1,0
7056,-100,4,1,1,30,0,0
7913,-100,4,2,1,30,0,0
8770,-100,4,1,1,30,0,0
9199,-100,4,2,1,30,0,0
10056,-100,4,1,1,30,0,0
10485,-100,4,2,1,30,0,0
11342,-100,4,1,1,30,0,0
11770,-100,4,2,1,30,0,0
12413,-100,4,2,1,30,0,0
17342,-100,4,1,1,30,0,0
18199,-100,4,2,1,30,0,0
19056,-100,4,1,1,30,0,0
19485,-100,4,2,1,30,0,0
20342,-100,4,1,1,30,0,0
20770,-100,4,2,1,30,0,0
21628,-100,4,1,1,30,0,0
22056,-100,4,2,1,30,0,0
22699,-100,4,2,1,30,0,0
27842,-100,4,1,1,30,0,0
28485,-100,4,2,1,30,0,0
29342,-100,4,1,1,30,0,0
29770,-100,4,2,1,30,0,0
30628,-100,4,1,1,30,0,0
31056,-100,4,2,1,30,0,0
31913,-100,4,1,1,30,0,0
32342,-100,4,2,1,30,0,0
32985,-100,4,2,1,30,0,0
38342,-100,4,1,1,30,0,0
57199,-100,4,2,1,30,0,0
70699,-100,4,1,1,30,0,0
194342,-66.6666666666667,4,1,1,30,0,0

[Colours]
Combo1 : 67,118,188
Combo2 : 230,247,172
Combo3 : 72,183,174
Combo4 : 140,198,255

[HitObjects]
109,112,2342,1,2
180,77,2770,1,0
259,68,3199,2,0,B|323:76|387:132,1,100
202,292,4913,2,0,B|338:292,3,100,2|0|0|0
153,102,7485,6,0,B|97:102|49:150,2,100,4|8|8
189,172,8770,2,0,B|139:204|105:274,2,100,0|8|8
264,146,10056,1,4
300,217,10485,2,0,B|300:329,2,100,8|8|0
334,144,11770,2,0,B|382:112|430:144,1,100,8|8
392,214,12628,5,2
335,270,13056,1,0
385,331,13485,2,0,B|440:301|467:240,1,100
359,42,15199,2,0,B|312:64|271:114,1,100,2|0
341,154,16056,2,0,B|305:197|245:226,1,100
61,86,17770,6,0,B|181:32,2,100,4|8|8
121,138,19056,2,0,B|257:138,2,100,0|8|8
160,207,20342,2,0,B|283:263,2,100,4|8|8
148,286,21627,2,0,B|207:379,2,100,0|8|8
188,217,22913,5,2
257,177,23342,1,0
270,98,23770,2,0,B|206:98|158:154,1,100
57,340,25485,1,2
121,293,25913,1,0
201,289,26342,1,0
269,247,26770,1,0
395,43,28056,5,4
332,92,28485,2,0,B|438:149,2,100,8|8|0
259,125,29770,1,8
190,166,30199,2,0,B|70:166,2,100,8|4|8
251,217,31485,1,8
322,253,31913,2,0,B|322:381,2,100,0|8|8
283,182,33199,5,2
210,149,33627,1,0
132,170,34056,1,0
112,247,34485,2,0,B|224:247|256:127|384:127,1,300,0|2
344,283,36628,1,0
344,283,37056,2,0,B|239:276|156:184,1,200,0|0
104,149,38342,6,0,B|71:221,5,50,4|0|0|0|0|0
85,263,39628,2,0,B|119:324,5,50
172,334,40913,2,0,B|238:334,5,50,4|0|0|0|0|0
256,192,42199,12,4,43485
400,88,57199,5,4
400,88,57842,1,8
216,176,58913,1,2
216,176,59556,1,8
376,296,60628,1,2
376,296,61270,1,8
178,326,62342,2,0,B|82:264,1,100,4|8
96,191,63199,2,0,B|200:135,1,100,4|8
258,113,64056,5,4
258,113,64699,1,8
413,238,65770,1,2
413,238,66413,1,8
256,344,67485,2,0,B|80:312|32:152,1,300,2|0
96,104,69199,2,0,B|256:120|320:288,1,300,2|0
248,328,70913,5,4
104,256,71770,1,0
168,112,72628,1,0
320,56,73485,1,0
440,160,74342,2,0,B|440:288,1,100,0|8
376,304,75199,2,0,B|376:176,1,100,0|8
312,152,76056,2,0,B|312:280,1,100,0|8
246,298,76913,2,0,B|246:178,1,100,0|8
245,117,77770,5,4
85,133,78628,1,0
36,285,79485,1,0
191,321,80342,1,0
349,300,81199,2,0,B|437:236,2,100,0|8|0
276,334,82485,1,8
256,192,82913,12,4,84628
72,328,91056,5,0
72,328,91485,2,0,B|140:236|264:213,1,200,4|0
312,200,92770,1,8
379,156,93199,2,0,B|464:77,2,100,0|8|0
312,200,94485,1,8
247,252,94913,2,0,B|199:321|96:330,1,150
121,326,95770,2,0,B|49:287|32:203,1,150
33,210,96627,2,0,B|77:141|162:119,2,150
256,192,98342,12,8,99627
216,64,100056,5,4
136,40,100485,1,8
64,72,100913,1,0
32,144,101342,1,8
64,216,101770,1,0
120,272,102199,1,8
184,312,102627,1,0
256,352,103056,1,8
328,312,103485,5,4
392,272,103913,1,8
448,216,104342,1,0
480,144,104770,1,8
448,72,105199,1,0
376,40,105627,1,8
296,64,106056,1,0
229,108,106485,6,0,B|185:144|185:144|166:196,1,100,0|4
249,193,107342,2,0,B|296:220|296:220|329:292,1,100,8|0
235,273,108199,2,0,B|151:356,1,100,8|0
98,296,109056,6,0,B|98:167,1,100,8|0
99,115,109913,1,8
99,115,110342,2,0,B|156:192|260:220,1,150,4|0
216,205,111199,2,0,B|297:224|393:186,1,150
364,196,112056,1,0
438,167,112485,1,8
256,192,112913,12,0,113770
87,304,146342,5,4
129,236,146770,1,0
181,175,147199,2,0,B|210:128|265:84,1,100,0|8
319,67,148056,1,4
388,107,148485,1,0
465,89,148913,2,0,B|465:225,1,100,0|8
414,251,149770,6,0,B|320:332,3,100,0|8|0|8
325,237,151485,2,0,B|307:131,3,100,0|8|0|8
286,61,153199,6,0,B|196:98|228:206|169:223|124:257|60:270,1,300,4|0
145,312,154913,2,0,B|296:383|470:290,1,300
256,192,156627,12,0,159199
256,192,159627,5,0
305,129,160056,2,0,B|371:176|402:281,1,150,4|0
310,338,161342,1,0
230,338,161770,2,0,B|105:338,3,100,0|8|0|8
52,333,163485,2,0,B|51:221|190:202|187:64,1,300,0|8
267,75,165199,2,0,B|264:201|420:223|419:348,1,300,0|8
475,270,166913,5,0
462,190,167342,1,8
416,124,167770,1,0
349,79,168199,1,8
270,62,168627,2,0,B|134:62,1,100,0|8
126,129,169485,2,0,B|256:129,1,100,0|8
306,129,170342,6,0,B|404:168|462:258,2,200
190,161,172699,1,0
249,265,173342,1,0
256,192,173770,12,0,175056
256,192,175485,5,4
320,240,175913,1,8
384,192,176342,1,0
320,152,176770,1,8
256,104,177199,2,0,B|208:64|128:56,1,100,0|8
112,120,178056,2,0,B|128:184|192:216,1,100,0|8
248,200,178913,6,0,B|268:280|204:359,1,150,4|0
216,341,179770,2,0,B|298:299|382:310,1,150
361,308,180627,2,0,B|360:220|436:163,1,150
420,175,181485,1,0
362,121,181913,6,0,B|274:41,1,100,0|4
207,55,182770,2,0,B|114:132,1,100,8|0
202,153,183627,2,8,B|256:170|256:170|326:138,1,100,8|0
352,90,184485,1,8
400,153,184913,1,0
356,220,185342,1,8
282,250,185770,6,0,B|177:231|114:138,2,200,4|0|0
340,195,187913,1,8
379,125,188342,1,0
380,45,188770,1,8
256,192,189199,12,4,191770
414,78,194342,5,4
414,78,194556,1,0
356,133,194770,1,8
356,133,194985,1,0
300,74,195199,1,0
300,74,195413,1,0
241,128,195627,1,8
241,128,195842,1,0
239,128,196056,2,0,B|155:136|80:187,1,149.999995529652,0|8
24,270,196913,2,0,B|72:333|152:374,1,149.999995529652,0|8
158,248,197770,6,0,B|249:131|431:96,1,299.999991059304,4|0
454,212,199056,1,8
438,331,199485,2,0,B|278:345|142:234,1,299.999991059304
59,314,200770,5,8
32,196,201199,2,0,B|31:109,1,74.9999977648259,4|0
68,74,201627,2,0,B|131:17,1,74.9999977648259,0|8
183,25,202056,2,0,B|280:24,1,74.9999977648259,0|0
317,32,202485,2,0,B|391:93,1,74.9999977648259,0|8
398,134,202913,2,0,B|331:171|254:181,3,149.999995529652,0|8|0|8
139,209,204627,6,0,B|239:332|412:349,1,299.999991059304,4|0
357,233,205913,1,8
470,194,206342,2,0,B|378:71|194:47,1,299.999991059304
103,93,207627,1,8
103,93,208056,1,4
