osu file format v6

[General]
AudioFilename: 11..mp3
AudioLeadIn: 0
PreviewTime: 0
Countdown: 0
SampleSet: Soft
StackLeniency: 0.7
Mode: 0
LetterboxInBreaks: 1

[Editor]
DistanceSpacing: 1.60000002384186
BeatDivisor: 2
GridSize: 8

[Metadata]
Title:Eru no Rakuen(side:A)
Artist:Sound Horizon
Creator:haruhiteamsos
Version:Alice
Source:elysion
Tags:

[Difficulty]
HPDrainRate:4
CircleSize:3
OverallDifficulty:2
SliderMultiplier:1.2
SliderTickRate:1

[Events]
//Background and Video events
0,0,"E_0.jpg"
//Break Periods
2,73015,77392
2,106425,110119
2,182787,202847
2,258470,268301
//Storyboard Layer 0 (Background)
//Storyboard Layer 1 (Fail)
//Storyboard Layer 2 (Pass)
//Storyboard Layer 3 (Foreground)
//Storyboard Sound Samples
//Background Colour Transformations
3,100,255,255,255

[TimingPoints]
24407,681.818181818182,4,2,0,19,1,0
155316,-100,4,2,1,50,0,0
173043,-100,4,2,1,40,0,0
174407,-100,4,2,1,30,0,0
175770,-100,4,2,1,20,0,0
177134,-100,4,2,0,35,0,0
182588,-100,4,1,0,71,0,0
204407,-100,4,2,0,49,0,0
236452,-100,4,2,0,0,0,0
237134,-100,4,2,1,35,0,0
248043,-100,4,1,0,50,0,0
249407,-100,4,2,1,26,0,0
250770,-100,4,2,1,26,0,0
252134,-100,4,2,1,26,0,0
269861,-100,4,1,1,76,0,0

[Colours]
Combo1 : 255,0,0
Combo2 : 255,96,255
Combo3 : 0,255,255
Combo4 : 128,255,0
Combo5 : 255,223,2

[HitObjects]
96,152,24406,1,8
216,80,25088,1,0
352,144,25770,1,8
296,280,26452,1,0
152,288,27134,1,8
152,216,27475,6,8,B|152:80,1,120
224,96,28497,2,8,B|224:224,1,120,8|8
224,288,29520,5,0
296,288,29861,1,8
384,176,30543,1,0
288,72,31225,1,8
160,136,31906,2,8,B|160:240,2,60,8|0|8
160,64,32929,6,8,B|328:64,1,120
280,136,33952,2,0,B|144:136,1,120,8|8
160,208,34975,6,8,B|160:280,2,60,8|8|8
168,136,35997,2,0,B|224:88|280:136,1,120,0|8
280,208,37020,2,8,B|280:280,2,60,8|8|8
280,136,38043,1,8
280,64,38384,6,8,B|128:64,1,120
160,136,39406,2,0,B|304:136,1,120,8|8
352,136,40429,6,8,B|416:136,2,60
280,136,41452,2,0,B|144:136,1,120,0|8
88,136,42475,2,8,B|16:136,2,60,8|8|8
160,136,43497,1,8
232,152,43838,6,8,B|288:208|192:232|280:280,1,120
312,224,44861,2,0,B|373:194|277:170|333:114,1,120,8|8
360,56,45884,6,0,B|288:56,1,60
96,128,47247,2,0,B|160:128,1,60
344,240,48611,2,0,B|344:312,1,60
256,208,49975,12,8,50997
136,64,51679,5,8
256,144,52361,1,0
136,224,53043,1,8
256,304,53725,1,0
376,224,54407,1,8
376,152,54747,6,8,B|240:152,1,120
184,152,55770,2,0,B|48:152,1,120,8|8
64,80,56793,5,0
136,80,57134,1,8
280,80,57816,1,0
424,80,58497,1,8
424,224,59179,2,8,B|424:312,2,60,0|8|8
424,152,60202,6,8,B|424:16,1,120
352,32,61225,2,0,B|352:160,1,120,8|8
352,224,62247,6,8,B|352:296,2,60,8|8|8
352,152,63269,2,0,B|296:104|240:152,1,120,0|8
240,224,64292,2,8,B|240:296,2,60,8|8|8
240,152,65315,1,8
240,80,65656,6,8,B|408:80,1,120
360,152,66679,2,0,B|208:152,1,120,8|8
168,152,67702,6,8,B|104:152,2,60
240,152,68725,2,8,B|368:152,1,120,0|8
432,152,69747,2,8,B|504:152,2,60
360,152,70770,1,8
296,128,71111,6,8,B|272:72|216:128|208:56,1,120,8|8
144,96,72134,2,0,B|151:162|207:106|231:162,1,120,8|8
96,64,78952,5,8
88,208,79634,1,0
232,208,80316,1,8
232,64,80997,1,0
88,64,81679,1,8
88,136,82020,6,8,L|88:280,1,120
160,256,83043,2,8,L|160:120,1,120,8|8
160,64,84066,5,0
232,64,84406,1,8
376,64,85088,1,0
376,208,85770,1,8
232,208,86452,1,0
232,64,87134,1,8
304,64,87475,6,8,L|456:64,1,120
424,136,88497,2,8,L|288:136,1,120
232,136,89520,6,8,L|144:136,2,60
304,136,90543,2,0,B|384:200|288:248,1,120,0|8
240,240,91566,2,8,B|160:240,2,60
312,240,92588,1,8
384,240,92929,6,8,B|440:176|352:120,1,120
304,136,93952,2,8,B|240:184|320:256,1,120
376,240,94975,6,8,B|440:240,2,60
304,240,95997,2,0,B|160:240,1,120,0|8
112,240,97020,2,8,B|48:240,2,60
184,240,98043,1,8
256,240,98384,6,8,B|352:272|336:176,1,120
328,120,99407,2,8,B|256:80|232:176,1,120
232,232,100429,6,0,B|232:304,1,60
416,176,101793,2,0,B|416:248,1,60
368,24,103157,2,0,B|368:104,1,60
264,272,104520,2,0,B|264:88,1,180
264,88,106225,5,0
304,136,111679,6,0,B|387:60|480:168,1,180
472,248,113043,2,0,B|464:312|400:304,1,60
360,256,113725,2,0,B|408:232|392:184,1,60
384,120,114407,6,0,B|328:32|224:56,1,180
264,144,115770,2,0,B|320:136|312:208,1,60
216,168,116452,2,0,B|160:160|168:232,1,60
176,288,117134,6,0,B|272:376|360:264,1,180
408,232,118497,2,0,B|328:144|232:248,1,180
176,288,119861,2,0,B|96:376|16:264,1,180
24,184,121225,1,0
264,128,122588,6,0,B|320:216|320:272|240:328,1,180
200,344,123952,1,0
48,224,124634,1,0
168,72,125316,2,0,B|280:24|392:88,1,180
424,112,126679,1,0
360,296,127361,1,0
168,296,128043,2,0,B|112:232,1,60
104,64,129066,2,0,B|152:112,1,60,0|0
256,208,130429,12,0,132134
32,88,133497,5,0
320,88,134520,2,0,B|72:88,1,240
128,176,136225,5,0
416,176,137248,2,0,B|168:176,1,240
216,264,138952,5,0
504,264,139975,2,0,B|256:264,1,240
168,264,141679,1,0
456,264,142702,2,0,B|376:264,1,60
64,72,144407,5,0
240,72,145429,2,0,B|328:72,4,60
176,72,147134,1,0
176,256,148157,2,0,B|176:328,4,60
176,192,149861,1,0
184,16,150884,2,0,B|256:16,1,60
424,16,152247,2,0,B|424:320,1,300
136,320,155316,5,4
136,104,156338,2,2,L|136:72|136:72|168:72,1,60
384,72,157702,2,2,B|464:72,1,60
488,128,158384,2,2,B|488:168,1,30,0|2
440,256,159066,2,2,B|336:256,1,60
336,200,159747,2,2,B|336:160,1,30,0|2
256,240,160429,2,0,L|256:320,1,60,0|4
168,312,161111,6,0,B|96:312,2,60
256,280,162134,1,0
336,232,162475,2,0,B|400:232,2,60
256,184,163497,1,0
176,136,163838,2,0,B|96:136,2,60
248,72,164861,1,0
248,168,165202,2,0,B|248:328,1,120
152,288,166225,5,0
64,176,166907,2,0,L|192:80,1,120,0|0
160,112,168952,1,0
304,112,169634,1,0
184,192,170316,1,0
328,192,170997,1,0
328,320,171679,5,2
328,320,173043,1,2
328,320,174407,1,2
328,320,175770,1,2
176,272,177134,5,4
104,272,177475,2,2,L|32:272,2,60,2|0|2
248,272,178838,2,0,L|328:272,2,60,2|2|2
176,272,179861,2,0,L|64:272,2,90,2|2|2
320,272,181566,2,4,L|320:200,1,60
392,216,182247,2,0,L|392:288,1,60,4|4
256,96,204407,6,0,B|256:296,1,180
328,280,205770,1,0
328,136,206452,1,0
184,136,207134,2,0,B|184:320,1,180
256,320,208497,1,0
400,320,209179,1,0
400,176,209861,2,0,B|208:176,1,180
144,176,211225,1,0
144,32,211907,1,0
288,32,212588,2,0,B|448:32,1,120
408,104,213611,1,0
408,176,213952,2,0,B|248:176,1,120
184,272,215316,6,0,B|184:72,1,180
256,96,216679,1,0
400,96,217361,1,0
400,240,218043,2,0,B|192:240,1,180
144,240,219407,1,0
144,96,220088,1,0
288,96,220770,2,0,B|384:96,1,60
344,240,221793,2,0,B|256:240,1,60
64,240,223157,2,0,B|64:144,5,60
32,88,226225,5,0
320,88,227248,2,0,B|72:88,1,240
128,176,228953,5,0
416,176,229976,2,0,B|168:176,1,240
216,264,231680,5,0
504,264,232703,2,0,B|256:264,1,240
168,264,234407,1,0
456,264,235430,2,0,B|376:264,1,60
64,72,237134,5,0
240,72,238156,2,0,B|328:72,4,60
176,72,239861,1,0
176,256,240884,2,0,B|176:328,4,60
176,192,242588,1,0
184,16,243611,2,0,B|256:16,1,60
424,16,244974,2,0,B|424:320,1,300
72,64,248043,5,0
160,328,249407,1,2
248,64,250770,1,2
336,328,252134,1,2
416,64,253497,5,2
224,56,254179,1,0
32,56,254861,1,2
32,248,255543,1,0
224,248,256225,1,2
416,248,256907,1,0
408,56,257588,1,2
216,56,258270,1,0
256,192,269861,5,4
